#TITLE:Kill The Beat;
#SUBTITLE:;
#ARTIST:lapix;
#TITLETRANSLIT:;
#SUBTITLETRANSLIT:;
#ARTISTTRANSLIT:;
#GENRE:;
#CREDIT:;
#BANNER:Kill_The_Beat_banner.png;
#BACKGROUND:Kill_The_Beat.png;
#LYRICSPATH:;
#CDTITLE:;
#MUSIC:Kill The Beat.ogg;
#OFFSET:-0.320000;
#SAMPLESTART:26.320000;
#SAMPLELENGTH:15.000000;
#SELECTABLE:YES;
#BPMS:0.000000=120.000000
;
#STOPS:
;
#BGCHANGES:;
#KEYSOUNDS:;
#ATTACKS:;

//---------------dance-single - ----------------
#NOTES:
     dance-single:
     :
     Easy:
     3:
     0.159897,0.184835,0.020537,0.010269,0.000000,109.000000,107.000000,2.000000,1.000000,0.000000,0.000000,0.159897,0.184835,0.020537,0.010269,0.000000,109.000000,107.000000,2.000000,1.000000,0.000000,0.000000:
// measure 0
0000
0000
0000
0000
,  // measure 1
1000
0000
1000
0000
,  // measure 2
0001
0000
0001
0000
,  // measure 3
0010
0000
0010
0000
,  // measure 4
0100
0000
0100
0100
,  // measure 5
0010
0000
0010
0000
,  // measure 6
0001
0000
0001
0000
,  // measure 7
1000
0000
1000
0000
,  // measure 8
0010
0000
0110
0000
,  // measure 9
1000
1000
1000
0000
,  // measure 10
0001
0001
0001
0000
,  // measure 11
0010
0000
0100
0000
,  // measure 12
0010
0100
0010
0100
,  // measure 13
0001
0000
0001
0000
,  // measure 14
1000
0000
1000
0000
,  // measure 15
0010
0000
0010
0000
,  // measure 16
0100
0000
0100
0000
,  // measure 17
0001
0000
0010
0000
,  // measure 18
0001
0000
0010
0000
,  // measure 19
0100
0000
1000
0000
,  // measure 20
0100
0000
1000
0000
,  // measure 21
0001
0000
0100
0010
,  // measure 22
0100
0000
0001
0000
,  // measure 23
1000
0000
0100
0010
,  // measure 24
0100
0000
1000
0000
,  // measure 25
0010
0000
0010
0000
,  // measure 26
0100
0000
0100
0010
,  // measure 27
0100
0000
2000
3000
,  // measure 28
0001
0001
0001
0000
,  // measure 29
0100
0000
0010
0000
,  // measure 30
1000
0100
1000
0000
,  // measure 31
0001
0000
0010
0000
,  // measure 32
0001
0100
0001
0000
,  // measure 33
1000
0000
0100
0000
,  // measure 34
0010
0000
0001
0000
,  // measure 35
1000
0001
1000
0000
,  // measure 36
0010
0000
0100
0010
,  // measure 37
0100
0000
0001
0000
,  // measure 38
1000
0000
0100
0000
,  // measure 39
0010
0001
0010
0000
,  // measure 40
0100
1000
0100
0000
,  // measure 41
1000
0000
0010
0100
,  // measure 42
0001
0000
0010
0100
,  // measure 43
1000
0000
0001
0000
,  // measure 44
0100
0010
0100
0000
,  // measure 45
1001
0000
0000
0000
;

//---------------dance-single - ----------------
#NOTES:
     dance-single:
     :
     Hard:
     15:
     0.686531,0.646924,0.164298,0.102686,0.775281,468.000000,452.000000,16.000000,10.000000,0.000000,0.000000,0.686531,0.646924,0.164298,0.102686,0.775281,468.000000,452.000000,16.000000,10.000000,0.000000,0.000000:
0000
0000
0000
0000
,
1000
0100
0000
1000
0001
0000
0100
0000
0010
0000
0100
0001
0000
1000
0001
0000
,
0010
0100
0000
1000
0100
0000
1000
0000
0010
0000
0100
0010
0100
0000
0010
0000
,
1000
0001
0000
0010
0100
0000
1000
0000
0010
0100
0010
0000
1000
0000
0100
0000
,
0010
0001
0000
0001
0100
0000
0010
0000
1000
0001
1000
0000
0010
0000
0100
0000
,
0001
0010
0000
0001
0100
0000
0010
0000
1000
0100
1000
0000
0002
0000
0000
0000
,
0103
0010
0000
0010
0100
0000
0001
0000
1000
0001
1000
0000
0100
0000
0010
0000
,
0001
1000
0000
1000
0001
0000
0100
0000
0010
1000
0010
0000
0100
0000
0001
0000
,
0010
0001
0000
0001
0010
0000
0100
1000
0000
1000
0001
0000
1001
0000
0000
0000
,
0100
0000
0100
0000
0010
0000
0010
0000
1000
0000
1000
0001
0000
1000
0001
0000
,
0010
0000
0010
0000
0100
0000
0100
0000
1000
0000
0001
0010
0000
0001
0010
0000
,
0100
0100
1000
1000
0010
0010
0001
0001
,
0010
1000
0010
1000
0001
0100
0001
0100
0020
0000
0000
0000
1030
0000
1100
0000
,
1000
0100
0010
0100
1000
0000
0001
0100
0010
0100
0001
0000
1000
0000
1001
0000
,
0001
0010
0100
0010
0001
0000
1000
0010
0100
0010
1000
0000
2002
0000
3003
0000
,
0010
0100
0001
0100
0010
0000
1000
0001
0100
0001
1000
0000
0001
0000
0011
0000
,
0010
0100
1000
0100
0010
0000
0001
0100
0010
0100
0001
0000
2002
0000
3003
0000
,
0100
0001
1000
0001
0100
0000
0010
1000
0001
1000
0010
0000
0100
0000
0110
0000
,
0010
0100
0001
0100
0010
0000
1000
0001
0100
0001
1000
0000
2200
0000
3300
0000
,
0001
0100
0010
0100
0001
0000
1000
0100
0010
0100
1000
0000
0001
0000
0101
0000
,
0100
0010
0000
0010
1000
0000
1000
0100
0000
0100
0010
0000
0011
0000
0000
0000
,
1100
0000
1000
0000
0001
0100
0001
0100
0000
0010
0100
0000
0001
0000
1000
0000
,
1100
0000
0100
0000
0010
0100
0010
0100
0000
1000
0100
0000
0110
0000
0000
0000
,
1000
0000
0010
0000
1000
0001
1000
0001
0000
0100
0010
0000
1000
0000
0100
0000
,
0010
0100
1000
0000
0001
0100
0010
0000
1000
0001
0010
0001
1000
0100
0010
0000
,
0001
0000
0100
0000
0010
1000
0100
0010
0000
0001
1000
0000
0010
0000
1000
0000
,
0001
0000
0100
0000
0010
1000
0001
0010
0000
0001
0100
0000
0110
0000
0000
0000
,
1000
0000
0001
0000
0010
0100
1000
0001
0000
0100
0010
0000
2002
3003
0000
0000
,
0100
0010
0000
0010
1000
0000
0001
0010
0000
0010
0100
0000
1000
0000
0001
0000
,
1000
0000
0100
0010
0000
0010
0100
0000
1000
0001
0000
0001
0000
0100
0010
0000
,
1000
0000
0001
0010
0001
0000
1000
0000
0010
0000
0100
0010
1000
0000
0001
0000
,
0010
0000
0100
0000
1000
0000
0001
1000
0010
0000
1000
0000
0001
0000
0100
0010
,
1000
0000
0100
0000
0010
0000
0001
1000
0100
0000
1000
0010
0000
0100
0001
0000
,
1000
0001
0010
0000
0010
0001
0000
0010
0100
0000
1000
0010
1000
0000
0001
0000
,
0100
0000
0000
1010
0000
0000
0001
1000
0100
0000
0010
0100
1000
0000
0001
0000
,
0100
0010
0000
1000
0100
0000
1000
0001
0000
0010
0001
0000
1000
0010
0000
0100
,
0001
0000
0010
0000
0100
0000
1000
0010
0100
0000
0001
0010
0000
0100
1000
0000
,
0010
0000
0100
0010
1000
0000
0001
0000
1000
0010
0000
1000
0001
0000
0010
0100
,
1000
0000
0001
1000
0010
0000
0100
0000
0001
0010
0000
0010
0001
0000
1000
0000
,
0010
0000
0100
0000
0001
0000
1000
0010
0100
0000
0001
0000
0010
0000
0100
1000
,
0001
0000
1000
0000
0010
0000
0100
0000
0001
0010
0000
0100
1000
0000
0010
1000
,
0000
0010
1000
0000
0100
0010
0100
0010
0001
0000
0001
0010
0100
0000
1000
0000
,
0010
0000
1000
0001
0000
0100
0010
0100
0000
0000
0001
1000
0100
0000
0010
0000
,
0100
1000
0000
0010
0100
0000
0001
0010
0000
0001
1000
0000
0100
0010
0000
0100
,
1000
0000
0100
0000
0001
0000
0100
1000
0001
0100
0010
0100
0001
0000
1000
0100
,
0010
0000
0000
0000
;

//---------------dance-single - ----------------
#NOTES:
     dance-single:
     :
     Medium:
     9:
     0.363803,0.323462,0.041075,0.030806,0.020537,248.000000,244.000000,4.000000,3.000000,0.000000,0.000000,0.363803,0.323462,0.041075,0.030806,0.020537,248.000000,244.000000,4.000000,3.000000,0.000000,0.000000:
0000
0000
0000
0000
,
0001
0000
0010
0001
1000
0000
0010
0000
,
1000
0000
0001
1000
0100
0000
0010
0000
,
0001
0000
1000
0001
1000
0000
0100
0000
,
0010
0000
0100
1000
0100
0010
0100
0000
,
1000
0000
0001
0010
0100
0000
0010
0000
,
0001
0000
1000
0001
0100
0000
0010
0000
,
1000
0001
0010
0000
0001
1000
0010
0000
,
0100
0010
0100
0001
1000
0100
0010
0000
,
0001
0000
0001
0000
0001
0100
0001
0000
,
1000
0000
1000
0000
1000
0100
1000
0000
,
0010
0010
0010
0000
0100
0100
0100
0000
,
0001
0010
0100
1000
0001
0000
1001
0000
,
0100
0010
0100
0001
0000
0001
0010
0000
,
0001
0100
0001
1000
0000
1000
0020
0000
,
0130
0001
1000
0100
0000
0100
1000
0000
,
0010
1000
0001
0010
0000
0010
0001
0000
,
0100
0001
0100
0010
0000
0010
1000
0000
,
0100
1000
0100
0010
0000
0010
0001
0000
,
1000
0001
1000
0001
0000
0001
1000
0000
,
0010
0000
0000
0100
0000
0000
0010
0000
1000
0000
0100
0000
0010
0000
0000
0000
,
0002
0000
0013
0100
0010
0000
0001
0000
,
1000
0000
0010
0100
0010
0000
1000
0000
,
1001
0000
0010
0100
0010
0000
1000
0000
,
0001
0000
0100
0001
0010
0000
0001
0000
,
0010
0000
0001
1000
0001
0000
0100
0000
,
0010
0000
1000
0001
1000
0000
0100
0000
,
0010
0000
0001
1000
0001
0000
0200
0000
,
0310
0000
0000
0010
0000
0000
0010
0000
0000
0000
1000
0000
1000
0000
0000
0000
,
0001
0000
0100
0010
0100
0000
0001
0000
,
1000
0100
0000
1000
0010
1000
0100
0000
,
1000
0010
0000
0010
1000
0001
0000
0010
,
0001
0100
0000
0100
0001
0010
0001
0000
,
1000
0000
0100
0010
0100
0000
1000
0000
,
0001
0000
0000
0001
0000
0000
0001
0000
0000
0000
0100
0000
0100
0000
0000
0000
,
0010
1000
0001
0000
1000
0100
0010
0000
,
0001
0000
1001
0000
0100
0010
1000
0000
,
0010
0000
1000
0001
1000
0000
0100
0000
,
0010
0001
0000
0001
0100
0001
0010
0000
,
0001
0100
0000
0100
0001
1000
0000
0100
,
1000
0010
0000
0010
1000
0100
1000
0000
,
0001
0000
0010
0100
0010
0000
0001
0000
,
1000
0000
0000
1000
0000
0000
1000
0000
0000
0000
0010
0000
0010
0000
0000
0000
,
0100
0001
1000
0000
0001
0010
0100
0000
,
1000
0001
0000
0001
1000
0010
0100
0000
,
0011
0000
0000
0000
;
