#TITLE:穢レテ唱ウハ黄泉ノ呪詛;
#SUBTITLE:;
#ARTIST:片霧烈火 ト 少年トトリオット;
#TITLETRANSLIT:Kegarete tonau wa yomi no uta;
#SUBTITLETRANSLIT:;
#ARTISTTRANSLIT:Rekka Katakiri to Shounen Totoriott;
#GENRE:;
#CREDIT:;
#BANNER:Kegarete_tonau_wa_yomi_no_uta_banner.png;
#BACKGROUND:Kegarete_tonau_wa_yomi_no_uta.png;
#LYRICSPATH:;
#CDTITLE:;
#MUSIC:Kegarete tonau wa yomi no uta.ogg;
#OFFSET:-0.800000;
#SAMPLESTART:79.059998;
#SAMPLELENGTH:12.300000;
#LASTBEATHINT:307.000000;
#SELECTABLE:YES;
#BPMS:0.000000=156.000000
,260.000000=78.000000
,262.000000=156.000000
;
#STOPS:
;
#BGCHANGES:;
#KEYSOUNDS:;
#ATTACKS:;

//---------------dance-single - ----------------
#NOTES:
     dance-single:
     :
     Easy:
     5:
     0.198769,0.272785,0.089504,0.162735,0.000000,171.000000,160.000000,11.000000,20.000000,0.000000,0.000000,0.198769,0.272785,0.089504,0.162735,0.000000,171.000000,160.000000,11.000000,20.000000,0.000000,0.000000:
0000
0000
0000
0000
,
0000
0000
0000
0000
,
0000
0000
0000
0000
,
0000
0000
0000
0000
,
2000
0000
3000
0000
,
0002
0000
0003
0000
,
0010
0000
0100
0000
,
2002
0000
3003
0000
,
0010
0000
0100
0000
,
0001
0000
1000
0000
,
0100
0000
0010
0000
,
0002
0000
0003
0000
,
2000
0000
3000
0000
,
0010
0000
0100
0000
,
0001
0000
0010
0000
,
0001
0000
1000
0000
,
0100
0000
1000
0000
,
0010
0000
0100
0000
,
0001
0000
0010
0000
,
0001
0000
1000
0000
,
0010
0100
0010
0000
,
1000
0000
0001
0000
,
0010
0100
0010
0000
,
0001
0000
0100
0000
,
0010
1000
0010
0000
,
1000
0000
0100
0000
,
0010
0001
0010
0000
,
2002
0000
0000
3003
,
0000
0000
0000
0000
,
0100
0000
0010
0000
,
1000
0000
0100
0000
,
1000
0010
1000
0000
,
0001
0010
0001
0000
,
1000
0100
1000
0000
,
0001
0100
0001
0000
,
0010
0000
0011
0000
,
1000
0000
1010
0000
,
0001
0000
0101
0000
,
0100
0000
1100
0000
,
0020
0000
0030
0000
,
1000
0000
0100
0000
,
0020
0000
0030
0000
,
0001
0000
0100
0000
,
0010
1000
0010
0000
,
0100
0001
0100
0000
,
0001
0010
0100
0000
,
1000
0010
0100
0000
,
0001
0000
0010
0100
,
1000
0000
0010
0100
,
0001
0000
1000
0000
,
0220
0000
0330
0000
,
1000
0100
1000
0000
,
0001
0010
0001
0000
,
1000
0010
0100
0000
,
0001
0010
0100
0000
,
0020
0000
0031
1000
,
0020
0000
1030
0001
,
0200
0000
0301
1000
,
0200
0000
1300
0000
,
0010
0000
0001
0000
,
1000
0000
0010
0000
,
0100
0010
0100
0000
,
0001
1000
0001
0000
,
1000
0100
0010
0000
,
0001
0100
0010
0000
,
0200
0300
0001
0000
,
0010
0001
1000
0000
,
0010
1000
0001
0000
,
0100
0000
0220
0000
,
0330
0000
0001
0010
,
0100
0000
0010
0100
,
1000
0000
1010
0000
,
0101
0000
0010
0001
,
0100
1000
0020
0000
,
0030
0000
1001
0000
;

//---------------dance-single - ----------------
#NOTES:
     dance-single:
     :
     Medium:
     11:
     0.438223,0.529093,0.195282,0.260376,0.073231,377.000000,353.000000,24.000000,32.000000,0.000000,0.000000,0.438223,0.529093,0.195282,0.260376,0.073231,377.000000,353.000000,24.000000,32.000000,0.000000,0.000000:
// measure 0
0000
0000
0000
0000
,  // measure 1
0000
0000
0000
0000
,  // measure 2
0000
0000
0000
0000
,  // measure 3
0000
0000
0000
0000
,  // measure 4
2002
3000
0010
0013
,  // measure 5
2020
0030
0001
3001
,  // measure 6
0210
0000
0002
0300
,  // measure 7
0020
0003
0200
0330
,  // measure 8
2000
0000
3010
0100
,  // measure 9
0002
0000
0013
0100
,  // measure 10
1001
0000
0110
0000
,  // measure 11
1000
0000
0000
0100
0000
0000
0010
0000
,  // measure 12
0001
0000
0000
0100
0000
0000
0010
0000
,  // measure 13
1000
0100
1000
0000
0001
0000
0010
0000
,  // measure 14
0001
0100
0001
0000
0010
0000
0100
0000
,  // measure 15
1000
0100
0010
0000
0001
0000
0100
0000
,  // measure 16
0001
0010
0100
0000
1000
0000
0010
0000
,  // measure 17
1100
0000
0101
0000
,  // measure 18
0010
0100
0001
0010
0100
1000
0010
0000
,  // measure 19
1000
0000
0100
0000
1010
0000
0000
0100
,  // measure 20
0010
1000
0101
0000
,  // measure 21
0010
0000
0100
0000
0101
0000
0000
0010
,  // measure 22
0001
1000
2020
3030
,  // measure 23
0100
0010
0100
0000
0001
0000
0010
0100
,  // measure 24
1000
0000
0001
0000
1001
0000
0000
0010
,  // measure 25
0100
0001
0010
0100
,  // measure 26
1000
0010
0100
0010
1000
0000
0001
0000
,  // measure 27
0010
0001
0100
0000
0001
0000
1000
0000
,  // measure 28
0010
1000
0100
0000
1000
0000
0010
0000
,  // measure 29
0100
0001
1000
0000
0010
0000
1000
0000
,  // measure 30
0001
0010
0100
0000
1000
0000
1001
0000
,  // measure 31
0010
0000
0100
0010
0000
0000
1000
0000
0100
1000
0000
0000
,  // measure 32
0001
0000
0010
0001
0000
0000
1000
0000
0001
1000
0000
0000
,  // measure 33
0100
0000
0100
0010
0000
0000
0001
0000
0001
1000
0000
0000
,  // measure 34
0010
0000
0010
0100
0000
0000
0001
0000
0000
1001
0000
0000
,  // measure 35
1000
0000
0100
0010
0000
0000
0100
0000
1000
0001
0000
0000
,  // measure 36
0100
0000
0010
0100
0000
0000
0001
0000
0010
0100
0000
0000
,  // measure 37
1000
0100
1000
0100
0000
0000
0010
0001
0010
0001
0000
0000
,  // measure 38
0001
0000
0001
1000
0000
1000
0010
0000
0000
0110
0000
0000
,  // measure 39
2000
0000
0000
0000
3000
0100
0010
0000
,  // measure 40
0001
0100
0010
0100
,  // measure 41
0002
0000
1000
1003
,  // measure 42
2020
3000
0200
0330
,  // measure 43
0001
0000
0100
0000
0001
0010
0100
0000
,  // measure 44
1000
0000
0010
0000
1000
0100
0010
0000
,  // measure 45
0001
0100
0010
0000
1000
0010
0100
0000
,  // measure 46
0001
0010
0100
1000
0001
0000
1001
0000
,  // measure 47
0100
0010
0100
0000
0001
0000
0010
0000
,  // measure 48
0001
0100
0010
0000
1000
0000
0100
0000
,  // measure 49
1000
0010
0100
0000
0001
0010
0100
0000
,  // measure 50
1000
0001
0010
0100
1000
0000
1001
0000
,  // measure 51
0020
0000
0130
0001
0020
0000
0130
1000
,  // measure 52
0020
0000
0130
0001
0020
0000
0031
1000
,  // measure 53
0200
0000
1300
0010
0200
0000
0301
0010
,  // measure 54
0200
0000
1300
0001
0100
0000
0110
0000
,  // measure 55
1000
0100
0010
0100
1000
0000
0001
0000
,  // measure 56
0100
0010
1000
0010
0100
0000
0001
0000
,  // measure 57
0010
0001
1000
0000
0010
1000
0001
0000
,  // measure 58
0100
0001
0100
1000
0100
0000
0110
0000
,  // measure 59
0002
0000
0013
0100
2000
0000
3010
0100
,  // measure 60
0002
0000
1003
0100
0020
0000
0031
0000
,  // measure 61
1000
0001
0010
0000
0001
1000
0010
0000
,  // measure 62
0100
0001
1000
0001
0100
0000
0010
0000
,  // measure 63
1000
0000
0100
0010
0001
0000
0010
0100
,  // measure 64
1000
0000
0010
0100
0001
0000
1001
0000
,  // measure 65
0010
0100
0010
0000
1000
0000
0001
0000
0010
0000
0001
0000
0100
0000
0000
0000
,  // measure 66
0010
1000
0100
0000
1000
0010
0100
0000
,  // measure 67
0001
0010
0100
0000
1000
0100
0010
0000
,  // measure 68
0100
1000
0010
0000
0100
0001
0010
0001
,  // measure 69
0100
0000
0011
0000
1000
0001
0010
0100
,  // measure 70
0010
0001
1000
0000
0010
0100
0001
1000
,  // measure 71
0100
0010
0001
0000
0100
0010
0100
0010
,  // measure 72
1000
0100
1000
0100
0010
0001
0100
0010
,  // measure 73
1000
0001
0010
0000
2200
0000
0000
0000
,  // measure 74
3300
0000
0202
0000
,  // measure 75
0000
0000
0000
0000
,  // measure 76
0000
0000
0303
0000
;

//---------------dance-single - ----------------
#NOTES:
     dance-single:
     :
     Hard:
     14:
     0.690462,0.778078,0.179009,0.358018,0.577710,594.000000,572.000000,22.000000,44.000000,0.000000,0.000000,0.690462,0.778078,0.179009,0.358018,0.577710,594.000000,572.000000,22.000000,44.000000,0.000000,0.000000:
// measure 0
0000
0000
0000
0000
,  // measure 1
0000
0000
0000
0000
,  // measure 2
0000
0000
0000
0000
,  // measure 3
0000
0000
0000
0010
,  // measure 4
0220
0030
0302
0013
,  // measure 5
2200
3000
0320
0031
,  // measure 6
2002
3003
0220
0330
,  // measure 7
0001
0000
0010
0001
0000
0010
0100
0000
1000
0000
0010
0100
0000
0010
1000
0000
,  // measure 8
0002
0000
0000
0000
0013
0000
0100
1000
0020
0000
0000
0000
0130
0000
0001
1000
,  // measure 9
0200
0000
0000
0000
1300
0000
0010
0100
0002
0000
0000
0000
0013
0000
0000
0000
,  // measure 10
2000
0000
0000
3010
0000
0000
0001
0000
0010
0000
0100
0000
1000
0000
0000
0000
,  // measure 11
2002
0000
3003
0010
,  // measure 12
0220
0000
0330
1000
,  // measure 13
0100
0000
1000
0100
0000
1000
0100
0000
0010
0000
0001
0010
0000
0001
0010
0000
,  // measure 14
0001
0000
1000
0100
0000
1000
0001
0000
0100
0000
0010
0100
0000
0010
0100
0000
,  // measure 15
0001
0000
0010
0100
1000
0000
0000
0000
0010
0000
0100
0000
0010
0000
1000
0100
,  // measure 16
0010
0000
0000
0010
0001
0000
0000
0001
1000
0000
0100
0010
0001
0000
0100
0000
,  // measure 17
0010
0000
1000
0000
0001
0000
0010
0100
1000
0000
0010
0000
1000
0000
0001
1000
,  // measure 18
0100
0000
0010
0000
0001
0000
0100
0010
1000
0001
1000
0001
1000
0000
0000
0000
,  // measure 19
0210
0000
0000
0000
0001
0000
0000
0000
0310
0000
0000
0000
1000
0000
0100
0010
,  // measure 20
0001
0010
1000
0000
0022
0000
0033
0000
,  // measure 21
1200
0000
0000
0000
0010
0000
0000
0000
1300
0000
0000
0000
0001
0000
0100
0010
,  // measure 22
1000
0100
0001
0000
2200
0000
3300
0000
,  // measure 23
0001
0000
0100
0000
0010
0000
0100
0001
0010
0000
0100
0000
1000
0000
0010
0100
,  // measure 24
0001
0000
0010
0000
1000
0000
0000
0000
0011
0000
0000
0000
0100
0000
1000
0010
,  // measure 25
1000
0000
0001
0000
0010
0000
0001
0100
0010
0000
1000
0000
0001
0000
0010
0100
,  // measure 26
1000
0000
0000
1000
0010
0000
0000
0010
0100
0000
0001
0000
1001
0000
0000
0000
,  // measure 27
0100
0000
0010
0000
1000
0000
0010
0100
0010
0000
1000
0000
0010
0000
0100
0010
,  // measure 28
0100
0000
0001
0000
0010
0000
0001
0100
0001
0000
0010
0000
0001
0000
0100
0001
,  // measure 29
0100
0000
0010
0000
1000
0000
0100
0010
0001
0000
1000
0000
0001
0000
0010
0100
,  // measure 30
1000
0000
0010
0000
0100
0000
0001
0010
0001
1000
0001
1000
0001
0000
0000
0000
,  // measure 31
0010
0100
1000
0100
0000
0000
0010
0001
0010
0100
0000
0000
,  // measure 32
1000
0001
0010
0001
0000
0000
1000
0010
0100
0010
0000
0000
,  // measure 33
1000
0100
0001
0100
0000
0000
1000
0010
0001
0010
0000
0000
,  // measure 34
1000
0001
0010
0100
0010
0001
1000
0001
0100
0110
0000
0000
,  // measure 35
0001
0010
1000
0010
0000
0000
0001
0100
1000
0100
0000
0000
,  // measure 36
0010
1000
0100
0010
0000
0000
0001
0100
0010
0100
0000
0000
,  // measure 37
0001
0010
0100
1000
0010
0100
0010
1000
0100
0010
0001
0100
,  // measure 38
0010
0100
0010
1000
0100
1000
0001
0010
0100
0110
0000
0000
,  // measure 39
2200
0000
0300
0000
3000
0010
1000
0010
,  // measure 40
0002
0023
2030
3001
,  // measure 41
0202
0000
0300
0000
0013
0000
1000
0010
,  // measure 42
0002
0000
0000
1003
0000
0000
0010
0100
0010
0100
0000
0000
,  // measure 43
0010
1000
0100
0000
1000
0010
0100
0000
,  // measure 44
0001
0010
0100
0000
0010
0001
0100
0000
,  // measure 45
0001
0000
0010
0000
0100
0000
1000
0010
0100
0000
0010
0000
1000
0000
0100
0010
,  // measure 46
0001
0000
1000
0000
0001
0000
1000
0000
0100
0010
0100
0010
0100
0000
0000
0000
,  // measure 47
0010
0000
0100
0000
1000
0000
0001
1000
0010
0000
0100
0000
0001
0000
0000
0000
,  // measure 48
0010
0000
0001
0000
1000
0000
0010
0100
0001
0000
0010
0000
0100
0000
0000
0000
,  // measure 49
1000
0000
0010
0000
0100
0000
0010
1000
0100
0000
0010
0000
0001
0000
0100
0010
,  // measure 50
1000
0000
1000
0000
0001
0000
0001
0000
0010
0100
0010
0100
0010
0000
0000
0000
,  // measure 51
0001
0000
0100
0000
1000
0000
0100
0010
0100
0000
0001
0000
1000
0000
0100
0010
,  // measure 52
0100
0000
1000
0000
0001
0000
0100
0010
0100
0000
0001
0000
0010
0000
0001
1000
,  // measure 53
0100
0000
1000
0000
0010
0000
1000
0001
0100
0000
0001
0000
0010
0000
0100
1000
,  // measure 54
0010
0000
0100
0000
0010
0000
1000
0000
0001
0010
0001
0010
0001
0000
0000
0000
,  // measure 55
0100
0000
1000
0000
0100
0000
0001
0010
0001
0000
1000
0000
0010
0000
1000
0100
,  // measure 56
1000
0000
0010
0000
0001
0000
0010
1000
0001
0000
0010
0000
0100
0000
0000
0000
,  // measure 57
1100
0000
0000
0000
0001
0000
0010
0001
0100
0000
0010
0000
0100
0000
0001
1000
,  // measure 58
0001
0000
0010
0000
0100
0000
1000
0000
0010
0100
0010
0100
0010
0000
0000
0000
,  // measure 59
0101
0000
0000
0000
0010
0000
0100
0000
1000
0000
0001
0000
0010
0000
0001
1000
,  // measure 60
0020
0000
0130
0001
1000
0100
0010
0000
,  // measure 61
0001
0100
2000
0000
3001
0010
1000
0000
,  // measure 62
0011
0000
0000
0000
1000
0000
0010
0100
0010
0000
1000
0000
1001
0000
0000
0000
,  // measure 63
0010
0000
0100
0000
0010
0000
1000
0100
0010
0000
0001
0000
0100
0000
0010
0100
,  // measure 64
0001
0000
0010
0000
0100
0000
1000
0010
0100
0000
0001
0000
1001
0000
0000
0000
,  // measure 65
2000
3200
0302
2003
3020
0032
0203
0310
1000
0000
0100
0000
1000
0010
0100
0000
,  // measure 66
0001
0000
0010
0000
0001
0100
0010
0000
1000
0000
0001
0000
0010
0001
1000
0000
,  // measure 67
0010
0000
1000
0000
0001
1000
0010
0000
0100
0000
0001
0000
0010
0100
1000
0000
,  // measure 68
0010
0000
1000
0000
0100
0010
0001
0000
1000
0000
0010
0000
1000
0001
0100
0000
,  // measure 69
0001
1000
0100
1000
0001
0000
0010
0000
0100
0000
1000
0000
0010
0100
0010
0000
,  // measure 70
1000
0000
0100
0000
0010
0001
0010
0000
0001
0000
0100
0000
0010
1000
0010
0000
,  // measure 71
1000
0000
0100
0000
0010
0001
0010
0000
0001
0000
0100
0000
0010
0000
1000
0000
,  // measure 72
0001
0000
0010
0000
0100
0000
1000
0000
0010
0100
0010
0000
1000
0100
1000
0000
,  // measure 73
0001
0100
0001
0000
0100
0010
0100
0010
0100
0000
0001
0010
0000
0100
1000
0000
,  // measure 74
0010
0000
1000
0100
0000
0010
0001
0000
2002
0000
0000
0000
0000
0000
0000
0000
,  // measure 75
0000
0000
0000
0000
,  // measure 76
0000
0000
3003
0000
;
