#TITLE:KOROBUSHKA (Ryu☆ Remix);
#SUBTITLE:;
#ARTIST:Ryu☆;
#TITLETRANSLIT:;
#SUBTITLETRANSLIT:;
#ARTISTTRANSLIT:;
#GENRE:;
#CREDIT:;
#BANNER:KOROBUSHKA_(Ryu_Remix)_banner.png;
#BACKGROUND:KOROBUSHKA_(Ryu_Remix)_bg.png;
#LYRICSPATH:;
#CDTITLE:;
#MUSIC:KOROBUSHKA (Ryu Remix).ogg;
#OFFSET:0.958000;
#SAMPLESTART:55.270000;
#SAMPLELENGTH:10.970000;
#LASTBEATHINT:296.000000;
#SELECTABLE:YES;
#BPMS:0.000000=175.000000
;
#STOPS:
;
#BGCHANGES:;
#KEYSOUNDS:;
#ATTACKS:;

//---------------dance-single - ----------------
#NOTES:
     dance-single:
     :
     Easy:
     6:
     0.272020,0.315914,0.182720,0.307740,0.000000,198.000000,179.000000,19.000000,32.000000,0.000000,0.000000,0.272020,0.315914,0.182720,0.307740,0.000000,198.000000,179.000000,19.000000,32.000000,0.000000,0.000000:
0000
0000
0000
0000
,
0000
0000
0000
0000
,
0000
0000
0000
0000
,
0000
0000
0000
0000
,
0000
0000
0000
0000
,
0001
0000
0010
0001
,
1000
0000
0010
1000
,
0001
0000
0100
0000
,
0010
0100
0220
0330
,
0001
0010
0001
0000
,
1000
0010
1000
0000
,
0001
0100
0001
0000
,
2000
0000
0000
0000
0000
3000
0000
0000
,
0100
0010
0100
0000
,
0010
0001
0010
0000
,
0001
0000
1001
0000
,
0220
0000
0000
0000
0000
0330
0000
0000
,
1000
0100
1000
0000
,
0010
0100
0010
0000
,
0100
0001
0100
0000
,
0001
0010
0001
0000
,
1000
0100
0010
0000
,
0001
0100
0010
0000
,
1000
0000
0001
0000
,
0010
0100
0220
0330
,
0002
0000
0013
0000
,
2000
0000
3010
0000
,
0002
0000
0103
0000
,
2000
0000
3100
0000
,
0010
0000
0001
0000
,
1000
0000
0010
0000
,
0100
0000
0001
0000
,
0010
0010
0020
0030
,
0001
0000
1000
0100
,
1000
0000
0001
0100
,
0010
0000
1000
0000
,
0001
1000
2002
3003
,
0010
0100
0010
0100
,
0001
1000
0001
0000
,
1010
0000
0011
0000
,
1000
0100
2200
3300
,
0001
0100
0010
0000
,
1000
0100
0010
0000
,
0001
1000
0010
0000
,
0100
0010
0220
0330
,
1000
0100
0010
0000
,
0001
0100
0010
0000
,
0101
0000
1010
0000
,
0001
1000
2002
3003
,
0010
0001
1000
0000
,
0010
1000
0001
0000
,
0100
0001
1000
0000
,
0100
1000
0001
0000
,
0100
0010
0200
0000
,
0301
0010
0200
0000
,
1300
0000
1001
0000
,
0010
0100
0220
0330
,
0002
0000
0013
0000
,
0020
0000
0130
0000
,
0200
0000
1300
0000
,
0001
0000
1001
0000
,
2000
0000
3010
0000
,
0020
0000
0130
0000
,
0200
0000
0301
0000
,
2002
0000
0000
0000
0000
3003
0000
0000
,
0010
0100
0001
0100
,
0010
0000
1000
0000
,
0001
0010
0100
0010
,
0001
0000
1001
0000
,
0010
1000
0100
1000
,
0010
0000
0100
0000
,
0010
1000
0001
1000
,
0010
0000
0110
0000
,
1001
0000
0000
0000
;

//---------------dance-single - ----------------
#NOTES:
     dance-single:
     :
     Medium:
     11:
     0.468479,0.526523,0.375058,0.471226,0.000000,341.000000,302.000000,39.000000,49.000000,0.000000,0.000000,0.468479,0.526523,0.375058,0.471226,0.000000,341.000000,302.000000,39.000000,49.000000,0.000000,0.000000:
0000
0000
0000
0000
,
0000
0000
0000
0000
,
0000
0000
0000
0000
,
0000
0000
0000
0000
,
0000
0000
0000
0000
,
0100
0010
0000
0010
1000
0000
0001
0010
,
0001
0000
1000
0010
0100
0000
0001
0000
,
0010
0000
0010
0100
1000
0000
0010
0000
,
0100
0001
2002
3003
,
0100
0010
0100
0000
0001
0010
0001
0000
,
1000
0010
1000
0000
0001
0100
0001
0000
,
1000
0100
1000
0000
0001
0010
0001
0000
,
2000
0000
3100
0010
0002
0000
1003
0000
,
0010
1000
0010
0000
1000
0100
1000
0000
,
0001
0010
0001
0000
1000
0100
1000
0000
,
0010
0100
0010
0000
0100
0001
0100
0000
,
0002
0000
0013
0100
2000
0000
3001
0000
,
0110
0000
0001
1000
0001
0000
0010
0000
,
0001
0000
1000
0100
1000
0000
0010
0000
,
0110
0000
0100
0001
0010
0000
0001
0000
,
1000
0000
0010
1000
0100
0000
1000
0000
,
1001
0000
0010
0100
0010
0000
0100
0000
,
1001
0000
0010
0100
0010
0000
0100
0000
,
0001
0010
0100
0000
0010
0100
1000
0000
,
0001
1000
0220
0330
,
2000
0100
0010
0100
,
3002
0010
0200
0303
,
0110
0000
0000
0010
1000
0000
0001
0000
,
0010
0100
2002
3003
,
0000
0010
0000
0100
0010
0000
1000
0000
,
0100
0000
0010
0001
0010
0000
0100
0000
,
1000
0010
0100
0001
,
0010
0110
2002
3003
,
0110
0000
0001
0010
0100
0000
1000
0000
,
0010
0000
0100
0001
1000
0000
0010
0000
,
1010
0000
0000
0100
0001
0000
0010
0000
,
0001
0010
0220
0330
,
1000
0100
1000
0100
1000
0000
0010
0000
,
0100
0001
0100
0001
0100
0000
0010
0000
,
1000
0001
0010
0100
1000
0010
0100
0000
,
0001
1001
0220
0330
,
1100
0000
0010
0100
0001
0000
0010
0000
,
0100
0000
1000
0010
1000
0000
0001
0000
,
0100
0000
0000
0010
0100
0000
0001
0000
,
0010
0100
2002
3003
,
0100
0010
0000
0010
1000
0000
0100
0010
,
0001
0000
0000
1000
0001
0000
0100
0000
,
0011
0000
1100
0000
,
0110
1001
0220
0330
,
1000
0000
0001
0010
0100
0010
0001
0000
,
1000
0000
0010
0100
0010
0000
1000
0000
,
0001
0000
0010
0100
1000
0000
0010
0000
,
0100
0001
2002
3003
,
0100
0001
0000
0001
0010
0000
0011
0000
,
1100
0000
1000
0010
1000
0000
1001
0000
,
0202
0303
2020
3030
,
1000
1100
0022
0033
,
2000
0010
3020
0100
,
2030
0100
3020
0100
,
0230
0001
0302
0010
,
0203
0000
0020
0330
,
2000
0100
3002
0010
,
2003
0010
3002
0100
,
1003
0010
0001
0010
,
0220
0000
0330
0000
,
0011
0000
1000
0010
0100
0010
1000
0000
,
0001
0000
1000
0010
0100
0000
0001
0010
,
0100
0000
0000
1000
0010
0000
0100
0000
,
0001
1000
0220
0330
,
0001
0100
0000
0100
0010
0000
1000
0100
,
0010
0000
0010
0100
1000
0000
0001
0000
,
0101
0000
1010
0000
,
0110
1001
0220
0330
,
1001
0000
0000
0000
;

//---------------dance-single - ----------------
#NOTES:
     dance-single:
     :
     Hard:
     15:
     0.751489,0.912640,0.586629,0.451993,0.307740,547.000000,486.000000,61.000000,47.000000,0.000000,0.000000,0.751489,0.912640,0.586629,0.451993,0.307740,547.000000,486.000000,61.000000,47.000000,0.000000,0.000000:
0000
0000
0000
0000
,
0000
0000
0000
0000
,
0000
0000
0000
0000
,
0000
0000
0000
0000
,
0000
0000
0000
0000
,
0010
1000
0000
1000
0002
0000
0013
1000
,
0020
0000
0031
0100
2000
0000
3100
0001
,
1001
0000
0010
0100
0110
0000
1000
0000
,
0110
1001
0220
0330
,
0001
0000
0100
0000
0010
0100
0010
0100
0010
0000
1000
0000
0100
0010
0100
0010
,
0100
0000
1000
0000
0001
0010
0001
0010
0001
0000
0100
0000
0010
1000
0010
1000
,
0010
0000
0100
0000
0001
0010
0001
0010
0001
0000
1000
0000
0010
0100
0010
0100
,
0020
0000
0000
0000
0130
0000
0001
0000
0010
0000
0100
1000
0001
0000
0100
0000
,
0010
0000
1000
0000
0100
1000
0100
1000
0100
0000
0010
0000
0001
0100
0001
0100
,
0001
0000
0010
0000
0100
1000
0100
1000
0100
0000
1000
0000
0001
1000
0001
1000
,
0001
0000
0100
0000
0010
0100
0010
0100
0010
0000
1000
0000
0001
1000
0001
1000
,
0002
0000
0000
0000
0013
0000
1000
0000
0010
0000
0001
0100
0010
0000
1000
0000
,
0002
0000
0000
0000
0103
0000
1000
0000
0100
0000
0010
0100
0001
0000
0010
0000
,
0200
0000
1300
0010
0110
0000
1001
0000
,
0012
0000
0000
0000
1003
0000
0100
0000
0001
0000
0100
1000
0010
0000
0100
0000
,
0002
0000
1003
0010
0011
0000
1010
0000
,
0210
0000
0000
0000
0301
0000
0010
0000
1000
0000
0010
0001
1000
0000
0010
0000
,
0200
0000
0000
0000
0301
0000
0010
0000
1000
0000
0010
0001
1000
0000
0010
0000
,
0100
1000
0010
0001
0100
1000
0010
0001
,
0100
0110
2002
3003
,
0020
0000
0000
0000
1030
0000
0100
0000
1000
0000
0001
0010
0100
0000
1000
0000
,
0020
0000
0130
0001
0011
0000
1100
0000
,
2001
0000
0000
3010
0100
0000
0001
0000
,
0011
0110
2200
3300
,
0010
0100
0000
0100
0001
0000
0010
1000
,
0010
0000
0001
0100
1000
0000
1000
0100
,
0001
0000
1000
0100
0010
0000
0011
0000
,
1100
0110
0022
0033
,
1001
0000
0000
0000
0010
0000
0100
0000
0001
0000
1000
0100
0010
0000
0001
0000
,
0100
1000
0100
0001
0020
0000
0130
1000
,
1010
0000
0100
0001
0010
0000
1100
0000
,
0110
1001
0220
0330
,
1000
0000
0010
0000
0100
0000
0001
0000
0010
0000
0100
0000
1000
0010
0100
0000
,
0001
0000
0010
0000
0100
0000
1000
0000
0010
0000
1000
0000
0001
0100
0010
0000
,
1000
0001
1000
0001
1000
0001
1000
0001
0010
0100
0010
0100
0010
0100
0010
0100
,
0010
1001
0220
0330
,
1001
0000
0000
0000
0010
0000
0001
0000
1000
0000
0010
0100
0001
0000
0010
0000
,
1000
0010
0001
0200
1000
0300
1000
0100
,
0002
0000
0000
0000
0013
0000
0100
0000
1000
0000
0010
0100
0001
0000
1000
0000
,
1010
0011
0220
0330
,
1000
0000
0001
0000
0010
0000
0001
0000
1000
0000
0010
0100
0001
0000
0010
0000
,
0100
0000
1000
0000
0100
0000
0001
0000
0100
0000
1000
0010
0100
0000
0001
0000
,
0011
0000
1000
0010
1010
0000
0001
0000
,
0110
1001
0220
0330
,
1100
0000
0000
0000
0010
0000
0100
0000
0001
0000
0010
0100
1000
0000
0010
0000
,
1000
0100
0001
1000
0020
0000
0031
1000
,
0020
0000
0000
0000
0130
0000
0001
0000
1000
0000
0010
0100
0001
0000
0010
0000
,
0100
1100
0202
0303
,
0010
0000
1000
0000
0010
0000
1000
0000
0001
0000
0010
0100
1000
0000
0010
0000
,
1000
0000
0001
0000
1000
0000
0010
0000
0100
0000
0010
1000
0100
0000
0010
0000
,
0011
0000
2000
3000
0110
0000
0002
0003
,
0110
1001
0220
0330
,
1000
0000
0100
0000
0001
0000
0100
0000
1000
0000
0010
0100
0001
0000
0010
0000
,
0100
0000
1000
0000
0001
0000
0100
0000
1000
0000
0100
0010
1000
0000
0001
0000
,
0010
0000
0001
0010
0100
0000
1000
0000
0010
0000
0100
0010
1000
0000
0001
0000
,
0010
1000
0001
0100
1000
0000
0110
0000
,
0001
0000
0010
0000
1000
0000
0010
0000
0001
0000
0100
0010
1000
0000
0100
0000
,
0010
0000
0001
0000
1000
0000
0010
0000
0001
0000
0010
0100
0001
0000
1000
0000
,
0100
0000
1000
0100
0010
0000
0001
0000
0100
0000
0010
0100
0001
0000
1000
0000
,
0100
0001
1000
0010
0001
0000
0110
0000
,
1001
0000
0000
0000
0010
0000
0100
0000
0001
0000
1000
0100
0010
0000
0001
0000
,
0100
0000
0010
0100
0001
0000
0010
0100
1000
0000
0000
0000
1001
0000
0000
0000
,
0110
0000
0000
0000
0001
0000
1000
0000
0100
0000
0010
0001
0100
0000
0010
0000
,
1000
0001
0011
0000
2200
0000
3300
0000
,
0010
0000
0100
0000
0001
0000
0100
0000
0010
0000
1000
0001
0010
0000
0100
0000
,
1000
0000
0010
0000
0100
0000
0010
0000
1000
0000
0001
0010
0100
0000
1000
0000
,
1010
0000
0002
0003
0110
0000
2000
3000
,
0110
1001
0220
0330
,
1001
0000
0000
0000
;

//---------------dance-double - ----------------
#NOTES:
     dance-double:
     :
     Hard:
     15:
     0.729508,0.877539,0.567395,0.480843,0.259655,531.000000,472.000000,59.000000,50.000000,0.000000,0.000000,0.729508,0.877539,0.567395,0.480843,0.259655,531.000000,472.000000,59.000000,50.000000,0.000000,0.000000:
// measure 0
00000000
00000000
00000000
00000000
,  // measure 1
00000000
00000000
00000000
00000000
,  // measure 2
00000000
00000000
00000000
00000000
,  // measure 3
00000000
00000000
00000000
00000000
,  // measure 4
00000000
00000000
00000000
00000000
,  // measure 5
00100000
10000000
00000000
10000000
00010000
00100000
10000000
00100000
,  // measure 6
00010000
00000000
01000000
00001000
00010000
00000000
00001000
00010000
,  // measure 7
00010010
00000000
00001000
00000001
00000011
00000000
00001100
00000000
,  // measure 8
00010010
00001100
00000202
00000303
,  // measure 9
00000010
00000000
00001000
00000000
00000001
00000010
00000001
00000010
00000001
00000000
00001000
00000000
00000010
00000100
00000010
00000100
,  // measure 10
00000010
00000000
00010000
00000000
00001000
00010000
00001000
00010000
00001000
00000000
00100000
00000000
00010000
01000000
00010000
01000000
,  // measure 11
00010000
00000000
00100000
00000000
01000000
10000000
01000000
10000000
01000000
00000000
10000000
00000000
00100000
01000000
00100000
01000000
,  // measure 12
00200000
00000000
00000000
00000000
10300000
00000000
01000000
00000000
00010000
00000000
01000000
10000000
00010000
00000000
01000000
00000000
,  // measure 13
00001000
00000000
00010000
00000000
00000010
00001000
00000010
00001000
00000010
00000000
00010000
00000000
00001000
01000000
00001000
01000000
,  // measure 14
00001000
00000000
00010000
00000000
00000010
00000100
00000010
00000100
00000010
00000000
00001000
00000000
00000001
00000010
00000001
00000010
,  // measure 15
00000001
00000000
00001000
00000000
00000100
00010000
00000100
00010000
00000100
00000000
00001000
00000000
00000010
00001000
00000010
00001000
,  // measure 16
00000020
00000000
00000000
00000000
00000031
00000000
00000010
00000000
00001000
00000000
00000010
00010000
00001000
00000000
00010000
00000000
,  // measure 17
02000000
00000000
00000000
00000000
13000000
00000000
00010000
00000000
00100000
00000000
00001000
01000000
00100000
00000000
10000000
00000000
,  // measure 18
00020000
00000000
00130000
01000000
10010000
00000000
01100000
00000000
,  // measure 19
20010000
00000000
00000000
00000000
30100000
00000000
01000000
00000000
00001000
00000000
00010000
00000010
00001000
00000000
00000100
00000000
,  // measure 20
00000020
00000000
00000031
00000100
00000110
00000000
00001001
00000000
,  // measure 21
00000120
00000000
00000000
00000000
00001030
00000000
00000001
00000000
00000010
00000000
00000100
00010000
00001000
00000000
00010000
00000000
,  // measure 22
00002000
00000000
00000000
00000000
00103000
00000000
00010000
00000000
10000000
00000000
00100000
01000000
00010000
00000000
00100000
00000000
,  // measure 23
00001000
00010000
01000000
00010000
00001000
00000100
00001000
00010000
,  // measure 24
00011000
00100000
00022000
00033000
,  // measure 25
00000020
00000000
00000000
00000000
00001030
00000000
00000100
00000000
00000010
00000000
00000001
00001000
00000010
00000000
00000100
00000000
,  // measure 26
00000020
00000000
00010030
00001000
00011000
00000000
00101000
00000000
,  // measure 27
00020000
00000000
00130000
01000000
20000000
00000000
30010000
00000000
,  // measure 28
01000000
01001000
00022000
00033000
,  // measure 29
00000010
00000100
00000000
00000100
00000002
00000000
00000013
00000100
,  // measure 30
00020000
00000000
00031000
00100000
02000000
00000000
13000000
00100000
,  // measure 31
10000000
00010000
00100000
01000000
10000000
00000000
10010000
00000000
,  // measure 32
00011000
00001001
00022000
00033000
,  // measure 33
00000020
00000000
00000000
00000000
00010030
00000000
00000100
00000000
00001000
00000000
00000001
00000100
00000010
00000000
00001000
00000000
,  // measure 34
00000100
00010000
00001000
00100000
00010000
00000000
10010000
00000000
,  // measure 35
00200000
00000000
00000000
00000000
10300000
00000000
01000000
00000000
00100000
00010000
01000000
00000000
00001000
00000000
00000000
00000000
,  // measure 36
00011000
00001010
00022000
00033000
,  // measure 37
00100000
00010000
10000000
01000000
00100000
00001000
00020000
00000000
,  // measure 38
00030010
00000100
00000001
00000010
00000100
00010000
00002000
00000000
,  // measure 39
01003000
00100000
01000000
00100000
10000000
01000000
10000000
01000000
00100000
00010000
00100000
00010000
00100000
00001000
00100000
00001000
,  // measure 40
00010000
00000010
00022000
00033000
,  // measure 41
00001100
00000000
00000000
00000000
00010000
00000000
00000010
00000000
00001000
00000000
00000001
00000010
00000100
00000000
00010000
00000000
,  // measure 42
00000010
00000100
00000001
00000100
00001000
00000000
00000110
00000000
,  // measure 43
00000020
00000000
00000000
00000000
00010030
00000000
00001000
00000000
00010000
00000000
00001000
00100000
00010000
00000000
00000000
00000000
,  // measure 44
10100000
00110000
00022000
00033000
,  // measure 45
01000000
00000000
00010000
00000000
00100000
00000000
00001000
00000000
00010000
00000000
00000010
00000100
00000001
00000000
00000010
00000000
,  // measure 46
00000001
00000000
00000100
00000000
00000010
00000000
00010000
00000000
00001000
00000000
00100000
00010000
01000000
00000000
00100000
00000000
,  // measure 47
10100000
00000000
01000000
00010000
00100000
00000000
00011000
00000000
,  // measure 48
00001010
00001001
00000022
00000033
,  // measure 49
00001001
00000000
00000000
00000000
00000010
00000000
00010000
00000000
00000100
00000000
00001000
00000001
00000010
00000000
00000100
00000000
,  // measure 50
00001000
00000010
00010000
00001000
00100000
00000000
00110000
00000000
,  // measure 51
11000000
00000000
00000000
00000000
00100000
00000000
01000000
00000000
00010000
00000000
10000000
01000000
00100000
00000000
00001000
00000000
,  // measure 52
00010000
00101000
20020000
30030000
,  // measure 53
00100000
00000000
10000000
00000000
01000000
00000000
00100000
00000000
00010000
00000000
01000000
00001000
00020000
00000000
00000000
00000000
,  // measure 54
00030100
00000000
00001000
00000000
00000001
00000000
00000100
00000000
00000010
00000000
00010000
00000100
00001000
00000000
00000000
00000000
,  // measure 55
00011000
00000000
00200000
00300000
00011000
00000000
00000020
00000030
,  // measure 56
00001001
00011000
20020000
30030000
,  // measure 57
00100000
10000000
00010000
00100000
00010000
01000000
10000000
01000000
,  // measure 58
00010000
00100000
00001000
00010000
00001000
00000100
00000001
00000010
,  // measure 59
00000100
00010000
00001000
00100000
00010000
00100000
10000000
00100000
,  // measure 60
00001000
00010000
00000010
00000100
00000001
00000000
00001001
00000000
,  // measure 61
00000010
00010000
00001000
00100000
00010000
10000000
01000000
00100000
,  // measure 62
00010000
01000000
00001000
00010000
00000010
00001000
00000001
00000010
,  // measure 63
00000100
00001000
00000100
00000001
00000100
00010000
00001000
00100000
,  // measure 64
00010000
01000000
10000000
01000000
00001000
00000000
00011000
00000000
,  // measure 65
00101000
00000000
00000000
00000000
00010000
00000000
00000010
00000000
00000100
00000000
00000001
00000010
00000100
00000000
00010000
00000000
,  // measure 66
00001000
00000000
00100000
00000000
00010000
00000000
10000000
00000000
01000000
00000000
00100000
00001000
00010000
00000000
00000100
00000000
,  // measure 67
00020000
00000000
00000000
00000000
00130000
00000000
01000000
00000000
00010000
00000000
10000000
01000000
10000000
00000000
00000000
00000000
,  // measure 68
01010000
00011000
00002200
00003300
,  // measure 69
00000001
00000000
00000010
00000000
00000001
00000000
00001000
00000000
00000010
00000000
00010000
00000100
00010000
00000000
00001000
00000000
,  // measure 70
00000010
00000000
00010000
00000000
00001000
00000000
00100000
00000000
00001000
00000000
01000000
00100000
01000000
00000000
00010000
00000000
,  // measure 71
10010000
00000000
02000000
03000000
00011000
00000000
00000200
00000300
,  // measure 72
00011000
00001001
00022000
00033000
,  // measure 73
10010000
00000000
00000000
00000000
;
