#TITLE:KAMAITACHI;
#SUBTITLE:;
#ARTIST:DJ TECHNORCH fw. GUHROOVY;
#TITLETRANSLIT:;
#SUBTITLETRANSLIT:;
#ARTISTTRANSLIT:;
#GENRE:FREEFORM HARDCORE;
#CREDIT:;
#BANNER:KAMAITACHI_banner.png;
#BACKGROUND:KAMAITACHI.png;
#LYRICSPATH:;
#CDTITLE:;
#MUSIC:KAMAITACHI.ogg;
#OFFSET:-0.410000;
#SAMPLESTART:25.129999;
#SAMPLELENGTH:11.500000;
#LASTBEATHINT:302.998535;
#SELECTABLE:YES;
#DISPLAYBPM:165.000000;
#BPMS:0.000000=165.000000
,67.000000=330.000000
,69.000000=165.000000
;
#STOPS:237.000000=1.273000,
237.500000=1.273000
;
#BGCHANGES:;
#KEYSOUNDS:;
#ATTACKS:;

//---------------dance-single - ----------------
#NOTES:
     dance-single:
     :
     Easy:
     7:
     0.358290,0.415816,0.118623,0.110150,0.000000,296.000000,282.000000,14.000000,13.000000,0.000000,0.000000,0.358290,0.415816,0.118623,0.110150,0.000000,296.000000,282.000000,14.000000,13.000000,0.000000,0.000000:
0000
0000
0000
0000
,
0010
0100
0010
0100
,
0001
1000
0001
1000
,
0001
0010
0001
0010
,
0100
1000
0100
0000
,
1000
0010
0100
0010
,
1000
0001
0010
0100
,
1000
0001
1000
0010
,
0100
0001
0010
0100
,
2002
0000
0000
0000
,
0000
0000
3003
0000
,
0020
0000
0000
0030
,
0100
0000
0100
0000
,
0001
0000
1000
0000
0001
1000
0001
0000
,
1000
0000
0001
0000
1000
0001
1000
0000
,
0010
0000
0100
0000
0010
0100
0010
0000
,
0100
0010
0100
0000
0001
0000
2000
0000
,
0000
3001
0010
0001
,
1000
0010
1000
0001
,
0010
0001
0100
0001
,
1000
0100
1000
0010
,
0110
0100
0001
0100
,
0010
1000
0100
0010
,
0100
1000
0001
0010
,
0100
0010
0010
0020
,
0030
0001
0100
0001
,
0010
0100
1000
0001
,
1000
0010
0100
0010
,
1000
0001
0010
0100
,
0010
0001
0001
0001
,
0001
1000
1000
1000
,
1000
0010
0010
0100
,
0100
0001
0100
0010
,
1000
0220
0000
0000
,
0330
0000
0000
0000
,
0000
0000
0001
0000
0000
0001
0000
0000
,
0001
1000
0100
1000
,
0010
0100
0001
0100
,
1000
0100
0001
0100
,
0000
0010
1000
0010
,
0001
0010
1000
0010
,
0000
1000
0001
0010
,
0001
1000
0100
0010
,
0000
0001
1000
0100
,
1000
0001
0010
0110
,
0000
1000
0001
0100
,
0010
1000
0100
0001
,
0100
0010
0100
1000
,
0001
0100
1000
0100
,
0010
0000
1000
0000
0001
0000
0000
1000
,
0001
0000
0010
0000
0100
0000
0000
0010
,
0100
0000
0010
0000
0001
0000
0000
1000
,
0100
1000
0010
0100
,
0001
0000
0010
0000
0000
0011
0000
0000
,
0001
0000
1000
0000
0000
1010
0000
0000
,
0010
0100
0110
0010
,
0110
1000
1001
0001
,
1001
0002
0203
0320
,
2030
3200
0320
0031
,
0001
0000
1001
0110
0001
0000
0100
0000
,
0001
0010
0100
1000
,
0100
0010
0100
0010
,
0001
1000
0010
0100
,
0101
0000
0010
1000
,
0100
1000
0001
0010
,
0100
0010
0001
0100
,
1000
0100
0010
0100
,
0010
1000
0001
0010
,
0001
0100
0001
0000
1000
0000
0010
0000
,
1000
0100
1000
0000
0010
0000
0100
0000
,
0001
1000
0001
0000
0010
0000
0001
0000
,
1000
0010
0100
0000
0010
0000
1000
0000
,
0001
1000
0001
0000
0100
0000
0010
0000
,
1000
0100
0010
0000
0001
0000
0010
0000
,
0001
1000
0001
0000
1000
0000
0010
0000
,
0100
0001
1000
0000
1001
0000
0000
0000
;

//---------------dance-single - ----------------
#NOTES:
     dance-single:
     :
     Medium:
     12:
     0.582221,0.575745,0.084731,0.084731,0.033892,481.000000,471.000000,10.000000,10.000000,0.000000,0.000000,0.582221,0.575745,0.084731,0.084731,0.033892,481.000000,471.000000,10.000000,10.000000,0.000000,0.000000:
0000
0000
0000
0000
,
1000
0010
0000
0010
0000
0100
0000
0100
,
0000
0001
0000
0001
0000
1000
0000
1000
,
0001
0010
0000
0010
0000
0100
0000
0100
,
0000
1000
0000
1000
0000
0010
0100
0010
,
1000
0100
1000
0000
0001
0010
0100
1000
,
0010
0100
0001
0000
1000
0010
0100
0001
,
0010
0100
1000
0000
0001
0010
0100
0000
,
1000
0100
0010
0000
0100
0010
0001
0000
,
2020
0000
0000
0000
,
0000
0000
3030
0000
,
0001
0010
0001
0000
1000
0010
0100
0010
,
1000
0100
0010
0000
0100
0010
0001
0000
,
0010
0100
0001
0000
1000
0100
0010
0000
,
0001
1000
0010
0000
1000
0100
0010
0000
,
0100
1000
0100
1000
0001
0010
0001
0010
,
0100
1000
0100
0010
0001
1000
2002
0000
,
3003
0000
0010
0100
0010
0000
1000
0100
,
0010
0000
0001
0100
0010
0000
1000
0100
,
0010
0000
0001
1000
0100
0000
1000
0010
,
0100
0000
0001
1000
0100
0010
0100
1000
,
0001
0000
0100
0010
1000
0000
0001
0010
,
0100
0000
0010
0100
1000
0000
0010
0100
,
0001
0100
0010
1000
0001
0000
1000
0100
,
0010
0000
0001
0010
0001
0100
0010
1000
,
0100
0000
1000
0010
0100
0010
1000
0100
,
0010
0000
0001
0100
0010
0100
0001
0010
,
0100
0000
0010
0001
1000
0001
0010
1000
,
0001
0000
0100
1000
0001
1000
0100
0001
,
1000
0000
0010
0100
1000
0100
0010
0100
,
1000
0000
0010
0100
0001
0100
0010
0100
,
0001
0000
1000
0010
1000
0010
0100
0001
,
0100
0001
0010
0100
1000
0010
0100
0001
,
0010
0001
2000
0000
0100
0000
0000
0000
,
3100
0002
0010
0000
,
0013
0000
1000
0000
0110
0000
0001
0010
,
0100
0000
1000
0001
1000
0001
0100
0010
,
0001
0000
0010
1000
0100
1000
0000
0001
,
0010
0001
0000
1000
0100
0010
0000
0001
,
1000
0100
1000
0010
0100
0001
0000
0010
,
0001
1000
0000
0010
0100
0001
1000
0100
,
0010
0000
0001
0100
1000
0100
0010
1000
,
0001
0000
1000
0010
0100
0001
1000
0100
,
0010
0000
0100
0010
0001
0010
0100
1000
,
0001
0000
0100
0010
1000
0100
0001
0100
,
1000
0000
0010
0100
0001
1000
0000
0001
,
0010
0100
0000
0010
0100
1000
0000
0010
,
0100
0001
1000
0100
0010
0100
0000
0010
,
0001
1000
0000
0001
1000
0010
1000
0100
,
0010
0000
1100
0000
0001
0000
0100
0100
,
0010
0000
1010
0000
0001
0000
0010
0010
,
0100
0000
0011
0000
1000
0000
0001
0001
,
0100
0000
0110
0000
0001
0000
1000
1000
,
0010
0000
0100
0010
0100
0010
0100
0010
,
0200
0000
0301
1000
0001
1000
0001
1000
,
0002
0000
0013
0100
0010
0001
1000
0100
,
1000
0001
0100
0010
1000
0001
1000
0100
,
0010
0000
0000
0001
0000
0000
1000
0000
0000
0000
1000
0000
0010
0000
0000
0000
0010
0000
0100
0000
0000
0000
0100
0000
,
0001
0000
0001
0010
0000
0010
0100
0000
0100
1000
0000
1000
,
0001
0000
0000
0000
0000
0000
0000
0000
0000
0000
0000
0000
0000
0000
0000
0000
0000
0000
0000
0000
0000
0000
0000
0000
0000
0000
0000
0000
0000
0000
0000
0000
0100
0000
0000
0000
0000
0000
0000
0000
0000
0000
0000
0000
0000
0000
0000
0000
0020
0000
0000
0000
0000
0000
0030
0000
0000
0000
0000
0000
0000
0000
0000
0000
0000
0000
0000
0000
0000
0000
0000
0000
1001
0000
0000
0000
0000
0000
0000
0000
0000
0000
0000
0000
0000
0000
0000
0000
0000
0000
0000
0000
0000
0000
0000
0000
0100
0000
0000
0000
0000
0000
0000
0000
0000
0000
0000
0000
0000
0000
0000
0000
0000
0000
0000
0000
0000
0000
0000
0000
0010
0000
0000
0000
0000
0000
0000
0000
0000
0000
0000
0000
0000
0000
0000
0000
0000
0000
0000
0000
0000
0000
0000
0000
1000
0000
0000
0000
0000
0000
0000
0000
0000
0000
0000
0000
0000
0000
0000
0000
0000
0000
0000
0000
0000
0000
0000
0000
0100
0000
0000
0000
0000
0000
0000
0000
0000
0000
0000
0000
0000
0000
0000
0000
0000
0000
0000
0000
0000
0000
0000
0000
,
0000
1000
0010
0100
0000
0001
0010
0100
,
0000
0010
0001
1000
0010
0100
0010
1000
,
0000
0001
1000
0100
0000
1000
0010
0100
,
0001
0000
1001
0000
0010
0100
0001
1000
,
0000
0100
0010
0001
0000
1000
0010
0100
,
0000
0001
1000
0100
0010
0001
1000
0010
,
0000
0100
0001
1000
0010
1000
0100
0001
,
0100
0010
0002
0000
1003
0010
0100
0010
,
1000
0100
0010
0000
0001
0100
0010
1000
,
0100
0010
0001
0000
0100
0010
1000
0100
,
0010
0100
1000
0000
0001
0100
0010
0100
,
0001
1000
0100
0000
0010
0100
1000
0010
,
0100
0001
0010
0000
0001
0010
0100
0010
,
0100
1000
0010
0000
1000
0100
1000
0010
,
0100
0001
0010
0001
1000
0100
0001
0100
,
1000
0010
0100
0000
1001
0000
0000
0000
;

//---------------dance-single - ----------------
#NOTES:
     dance-single:
     :
     Hard:
     17:
     0.947773,0.863617,0.050838,0.033892,1.080316,783.000000,777.000000,6.000000,4.000000,0.000000,0.000000,0.947773,0.863617,0.050838,0.033892,1.080316,783.000000,777.000000,6.000000,4.000000,0.000000,0.000000:
// measure 0
0000
0000
0000
0000
,  // measure 1
1000
0010
0100
0010
1000
0100
0010
0001
,  // measure 2
0100
0010
1000
0001
0010
0001
1000
0100
,  // measure 3
1000
0000
0010
0000
0100
0000
0010
0000
1000
0100
0010
0000
0001
0000
0100
0000
,  // measure 4
0010
0000
1000
0000
0001
0000
1000
0000
0010
0100
0001
0000
0010
0000
0001
0000
,  // measure 5
1000
0010
1000
0000
0100
0000
0010
0000
0100
1000
0100
0000
1000
0000
0001
0000
,  // measure 6
0100
0010
0100
0000
0001
0000
1000
0000
0001
0010
0001
0000
1000
0000
0100
0000
,  // measure 7
0010
0100
0010
0000
0100
0000
1000
0000
0001
0100
0001
0000
1000
0000
0010
0000
,  // measure 8
0100
0010
0100
0010
1000
0000
0001
0000
0010
0001
0100
0010
1000
0000
0001
0000
,  // measure 9
0100
0000
0010
0000
0100
0010
0100
0000
0001
0000
1000
0001
0000
0001
1000
0000
,  // measure 10
0010
0000
1000
0000
0010
0100
0010
0000
1000
0000
0100
0010
0000
0010
0001
0000
,  // measure 11
1000
0000
0001
0000
1000
0010
0100
0000
0010
0000
0100
0001
0000
0001
1000
0000
,  // measure 12
0100
0000
0010
0000
0100
1000
0100
0000
1000
0000
0001
0010
0000
0010
0001
0000
,  // measure 13
1000
0000
0010
0000
0100
0010
0100
0000
0001
0000
0010
0001
0000
0010
0001
0000
,  // measure 14
1000
0000
0010
0000
1000
0100
1000
0000
0010
0000
0100
0001
0000
0100
0001
0000
,  // measure 15
0010
0000
0100
0000
1000
0001
1000
0000
0010
0000
1000
0001
0000
0100
0001
0000
,  // measure 16
0010
0000
0001
0000
1000
0100
0010
0000
0100
0000
1000
0001
0200
0000
0000
0000
,  // measure 17
0000
0000
0000
0000
0310
0000
1000
0000
0010
0100
0001
0000
1000
0000
0001
0010
,  // measure 18
0000
0001
1000
0000
0010
0000
0100
0000
0001
1000
0100
0000
0010
0000
0100
1000
,  // measure 19
0000
0001
1000
0000
0010
0000
0100
0000
0001
0010
0100
0000
1000
0000
0001
1000
,  // measure 20
0000
0010
0100
0000
0001
0000
1000
0000
0100
0010
0001
0000
0010
0000
0001
1000
,  // measure 21
0000
0100
1000
0000
0010
0000
0100
0000
0001
1000
0100
0000
1000
0000
0001
0100
,  // measure 22
0000
0001
1000
0000
0010
0000
1000
0000
0001
1000
0010
0000
1000
0000
0001
0010
,  // measure 23
0000
0001
1000
0000
0010
0000
0100
0000
0010
0100
0010
0000
1000
0000
0001
0010
,  // measure 24
0000
0100
1000
0000
0010
0000
0100
0000
0010
0000
0100
0000
0001
0010
0100
1000
,  // measure 25
0002
0000
0000
0000
1003
0010
1000
0010
1000
0100
1000
0100
1000
0000
0001
0000
,  // measure 26
0010
0000
0100
0000
0010
0001
0010
0001
0100
0001
0100
0001
1000
0000
0010
0000
,  // measure 27
0100
0000
0001
0000
1000
0100
0010
0100
1000
0100
0010
0100
1000
0000
0001
0000
,  // measure 28
0010
0000
0100
0000
0010
0001
0010
0100
0010
0001
0010
0100
0010
0000
0001
0000
,  // measure 29
1000
0000
0010
0000
0100
0001
0100
0001
1000
0001
1000
0001
0100
0000
0010
0000
,  // measure 30
1000
0000
0100
0000
0010
0100
1000
0100
0010
0100
1000
0100
0010
0000
0001
0000
,  // measure 31
1000
0000
0010
0000
0100
0001
1000
0001
0100
0001
1000
0001
0100
0000
0010
0000
,  // measure 32
0100
0000
0001
0000
1000
0010
0100
0010
1000
0010
0100
0010
1000
0000
0001
0000
,  // measure 33
0010
0000
0100
0000
1001
0000
0000
0000
0100
0000
0000
0000
0000
0010
0100
0000
,  // measure 34
0110
0000
0000
0000
1001
0000
0000
0000
0001
0000
0010
0000
0000
0000
0001
1000
,  // measure 35
0010
0000
1000
0000
0100
0000
0000
0000
0110
0000
1000
0000
0000
0001
0010
0000
,  // measure 36
0001
0000
1000
0000
0010
0000
0100
0010
0100
0000
0010
0100
0001
0000
1000
0000
,  // measure 37
0100
0000
0010
0000
0001
0010
0001
0000
1000
0000
0010
0100
0000
0000
0010
0100
,  // measure 38
0001
0000
0100
1000
0100
0000
0001
0000
0100
0000
0010
1000
0100
0000
0010
0000
,  // measure 39
0001
0000
0010
0100
0001
0000
0100
0000
1000
0000
0010
0100
0001
0000
1000
0000
,  // measure 40
0010
0000
1000
0100
0010
0000
0001
0000
1000
0000
0010
0100
0001
0000
1000
0000
,  // measure 41
0001
0000
0010
0100
0010
0000
0001
0000
1000
0100
0000
0100
0010
0000
0001
0000
,  // measure 42
1000
0010
0000
0010
0100
0000
0001
0000
0010
0100
0000
0100
1000
0000
0001
1000
,  // measure 43
0100
0000
1000
0000
0010
0100
0010
0000
1000
0001
0000
0001
0010
0000
0001
0000
,  // measure 44
0100
0010
0000
0010
1000
0000
0001
0000
0010
0001
0000
0001
0010
0100
1000
0000
,  // measure 45
0010
0000
0100
0010
1000
0000
0100
0000
1000
0010
0000
0010
1000
0000
0001
0000
,  // measure 46
0010
0001
0000
0001
0100
0000
0010
0000
0100
0010
0000
0010
1000
0000
0001
0000
,  // measure 47
1000
0000
0010
0100
0001
0000
0010
0000
0001
1000
0000
1000
0010
0000
0100
0000
,  // measure 48
0010
1000
0000
1000
0001
0000
1000
0000
0100
0010
0000
0010
0100
0000
1000
0001
,  // measure 49
1000
0000
0010
0100
0010
0000
1000
0000
0001
0000
0010
0001
0000
0100
0010
0000
,  // measure 50
1000
0000
0001
0000
1000
0000
0010
0000
0100
0000
0001
0010
0000
0100
1000
0000
,  // measure 51
0010
0000
1000
0100
0010
0000
0001
0000
1000
0000
0010
0100
0000
0100
0010
0000
,  // measure 52
1000
0000
0001
0010
0000
0010
0001
0000
0100
0000
0010
0100
0010
0000
1000
0000
,  // measure 53
0001
0010
0100
0000
1000
0010
1000
0010
1000
0000
0001
0100
0001
0100
0001
0000
,  // measure 54
1000
0100
0010
0000
0001
0100
0001
0100
0001
0000
1000
0010
1000
0010
1000
0000
,  // measure 55
0001
0010
0100
0000
0010
0001
0010
0000
0100
1000
0100
0000
1000
0010
1000
0000
,  // measure 56
0001
0100
0001
0000
1000
0001
0100
0000
0001
1000
0100
0000
1000
0001
0000
0001
,  // measure 57
0100
0000
0000
0010
0000
0000
1000
0000
0100
0000
1000
0000
0010
0000
0100
0000
0001
0000
0010
0000
0001
0000
1000
0000
,  // measure 58
0010
0100
0001
0010
1000
0010
0001
0100
1000
0100
0001
1000
,  // measure 59
0010
0000
0000
0000
0100
0000
0000
0000
0001
0000
0000
0000
2002
0000
3003
0000
0000
0000
0110
0000
0000
0000
0000
0000
0100
0000
0000
0001
0000
0000
0100
0000
0000
0000
0000
0000
0010
0000
0000
1000
0000
0000
0000
0000
0000
1000
0000
0000
,  // measure 60
0100
0000
0010
0000
0100
0001
0000
0001
0100
0000
1000
0000
0010
0100
0000
0100
,  // measure 61
0001
1000
0001
0000
0100
0000
0010
0000
1000
0001
1000
0000
0010
0100
0000
0100
,  // measure 62
0001
0000
0010
0000
0100
1000
0000
1000
0010
0000
0100
0000
0001
0010
0000
0010
,  // measure 63
0001
1000
0001
0000
0100
0010
0000
0100
0010
0000
1000
0000
0001
0010
0000
0001
,  // measure 64
0100
0000
0010
0000
1000
0100
0000
1000
0010
0000
0100
0000
0001
0010
0000
0100
,  // measure 65
1000
0100
0010
0000
0001
0000
1000
0000
0010
0100
0010
0000
1000
0001
0000
0010
,  // measure 66
0100
0000
1000
0000
0001
1000
0000
0100
1000
0000
0010
0000
0100
0001
1000
0000
,  // measure 67
0010
0100
0001
1000
0100
0000
0010
0000
0001
0010
0001
0000
1000
0010
0000
0010
,  // measure 68
0100
0000
0001
0000
1000
0100
0000
0100
0010
0000
0001
0000
0010
0100
0000
0100
,  // measure 69
1000
0001
1000
0000
0010
0000
0100
0010
1000
0001
1000
0000
0010
0100
0000
0100
,  // measure 70
0001
0000
0010
0000
0100
1000
0000
1000
0001
0000
1000
0000
0010
0100
0000
0100
,  // measure 71
0001
0010
0001
0000
1000
0000
0010
0100
0001
1000
0001
0000
1000
0100
0000
0010
,  // measure 72
0001
1000
0001
0000
0100
0010
0000
0010
1000
0100
1000
0000
0001
0010
0000
0010
,  // measure 73
0001
0100
0001
0000
1000
0100
1000
0000
0010
0100
0010
0000
1000
0100
0000
0100
,  // measure 74
1000
0001
1000
0000
0010
0100
0000
0100
0001
0010
0001
0000
1000
0100
1000
0000
,  // measure 75
0010
0100
0001
1000
0100
0010
0001
1000
0010
0000
0000
0000
0000
0000
0000
0000
;
