#TITLE:ジュピターガンズノベル;
#SUBTITLE:;
#ARTIST:工藤吉三(ベイシスケイプ);
#TITLETRANSLIT:Jupiter guns novel;
#SUBTITLETRANSLIT:;
#ARTISTTRANSLIT:Yoshimi Kudo(Basiscape);
#GENRE:;
#CREDIT:;
#BANNER:Jupiter_guns_novel_banner.png;
#BACKGROUND:Jupiter_guns_novel.png;
#LYRICSPATH:;
#CDTITLE:;
#MUSIC:Jupiter guns novel.ogg;
#OFFSET:-0.500000;
#SAMPLESTART:77.419998;
#SAMPLELENGTH:12.310000;
#LASTBEATHINT:306.000000;
#SELECTABLE:YES;
#BPMS:0.000000=156.000000
;
#STOPS:31.500000=0.769000,
152.750000=0.385000,
159.750000=0.385000
;
#BGCHANGES:;
#KEYSOUNDS:;
#ATTACKS:;

//---------------dance-single - ----------------
#NOTES:
     dance-single:
     :
     Easy:
     7:
     0.283729,0.344478,0.115375,0.206028,0.000000,241.000000,227.000000,14.000000,25.000000,0.000000,0.000000,0.283729,0.344478,0.115375,0.206028,0.000000,241.000000,227.000000,14.000000,25.000000,0.000000,0.000000:
// measure 0
0000
0000
0000
0000
,  // measure 1
0000
0000
0000
0000
,  // measure 2
0000
0000
0000
0000
,  // measure 3
0000
0000
0000
0000
,  // measure 4
0001
0000
0010
0001
0000
0000
0001
0000
,  // measure 5
1000
0000
0010
1000
0000
0000
1000
0000
,  // measure 6
0100
0000
0010
0100
0000
0000
0010
0000
,  // measure 7
0002
0000
1003
1001
,  // measure 8
0100
0010
0100
0010
,  // measure 9
2000
0000
0001
3001
,  // measure 10
0010
0100
0010
0100
,  // measure 11
2000
0000
0100
3100
,  // measure 12
0010
0001
1000
0001
,  // measure 13
0200
0000
0010
0310
,  // measure 14
1000
0001
0010
0100
,  // measure 15
1001
0000
0110
0000
,  // measure 16
0002
0000
0000
0000
,  // measure 17
0000
0000
0000
0003
,  // measure 18
1000
0100
0010
0100
,  // measure 19
1000
0001
0220
0330
,  // measure 20
0001
0000
0010
0001
0000
0000
0010
0000
,  // measure 21
0001
0000
0100
0010
0000
0000
0010
0000
,  // measure 22
1000
0000
0100
1000
0000
0000
0010
0000
,  // measure 23
1000
0001
0100
0001
,  // measure 24
0020
0000
0000
0030
,  // measure 25
0001
0000
0001
1000
,  // measure 26
0100
0000
1000
0010
,  // measure 27
0100
0020
0000
1030
,  // measure 28
0100
1000
0001
0010
,  // measure 29
0001
0000
0000
0100
0000
0000
0001
0000
,  // measure 30
0010
0000
0010
0100
,  // measure 31
1000
0000
0000
0010
0000
0000
1000
0000
,  // measure 32
2002
0000
3003
0000
,  // measure 33
0010
0000
0010
1000
,  // measure 34
0100
0000
0010
0001
,  // measure 35
1000
0001
0000
0001
,  // measure 36
0100
0010
2000
0000
,  // measure 37
3010
0000
0100
0000
,  // measure 38
0110
0000
0000
0001
,  // measure 39
0000
0010
0000
1001
,  // measure 40
0000
0000
0100
0010
,  // measure 41
1000
0010
1000
0100
,  // measure 42
0020
0030
0001
0100
,  // measure 43
0001
0010
0001
0100
,  // measure 44
0020
0030
1000
0100
,  // measure 45
0010
0001
0010
0100
,  // measure 46
1000
0000
0001
0000
0100
0000
0000
0010
,  // measure 47
0000
0100
0010
0000
,  // measure 48
1001
0000
0000
0100
0000
0000
0200
0000
,  // measure 49
0300
0000
0000
0000
0001
0000
0010
0001
,  // measure 50
0000
0000
0001
1000
0000
0000
1000
0000
,  // measure 51
0010
0000
0100
0000
0010
0000
1000
0100
,  // measure 52
0000
0000
0100
1000
0000
0000
0010
0000
,  // measure 53
1000
0000
0001
0000
1000
0000
0001
0010
,  // measure 54
0000
0000
0001
0010
0000
0000
0001
0000
,  // measure 55
1000
0000
0100
0000
1000
0000
0010
1000
,  // measure 56
0000
0000
0010
1000
0000
0000
0220
0000
,  // measure 57
0330
0000
0000
0000
0001
0000
1000
0100
,  // measure 58
0000
0000
1000
0001
0000
0000
0010
0000
,  // measure 59
0001
0100
0001
0010
,  // measure 60
2200
3300
0010
0100
,  // measure 61
2002
3003
0010
0000
,  // measure 62
0100
0000
0001
0010
,  // measure 63
0001
1000
1002
0000
,  // measure 64
0103
0000
0010
0100
,  // measure 65
0010
1000
0001
0010
,  // measure 66
0100
1000
0001
1000
,  // measure 67
0000
0000
2002
0000
,  // measure 68
0000
0000
3003
0000
,  // measure 69
0000
0000
0010
0100
,  // measure 70
0010
0100
0001
1000
,  // measure 71
0002
0000
0013
0100
,  // measure 72
1000
0100
1000
0000
0001
0000
0100
0000
,  // measure 73
0010
0100
0010
0000
1000
0000
0001
0000
,  // measure 74
0010
0001
0010
0000
0100
0000
0000
0000
,  // measure 75
1000
0001
1000
0000
,  // measure 76
0110
0000
0000
0000
;

//---------------dance-single - ----------------
#NOTES:
     dance-single:
     :
     Medium:
     12:
     0.515657,0.532375,0.214269,0.115375,0.140099,438.000000,412.000000,26.000000,14.000000,0.000000,0.000000,0.515657,0.532375,0.214269,0.115375,0.140099,438.000000,412.000000,26.000000,14.000000,0.000000,0.000000:
// measure 0
0000
0000
0000
0000
,  // measure 1
0000
0000
0000
0000
,  // measure 2
0000
0000
0000
0000
,  // measure 3
0000
0000
0000
0000
,  // measure 4
0001
0100
0010
1000
0000
1000
0100
0000
,  // measure 5
1000
0010
0100
0001
0000
0001
0010
0000
,  // measure 6
0001
1000
0100
0010
0000
0010
0100
0000
,  // measure 7
0000
0000
1000
0000
0000
1001
0000
0000
0010
0000
0000
0100
0000
0000
0110
0000
,  // measure 8
0001
0000
0010
0001
1000
0001
0000
1000
,  // measure 9
0000
0010
0100
0010
0000
1000
0100
0000
,  // measure 10
1000
0010
0100
0010
0000
1000
0100
0010
,  // measure 11
0000
0010
0100
1000
0001
0000
1001
0000
,  // measure 12
0100
0010
0100
0001
0000
0010
0001
1000
,  // measure 13
0000
1000
0010
0100
0000
0100
0001
0000
,  // measure 14
0010
0001
1000
0001
0000
0100
0010
1000
,  // measure 15
0000
1000
0001
0010
0100
0000
1001
0000
,  // measure 16
0220
0000
0000
0000
,  // measure 17
0330
0000
0000
0000
,  // measure 18
1000
0001
0010
0001
0000
0001
0010
0100
,  // measure 19
1000
0010
1000
0001
0000
0001
0010
0100
,  // measure 20
1000
0100
1000
0010
0000
0010
0100
0010
,  // measure 21
1000
0100
0010
0001
0000
0001
1000
0001
,  // measure 22
0100
0010
1000
0100
0000
0100
0010
0001
,  // measure 23
1000
0000
0000
1001
0000
0000
0010
0000
0001
0000
0000
0100
0000
0000
0020
0000
,  // measure 24
0000
0000
0000
0030
,  // measure 25
1001
0000
0100
0010
2000
0000
0100
0000
,  // measure 26
3100
0000
0000
0000
1000
0000
0010
0000
0100
0000
0000
0001
0000
0000
0010
0000
,  // measure 27
0001
0100
0010
0000
0000
0010
1000
0001
,  // measure 28
1000
0000
0100
0000
0010
0000
0000
0000
0001
0000
0000
0100
0000
0000
0010
0000
,  // measure 29
1000
0000
0000
0100
0000
0000
0010
0000
0000
0000
0010
0000
0000
0010
0000
0000
,  // measure 30
0100
0000
0000
0000
1000
0000
0001
0000
0010
0000
0000
0001
0000
0000
0100
0000
,  // measure 31
0010
0000
0000
1000
0000
0000
0100
0000
0000
0000
1000
0000
0010
0000
1000
0000
,  // measure 32
0000
0000
1000
0000
0000
0001
0000
0000
0100
0000
0000
0110
0000
0000
0001
0000
,  // measure 33
1000
0010
1000
0001
0010
0000
0110
0000
,  // measure 34
0002
0000
0000
0000
0000
0000
1003
0000
0010
0000
0000
0100
0000
0000
0001
0000
,  // measure 35
0010
0100
1000
0010
0000
0010
1000
0001
,  // measure 36
0100
0000
0010
0000
1000
0000
0000
0000
0001
0000
0000
0110
0000
0000
1000
0000
,  // measure 37
0100
0000
0000
1100
0000
0000
1000
0000
0010
0000
0000
0110
0000
0000
0100
0000
,  // measure 38
0001
0000
0000
1001
0000
0000
0000
0000
0000
0000
0000
0000
0010
0000
0000
1010
,  // measure 39
0000
0000
1000
0000
0001
0000
0000
0011
0000
0000
0100
0000
0010
0000
0000
1001
,  // measure 40
0000
0000
0000
0000
1000
0001
0010
0100
,  // measure 41
0010
0001
1000
0000
0010
1000
0001
1000
,  // measure 42
0010
0100
0001
0000
1000
0100
1000
0010
,  // measure 43
1000
0100
1000
0000
0001
0010
0001
0100
,  // measure 44
0001
0010
0001
0000
1000
0010
0100
0001
,  // measure 45
0010
0100
1000
0000
0001
0010
0100
1000
,  // measure 46
0010
0000
0100
0000
0001
0000
0000
0000
1000
0000
0000
0010
0000
0000
0100
0000
,  // measure 47
0000
0000
0001
0000
0000
0000
0010
0000
0000
0000
0110
0000
0000
1000
0000
0000
,  // measure 48
0010
0000
0100
0010
1000
0000
2002
0000
,  // measure 49
3003
0000
0000
0000
0010
0001
0100
0001
,  // measure 50
0010
0100
1000
0010
0000
0010
1000
0000
,  // measure 51
0100
1000
0020
0000
1030
0100
0010
0001
,  // measure 52
1000
0001
0010
0100
0000
0100
0010
0000
,  // measure 53
0001
1000
0001
0000
0100
0010
1000
0001
,  // measure 54
1000
0001
0010
0100
0000
1000
0010
0000
,  // measure 55
1000
0001
0010
0000
0002
0000
0103
0010
,  // measure 56
0100
0001
0010
0001
0000
0001
1000
0000
,  // measure 57
0220
0000
0330
0000
1000
0001
0010
0100
,  // measure 58
0010
0001
1000
0010
0000
0010
0100
0000
,  // measure 59
0001
1000
0100
0000
1010
0000
0010
0100
,  // measure 60
0001
0000
0010
0000
1001
0000
0100
0001
,  // measure 61
0010
0000
0001
0000
1000
0000
0000
0000
0010
0000
0000
0100
0000
0000
0001
0000
,  // measure 62
0010
0000
0000
0100
0000
0000
1000
0000
0010
0000
0000
0000
0110
0000
0000
0000
,  // measure 63
1000
0000
1001
0000
0010
0001
0100
0010
,  // measure 64
1000
0100
0010
0001
1000
0010
0100
0001
,  // measure 65
0020
0000
0000
0000
0031
0000
0000
0000
0001
0000
0100
0000
0010
0000
1000
0010
,  // measure 66
0000
0010
1000
0001
0000
0010
0100
0000
,  // measure 67
0010
0100
1000
0000
2002
0000
0000
0000
,  // measure 68
0000
0000
0000
0000
,  // measure 69
0000
0000
0000
0000
3003
0000
0000
0000
0100
0000
0010
0000
1000
0000
0001
0010
,  // measure 70
0000
0000
0001
0000
0100
0000
0010
0000
1000
0000
0100
0000
1000
0000
0010
0100
,  // measure 71
0000
0000
0001
0000
0001
0000
0000
0000
0010
0000
0100
0000
1000
0000
0100
0010
,  // measure 72
0000
0000
0010
0000
0100
0000
1000
0000
0001
0000
0100
0000
0010
0000
0100
0001
,  // measure 73
0000
0000
0100
0000
0010
0000
0100
0000
0001
0000
0010
0000
0100
0000
1000
0001
,  // measure 74
0000
0000
1000
0000
0010
0000
0100
0000
0001
0000
0000
0011
0000
0000
1000
0000
,  // measure 75
0010
0000
0000
0110
0000
1000
0000
0000
0000
0000
0010
0000
0100
0000
0010
0100
,  // measure 76
0001
0000
0000
0000
;

//---------------dance-single - ----------------
#NOTES:
     dance-single:
     :
     Hard:
     16:
     0.797032,0.816899,0.321403,0.090652,0.890039,677.000000,638.000000,39.000000,11.000000,0.000000,0.000000,0.797032,0.816899,0.321403,0.090652,0.890039,677.000000,638.000000,39.000000,11.000000,0.000000,0.000000:
// measure 0
0000
0000
0000
0000
,  // measure 1
0000
0000
0000
0000
,  // measure 2
0000
0000
0000
0000
,  // measure 3
0000
0000
0000
0000
,  // measure 4
0001
0000
0010
0000
0100
0000
1000
0010
0000
0100
0001
0000
0010
0100
1000
0000
,  // measure 5
0010
0000
0100
0000
0001
0000
0010
0100
0000
1000
0010
0000
1000
0001
0010
0000
,  // measure 6
0001
0000
0100
0000
0010
0000
1000
0001
0000
0010
0100
0000
1000
0100
0010
0000
,  // measure 7
0100
0000
1000
0000
0100
0001
0000
0100
1000
0000
0010
0100
0000
0001
0010
0000
,  // measure 8
0001
0000
0100
0010
0000
0010
1000
0000
0100
0010
0000
0010
0001
0000
2000
0000
,  // measure 9
0000
0000
3010
0000
0100
0001
0000
0011
0000
0001
0000
1000
0000
0010
1000
0000
,  // measure 10
0001
0000
1000
0100
0000
0100
1000
0000
0010
0100
0000
0100
0001
0000
0010
0000
,  // measure 11
0001
1000
0000
0100
1000
0000
0010
0000
0100
0001
1000
0001
0100
0000
0010
0000
,  // measure 12
1000
0000
0100
0010
0000
0010
0001
0000
0100
0010
0000
0010
1000
0000
0001
0000
,  // measure 13
0000
0000
1000
0100
0000
1100
0000
1000
0000
1010
0000
0010
0000
0100
0001
0100
,  // measure 14
0010
0000
1000
0000
0001
0010
0000
0010
0100
1000
0000
1000
0010
0000
0100
0000
,  // measure 15
0001
0000
0100
1000
0000
1000
0100
0000
0001
0010
0100
0000
0010
0100
1000
0001
,  // measure 16
0100
0010
0000
0100
0010
0000
0100
0010
0000
0100
0010
0000
0100
0010
0000
0100
,  // measure 17
0001
0000
0100
0001
0000
0100
0001
0000
0100
0001
0000
0100
0001
0000
1000
0000
,  // measure 18
0010
0000
1000
0000
0001
0000
1000
0100
0000
0010
0000
0001
1000
0000
0010
0000
,  // measure 19
1000
0000
0001
0000
0010
0000
1000
0010
0000
0001
0000
1000
0010
0100
0010
0000
,  // measure 20
1000
0000
0001
0000
0010
0000
0100
1000
0000
0100
1000
0010
0100
0000
0001
0000
,  // measure 21
0010
0000
0001
0000
1000
0000
0001
1000
0000
0010
1000
0001
0010
0000
0001
0000
,  // measure 22
0100
0000
0010
0000
1000
0000
0001
0100
0000
0010
1000
0010
0100
0000
0001
0000
,  // measure 23
0010
0000
0000
0101
0000
0000
0010
0000
1000
0000
0000
1001
0000
0000
0110
0000
,  // measure 24
0000
0000
0010
0100
0010
0000
1000
0001
1000
0000
0001
1000
0010
0000
0010
1000
,  // measure 25
0002
0000
0000
0000
0103
0000
0010
0100
0010
0000
0000
0000
1010
0000
0000
0000
,  // measure 26
0100
0000
1000
0000
0010
0000
1000
0001
0100
0000
0000
0010
0000
0000
0100
0000
,  // measure 27
0001
0000
0010
0000
0100
0000
0000
0000
0100
0000
1000
0010
1000
0100
1000
0010
,  // measure 28
0100
0000
0001
0000
0010
0000
0000
0001
0010
0000
0000
1100
0000
0000
0010
0000
,  // measure 29
0100
0000
0000
1001
0000
0000
0010
0000
0000
0000
1000
0001
0000
1000
0001
0000
,  // measure 30
0101
0000
0000
0000
0010
0000
0100
0001
0010
0000
0000
1001
0000
0000
0010
0000
,  // measure 31
1000
0100
2000
0000
3010
0000
0100
0101
,  // measure 32
0000
0000
0011
0000
0000
1001
0000
0000
0010
0000
1000
0100
0010
0000
0001
0000
,  // measure 33
0100
0000
0001
0000
0010
0000
0001
0100
0001
0000
1000
0000
0010
0000
0100
0000
,  // measure 34
0010
0000
1000
0000
0100
0000
1000
0010
0100
0000
0001
0010
0000
0000
0001
0000
,  // measure 35
1000
0000
0010
0000
0001
0000
0020
0000
0000
0000
1030
0100
0010
0000
0001
0100
,  // measure 36
0010
0100
0001
0000
1000
0001
0010
0000
0001
0000
0000
0101
0000
0000
1000
0000
,  // measure 37
0010
0000
0100
0010
0000
1000
0100
1000
0010
0000
0100
0001
0000
0010
0001
0010
,  // measure 38
0100
0000
0000
1001
0000
0000
0000
0000
0010
0000
0000
0000
1001
0000
0100
0010
,  // measure 39
0000
1000
0100
1000
0001
0000
0010
0001
0000
0100
0010
0100
0001
0000
0000
1100
,  // measure 40
0000
0000
0000
0000
0000
0000
0000
0000
0001
0000
0010
0001
0100
0000
0010
1000
,  // measure 41
0100
0000
1000
0010
0200
0000
0000
0000
0310
0000
1000
0001
0010
0000
0001
1000
,  // measure 42
0001
0000
0010
0001
0100
0000
0010
0000
1000
0010
1000
0000
0001
0010
0100
0010
,  // measure 43
0001
0000
1000
0010
0000
0100
0001
0000
0010
0100
1000
0000
0010
1000
0100
1000
,  // measure 44
0010
0000
0100
0001
0000
0010
0001
0000
1000
0000
0001
0010
0100
0000
1000
0000
,  // measure 45
0010
0100
0010
0100
0020
0000
0000
0000
1030
0000
0100
1000
0100
0000
0010
0000
,  // measure 46
0001
0100
0001
0100
0001
0000
0010
0000
0001
0000
0000
1100
0000
0000
0010
0000
,  // measure 47
0000
0000
0101
0000
0000
0000
0010
0000
0000
0000
1001
0000
0000
0110
0000
0000
,  // measure 48
1010
0000
0000
0000
1000
0100
0001
0000
0000
0000
0001
0100
2000
0000
0000
0000
,  // measure 49
0000
0000
0000
0000
3000
0000
0000
0000
0001
0000
0010
0000
0100
0000
1000
0010
,  // measure 50
0000
0100
0010
0000
1000
0000
1010
0000
0000
0000
0001
0100
0010
0000
1000
0000
,  // measure 51
0010
0000
1000
0100
0000
0010
0001
0000
1000
0001
1000
0000
0010
0000
0100
0001
,  // measure 52
0000
1000
0010
0000
0100
0000
0101
0000
0000
0000
0010
0001
0010
0000
0100
0000
,  // measure 53
1000
0000
0001
0010
0000
0100
1000
0100
0010
0000
0001
0000
1000
0000
0010
0100
,  // measure 54
0000
0010
1000
0000
0001
0000
0011
0000
0000
0000
1000
0001
0100
0000
0010
0100
,  // measure 55
0001
0000
0000
1010
0000
0000
0001
0000
0010
0000
0100
0000
1000
0000
0010
0100
,  // measure 56
0001
0100
0010
0000
1000
0000
0100
0000
0000
0000
1000
0010
0100
0000
0000
0000
,  // measure 57
0001
0010
0100
1000
0002
0000
0000
0000
0013
0000
0100
0000
0010
0000
0001
1000
,  // measure 58
0000
0010
1000
0000
0001
0000
1001
0000
0000
0000
0100
0010
1000
0000
0100
1000
,  // measure 59
0010
0000
0100
0001
0010
0000
0001
0000
1000
0000
0001
0000
0010
0100
1000
0100
,  // measure 60
0010
0000
0001
0000
1001
0000
0000
0000
0010
0000
0100
0000
0001
1000
0100
1000
,  // measure 61
0001
0000
0010
0000
0110
0000
0000
0000
1100
0000
0000
0010
0000
0000
0100
0000
,  // measure 62
0001
0000
0000
0010
0000
0000
0100
0000
1000
0000
0000
0001
1000
0000
0010
0000
,  // measure 63
0100
0000
0001
0000
0011
0000
0000
0000
1000
0100
1000
0100
0010
0000
0001
0100
,  // measure 64
0001
0100
0010
0000
1000
0001
1000
0000
0010
0100
0001
0000
1000
0010
0100
0000
,  // measure 65
0001
0100
0010
1000
0100
0000
0000
0000
1000
0000
0100
0000
0001
0000
1000
0010
,  // measure 66
0000
0001
0000
0010
1000
0000
0001
0000
0000
0000
0100
1000
0001
0000
0000
0000
,  // measure 67
0100
0010
0100
0000
2002
0000
0000
0000
,  // measure 68
0000
0000
0000
0000
,  // measure 69
3003
0000
0000
0000
0000
0000
0000
0000
0100
0000
1000
0000
0001
0000
0010
0001
,  // measure 70
0000
1000
0000
0100
1000
0000
0010
0000
0100
0000
0001
0000
0010
0000
0001
0100
,  // measure 71
0000
0010
0000
1000
0100
0000
1000
0000
0001
0000
0010
0000
0100
1000
0001
1000
,  // measure 72
0000
0010
0100
0010
0100
0000
0001
0000
1000
0000
0001
0000
0010
0100
0010
0100
,  // measure 73
0000
1000
0010
0100
0010
0000
1000
0000
0001
0010
0100
0000
0010
0100
1000
0001
,  // measure 74
0000
0001
1000
0010
0100
0000
0001
0000
0011
0000
0000
1100
0000
0000
1001
0000
,  // measure 75
1010
0000
0000
0101
0000
0000
0011
0000
0000
0100
1000
0000
0010
0100
0010
1000
,  // measure 76
0002
0003
0000
0000
;
