#TITLE:Journey;
#SUBTITLE:;
#ARTIST:猫叉Master;
#TITLETRANSLIT:;
#SUBTITLETRANSLIT:;
#ARTISTTRANSLIT:Nekomata Master;
#GENRE:WORLD/ELECTRONICA;
#CREDIT:;
#BANNER:Journey_banner.png;
#BACKGROUND:Journey.png;
#LYRICSPATH:;
#CDTITLE:;
#MUSIC:Journey.ogg;
#OFFSET:-0.680000;
#SAMPLESTART:77.800003;
#SAMPLELENGTH:17.000000;
#SELECTABLE:YES;
#BPMS:0.000000=112.000000
;
#STOPS:
;
#BGCHANGES:;
#KEYSOUNDS:;
#ATTACKS:;

//---------------dance-single - ----------------
#NOTES:
     dance-single:
     :
     Easy:
     3:
     0.128117,0.175211,0.041519,0.066431,0.000000,108.000000,103.000000,5.000000,8.000000,0.000000,0.000000,0.128117,0.175211,0.041519,0.066431,0.000000,108.000000,103.000000,5.000000,8.000000,0.000000,0.000000:
0000
0000
0000
0000
,
0000
0000
0000
0000
,
0000
0000
0000
0000
,
0000
0000
0000
0000
,
0010
0000
0010
0000
,
0100
0000
0100
0000
,
0001
0000
1000
0000
,
0001
0000
1001
0000
,
0010
0000
0100
0000
,
0001
0000
0010
0000
,
0100
0000
1000
0000
,
0002
0000
0003
0000
,
0100
0000
0010
0000
,
1000
0000
0100
0000
,
0010
0000
0001
0000
,
2000
0000
3010
0010
,
0010
0000
1000
0000
,
0001
0000
0100
0000
,
0001
0000
0010
0000
,
0100
0000
1000
0000
,
0010
0000
0100
0000
,
0001
0000
1000
0000
,
0100
0000
1000
0000
,
0001
0000
0100
0000
,
0010
0000
0010
0000
,
0010
0000
0010
0000
,
0100
0000
0100
0000
,
0100
0000
0110
0000
,
0001
0000
0001
0000
,
1000
0000
1000
0000
,
0002
0000
0003
0000
,
2000
0000
3000
0000
,
0010
0000
0100
0000
,
0010
0000
0100
0000
,
0001
0001
0001
0000
,
1000
1000
1000
0000
,
0010
0000
1000
0000
,
0001
0000
0010
0000
,
0100
0000
1000
0000
,
2002
0000
3003
0000
,
0010
0000
1000
0000
,
0001
0000
0010
0000
,
0100
0000
0010
0000
,
0220
0000
0330
0000
,
1000
0100
1000
0000
,
0001
0100
0001
0000
,
0010
0000
0010
0000
,
0010
0000
0110
0000
,
0100
0001
0100
0000
,
0010
1000
0010
0000
,
0100
0000
0001
0000
,
1000
0010
0010
0000
,
0001
0010
0100
1000
;

//---------------dance-single - ----------------
#NOTES:
     dance-single:
     :
     Medium:
     8:
     0.259792,0.306620,0.083039,0.107950,0.000000,219.000000,209.000000,10.000000,13.000000,0.000000,0.000000,0.259792,0.306620,0.083039,0.107950,0.000000,219.000000,209.000000,10.000000,13.000000,0.000000,0.000000:
0000
0000
0000
0000
,
0000
0000
0000
0000
,
0000
0000
0000
0000
,
0000
0000
0000
0000
,
0010
0001
0000
1000
0000
0001
0100
0000
,
0010
1000
0000
0001
0000
1000
0100
0000
,
1000
0010
0000
1000
0000
0001
0100
0000
,
0001
0000
0010
0000
0100
0000
1000
0001
,
0100
0000
0010
0000
1000
0100
1000
0000
,
0001
0000
1000
0000
0010
0100
0010
0000
,
0100
0000
0001
0000
0010
0001
1000
0000
,
2002
0000
3003
0000
,
0100
0000
0010
0000
1000
0001
0100
0000
,
0001
0000
0010
0000
0001
1000
0100
0000
,
1000
0000
0010
0000
0100
0010
0100
0000
,
0220
0000
0330
0000
,
0001
0000
1000
0000
0100
0010
0001
0000
,
1000
0000
0010
0000
0100
0001
1000
0000
,
0100
0000
0010
0000
0001
1000
0100
0000
,
1000
0010
0100
0110
,
0010
0000
1000
0000
0001
1000
0100
0000
,
1000
0000
0001
0000
0010
0001
1000
0000
,
0001
0010
0100
0000
0010
0100
1000
0000
,
0010
0000
0100
0000
0001
0010
0001
0000
,
1000
0100
1000
0010
,
0100
0010
0100
0000
0002
0000
0003
0000
,
0010
0001
0010
0100
,
1000
0010
1001
0000
,
0100
0010
0100
0001
,
1000
0000
0100
0010
0001
0000
0100
0000
,
0200
0010
0000
0310
,
0020
1000
0000
1030
,
2000
0001
0000
3001
,
0002
0010
0000
0013
,
0100
1000
0001
0100
,
0010
0000
1000
0000
0001
1000
0001
0000
,
0010
0001
1001
0000
,
0100
0010
1000
0010
0100
0000
0001
0000
,
0010
0001
1000
0001
0010
0000
0100
0000
,
2200
0000
3300
0000
,
0010
0100
0110
0000
,
1000
0001
0100
0001
1000
0000
0010
0000
,
0010
0100
0001
0100
0010
0000
1000
0000
,
2002
0000
3003
0000
,
0010
1000
1001
0000
,
0001
0010
0100
0010
0001
0000
0000
0000
,
1000
0100
0010
0001
,
0100
0000
0010
0000
1000
0001
0010
0000
,
0001
0100
0010
1000
,
0100
1000
0001
1000
0100
0000
0000
0000
,
0010
0001
0001
1000
,
0010
0100
0010
0000
1000
0000
0001
0000
,
0010
0001
0100
0000
0010
0000
1001
0000
;

//---------------dance-single - ----------------
#NOTES:
     dance-single:
     :
     Hard:
     12:
     0.461457,0.439585,0.091342,0.024912,0.228356,389.000000,378.000000,11.000000,3.000000,0.000000,0.000000,0.461457,0.439585,0.091342,0.024912,0.228356,389.000000,378.000000,11.000000,3.000000,0.000000,0.000000:
// measure 0
0000
0000
0000
0000
,  // measure 1
0000
0000
0000
0000
,  // measure 2
0000
0000
0000
0000
,  // measure 3
0000
0000
0000
0000
,  // measure 4
1000
0000
0010
0000
0100
0000
0010
0000
1000
0000
0001
0010
0001
0000
1000
0000
,  // measure 5
0010
0000
0100
0000
0001
0000
0100
0000
0010
0000
1000
0100
1000
0000
0001
0000
,  // measure 6
0010
0000
0001
0000
1000
0000
0100
0000
1000
0000
0010
0100
0010
0000
0100
0000
,  // measure 7
0001
0000
0010
0000
0100
0000
1000
0000
0001
0100
0000
0010
1000
0000
0010
0000
,  // measure 8
1000
0000
0100
0000
1000
0000
0010
0000
0100
0010
0100
0000
0001
0000
0000
0000
,  // measure 9
0010
0000
0001
0000
1000
0000
0001
0000
0100
0010
0100
0000
0010
0000
0000
0000
,  // measure 10
1000
0000
0001
0000
0010
0000
0100
0000
1000
0001
1000
0000
0100
0000
0010
0000
,  // measure 11
0002
0000
0000
0000
0010
0000
0000
0000
0103
0000
0000
0010
1000
0000
0100
0000
,  // measure 12
0010
0000
0001
0000
1000
0000
0100
0000
1000
0010
1000
0000
0001
0000
0010
0000
,  // measure 13
0001
0000
0100
0000
0010
0000
0100
0000
0001
1000
0010
0000
0100
0000
0010
0000
,  // measure 14
1000
0100
0001
0100
1000
0010
0001
0010
,  // measure 15
0200
0000
0000
0000
0010
0000
0000
0000
0301
0000
0000
1000
0001
0000
0010
0000
,  // measure 16
0100
1000
0001
0100
0010
1000
0001
0010
,  // measure 17
0001
0100
1000
0100
0010
1000
0100
0001
,  // measure 18
0100
1000
0010
0100
1000
0100
0001
0010
,  // measure 19
0001
0000
0010
0000
1000
0000
0010
0000
0001
0000
0000
1000
0001
0000
0010
0000
,  // measure 20
0100
0000
1000
0000
0001
0000
0100
0000
0001
1000
0001
0000
0010
0000
0100
0000
,  // measure 21
0010
0000
0001
0000
1000
0000
0100
0000
1000
0010
1000
0000
0001
0000
0100
0000
,  // measure 22
0001
0010
0100
1000
0010
1000
0001
0100
,  // measure 23
0010
1000
0100
0001
0100
1000
0010
0100
,  // measure 24
0001
0000
0000
0000
0011
0000
0000
1000
0100
0000
0000
0001
0010
0000
0000
0001
,  // measure 25
1000
0100
0001
0100
1000
0000
1001
0000
,  // measure 26
0001
0000
0000
0000
0011
0000
0000
1000
0100
0000
0000
0001
0010
0000
0000
0100
,  // measure 27
1000
0000
0000
0001
0000
0000
0010
0000
0100
0000
0000
0000
0110
0000
0000
0000
,  // measure 28
1010
0000
0000
0000
0110
0000
0000
1000
0100
0000
0000
0001
0010
0000
0000
0001
,  // measure 29
1000
0010
0001
0010
1000
0000
0110
0000
,  // measure 30
0001
0000
0010
0001
0010
0000
0100
0000
0000
0000
1000
0010
1000
0000
0100
0000
,  // measure 31
0000
0000
0010
0001
0010
0000
0100
0000
1000
0000
0100
0000
0001
0000
0100
0000
,  // measure 32
0000
0000
1000
0100
1000
0000
0001
0000
0000
0000
0100
0001
0100
0000
0010
0000
,  // measure 33
0000
0000
1000
0010
1000
0000
0001
0000
1000
0000
0100
0000
0001
0000
0100
0000
,  // measure 34
1000
0000
0010
0100
0000
0000
0100
0000
0001
0000
0010
0100
0000
0000
0100
0000
,  // measure 35
1000
0000
0100
0000
0010
0000
0001
0000
1000
0000
0010
0100
0010
0000
1000
0000
,  // measure 36
0001
0000
0000
0001
0010
0000
0000
0010
0100
0000
0000
0100
1000
0000
0010
0000
,  // measure 37
1000
0100
0001
0100
1000
0000
1010
0000
,  // measure 38
0100
0001
0100
1000
0100
0000
0110
0000
,  // measure 39
0001
0000
0000
0001
1000
0000
0000
1000
0010
0000
0000
0000
0110
0000
0000
0000
,  // measure 40
1000
0000
0000
1000
0010
0000
0000
0010
0100
0000
0000
0100
0001
0000
0010
0000
,  // measure 41
0100
1000
0010
1000
0100
0000
0010
0001
,  // measure 42
0100
0001
1000
0010
0001
0000
0001
0010
,  // measure 43
0200
0000
1000
0000
0301
0000
1000
0100
,  // measure 44
0010
0000
0000
0010
0100
0000
0000
0100
1000
0000
0000
1000
0001
0000
0100
0000
,  // measure 45
0010
1000
0100
1000
0010
0000
0100
0001
,  // measure 46
0010
0000
0001
0010
0001
0000
1000
0000
0100
0000
1000
0000
0100
0000
0010
0000
,  // measure 47
0000
0000
0001
0100
0001
0000
0100
0000
0010
0000
0100
0000
0001
0000
1000
0000
,  // measure 48
0001
0000
0000
0001
0010
0000
0000
0010
1000
0000
0000
1000
0001
0000
0000
0000
,  // measure 49
0100
1000
0001
0100
0010
0000
0110
0000
,  // measure 50
1000
0010
0100
0001
0010
0100
1000
0001
,  // measure 51
1000
0100
0000
1000
0010
0000
0100
0000
0001
0000
0010
0000
0100
0000
1000
0000
,  // measure 52
0001
0010
0000
0001
0100
0000
0010
0000
0100
0000
0010
0000
1000
0000
0001
0100
;
