#TITLE:加油!元気猿!;
#SUBTITLE:;
#ARTIST:成城猿楽団;
#TITLETRANSLIT:Jiayou! Genkizaru;
#SUBTITLETRANSLIT:;
#ARTISTTRANSLIT:Seijou Sarugakudan;
#GENRE:KyouGeki;
#CREDIT:;
#BANNER:Jiayou!_Genkizaru!_banner.png;
#BACKGROUND:Jiayou!_Genkizaru!.png;
#LYRICSPATH:;
#CDTITLE:;
#MUSIC:Jiayou! Genkizaru!.ogg;
#OFFSET:-0.450000;
#SAMPLESTART:81.699997;
#SAMPLELENGTH:12.000000;
#LASTBEATHINT:209.500000;
#SELECTABLE:YES;
#BPMS:0.000000=150.000000
,51.000000=75.000000
,67.000000=150.000000
,99.000000=120.000000
,131.000000=160.000000
,147.000000=110.000000
,155.000000=130.000000
,163.000000=150.000000
,171.000000=180.000000
,206.000000=90.000000
;
#STOPS:48.000000=2.000000,
203.000000=0.333336,
204.000000=0.333328,
205.000000=0.333328
;
#BGCHANGES:;
#KEYSOUNDS:;
#ATTACKS:;

//---------------dance-single - ----------------
#NOTES:
     dance-single:
     :
     Easy:
     7:
     0.179314,0.254499,0.088951,0.187786,0.000000,127.000000,118.000000,9.000000,19.000000,0.000000,0.000000,0.179314,0.254499,0.088951,0.187786,0.000000,127.000000,118.000000,9.000000,19.000000,0.000000,0.000000:
0000
0000
0000
0000
,
0000
0000
0000
0000
,
0000
0000
0000
0000
,
0000
0000
0000
0000
,
0100
0001
0100
0000
,
0001
0010
0001
0000
,
1000
0010
1000
0000
,
0100
1000
0002
0003
,
1000
0000
0010
1000
,
0001
0000
0010
0001
,
1000
0000
0001
0000
,
2002
0000
3003
0000
,
0000
0000
0000
0110
,
1000
0100
0000
1000
,
0001
0010
0100
0020
,
0031
2000
3010
0100
,
0010
2002
3003
0010
,
0000
0001
0000
1000
,
0001
0100
0000
0010
,
0000
1000
0000
0001
,
1000
0100
0000
2000
,
0000
3010
0100
0002
,
0000
0013
0000
0001
,
0000
1000
0000
0220
,
0000
0330
0000
0001
,
0000
0001
0000
1000
,
0000
1000
0000
0100
,
0000
0100
0000
0010
,
0000
0010
0000
0002
,
0000
0103
0000
2000
,
0000
3010
0000
0100
,
0000
0010
0000
0100
,
0000
0010
0000
1000
,
0000
0100
0000
1000
,
0001
1000
0000
0001
,
0000
0010
0000
0001
,
0100
0001
0000
1000
,
0001
1000
0000
0100
,
0010
0100
0000
0010
,
0000
0001
0000
1000
,
0001
0010
0000
0100
,
0000
1000
0000
0001
,
0100
0010
0000
2000
,
0000
3010
0000
0020
,
0000
1030
0000
0001
,
0010
0001
0000
0202
,
0000
0303
0000
1000
,
0001
1000
0001
0220
,
0000
0000
0000
0330
0000
0000
0010
0000
,
0001
0100
1000
1001
,
0000
0010
0000
1001
,
0100
0010
1001
0000
;

//---------------dance-single - ----------------
#NOTES:
     dance-single:
     :
     Medium:
     10:
     0.306388,0.335667,0.197669,0.296504,0.000000,217.000000,197.000000,20.000000,30.000000,0.000000,0.000000,0.306388,0.335667,0.197669,0.296504,0.000000,217.000000,197.000000,20.000000,30.000000,0.000000,0.000000:
0000
0000
0000
0000
,
0000
0000
0000
0000
,
0000
0000
0000
0000
,
0000
0000
0000
0000
,
0001
0000
1000
0001
0010
0000
0001
0000
,
1000
0000
0010
1000
0001
0000
1000
0000
,
0001
0100
0010
0000
1000
0000
0100
0000
,
1000
0001
0100
0000
0010
0000
0110
0000
,
2000
3010
0100
0001
,
0010
0001
2002
3003
,
0100
0010
1000
0001
,
0010
0100
2000
3001
,
0110
0100
0000
0100
,
0001
1000
0001
0000
0010
0000
0100
1000
,
0001
1000
0001
0000
0100
0000
0010
1000
,
0010
0000
1000
0100
1000
0000
0002
0000
,
0013
0002
1003
1000
,
0001
0010
0100
0000
1000
0000
0001
0000
,
1000
0010
0100
0000
0001
0000
0010
0000
,
0001
0100
1000
0010
,
1000
0001
1000
0000
1001
0000
0020
0000
,
0031
2000
3010
0100
,
0001
2002
3003
1000
,
0010
0001
0010
1000
,
0100
0220
0330
0020
,
0000
0000
0031
0000
1000
0000
0001
1000
,
0100
0010
0100
1000
,
0010
0100
0001
0000
1000
0000
0001
0000
,
0010
0220
0330
0100
,
1000
0010
1000
0001
,
0010
0001
0100
0010
,
1000
0010
0001
0010
,
0100
0220
0330
0001
,
0010
0001
1000
0010
,
1000
1100
0000
0010
,
0100
1000
0001
1000
,
0010
0110
0000
0002
,
0013
0000
0001
1000
0100
0000
2000
0000
,
3010
0000
0100
0010
0100
0000
0001
0000
,
0010
0001
1000
0000
0001
0000
1000
0000
,
0010
1000
0001
0000
1000
0000
0002
0000
,
1003
0000
1000
0100
0010
0000
0100
0000
,
1000
0000
0001
0100
0010
0000
0100
0000
,
0010
1000
0100
1000
,
0001
0022
0033
1000
,
0001
0010
0100
1000
,
0001
1001
0000
0110
,
0100
0010
0110
2002
,
0000
0000
0000
3003
0000
0000
0010
0000
,
1001
0100
1001
0020
,
0032
0203
2300
3010
,
0110
1001
0220
0000
,
0000
0330
0000
0000
;

//---------------dance-single - ----------------
#NOTES:
     dance-single:
     :
     Hard:
     13:
     0.498409,0.568053,0.405222,0.533708,0.133427,353.000000,312.000000,41.000000,54.000000,0.000000,0.000000,0.498409,0.568053,0.405222,0.533708,0.133427,353.000000,312.000000,41.000000,54.000000,0.000000,0.000000:
// measure 0
0000
0000
0000
0000
,  // measure 1
0000
0000
0000
0000
,  // measure 2
0000
0000
0000
0000
,  // measure 3
0000
0000
0000
0000
,  // measure 4
1000
0000
0001
0010
0001
0000
0100
0000
0010
0000
1000
0000
0001
0000
0100
0000
,  // measure 5
0010
0000
1000
0100
1000
0000
0010
0000
1000
0000
0100
0000
0010
0000
0000
0000
,  // measure 6
0001
0100
0001
0000
1000
0010
1000
0000
0001
0010
0001
0000
1000
0100
1000
0000
,  // measure 7
0010
0000
0100
0010
0100
0000
0010
0000
1000
0000
0001
0000
1001
0000
0000
0000
,  // measure 8
0200
0000
0001
0000
0310
1000
0100
0010
,  // measure 9
0002
1000
0103
0010
,  // measure 10
2010
3100
0012
0103
,  // measure 11
0010
0000
1000
0001
0010
0000
0001
0000
1000
0000
0100
0000
0110
0000
0000
0000
,  // measure 12
1001
0000
0000
0000
0010
0000
0000
0000
0010
0000
0000
0000
1000
0000
0001
0010
,  // measure 13
0100
0000
0010
0000
0001
0000
1000
0000
1020
0000
0130
0000
0001
0000
1000
0100
,  // measure 14
0010
0000
0100
0000
1000
0001
0100
0000
0220
0000
0330
0000
2000
0000
3020
0000
,  // measure 15
0032
0000
0023
0000
2030
0000
3200
0000
0302
0000
0103
0000
1000
0001
0010
0000
,  // measure 16
0001
1000
0010
0000
0100
0001
1000
0000
2002
0000
3003
0000
0010
0000
0001
0100
,  // measure 17
0001
0000
1000
0000
0010
0000
0100
0000
0010
0000
1000
0000
0100
0000
1000
0001
,  // measure 18
1000
0000
0010
0000
1000
0000
0100
0000
0020
0000
0000
0000
0031
1000
0001
0000
,  // measure 19
1000
0010
1000
0000
0001
0000
1000
0000
0001
0100
0001
0000
0010
0000
0100
1000
,  // measure 20
0100
1000
0010
0100
0110
0000
0201
0000
,  // measure 21
0010
0000
0301
1000
0100
0010
0002
0000
,  // measure 22
0013
0000
2100
0000
3001
0000
0100
0001
,  // measure 23
0011
0000
0000
0000
1000
0000
0010
0000
0110
0000
0000
0000
1000
0000
0001
0010
,  // measure 24
0100
1000
0001
1000
1010
0000
0102
0000
,  // measure 25
1000
0000
0013
0000
1100
0000
0010
0001
,  // measure 26
1000
0000
1001
0000
0010
1000
0010
0001
,  // measure 27
0100
0000
0110
0000
0100
1000
0100
0001
,  // measure 28
0010
0000
0101
0000
0010
1000
0100
0001
,  // measure 29
2000
0000
3001
0010
2000
0000
3010
0001
,  // measure 30
1000
0110
0001
2002
,  // measure 31
3003
0220
0330
0001
,  // measure 32
1000
0000
2002
0000
3003
0000
0010
0100
,  // measure 33
0010
0000
1010
0000
1000
0000
0100
1000
,  // measure 34
0100
0000
1001
0000
0010
0001
1000
0001
,  // measure 35
0010
0000
1100
0000
0010
0000
1000
0001
,  // measure 36
0100
0000
0001
0000
1000
0000
0000
0000
0011
0000
0000
0000
1000
0001
0100
0000
,  // measure 37
0001
0010
0100
0000
1000
0010
1000
0010
1000
0000
0001
0000
0010
0000
1000
0000
,  // measure 38
0010
0000
0001
0000
1000
0000
0001
0000
1001
0000
0000
0000
0010
0000
0100
0010
,  // measure 39
0100
0000
0001
0000
0010
0000
0100
0000
0200
0000
0000
0000
1300
0000
0010
1000
,  // measure 40
0010
0100
0001
0010
0002
0000
1003
0000
,  // measure 41
1010
0000
0001
1000
0100
0000
0010
0001
,  // measure 42
1000
0010
0100
0001
1001
0000
2010
0000
,  // measure 43
0100
0000
3010
0001
0010
1000
0001
0000
,  // measure 44
0100
0120
1030
1100
,  // measure 45
0001
0000
0110
0000
1000
0000
0010
1000
,  // measure 46
0100
0001
0200
1300
0002
0013
0200
1300
,  // measure 47
0020
0130
2000
3100
0002
0013
0220
0000
,  // measure 48
0000
0000
0000
0000
0330
0000
0200
0301
,  // measure 49
0200
1300
0020
0031
0020
1030
0100
0000
,  // measure 50
1001
0000
0000
0000
0120
0000
0000
0000
1030
0000
0000
0000
0220
0330
0000
0000
,  // measure 51
2002
3003
0000
0000
0220
0330
0000
0000
2002
0000
0000
0000
0000
0000
0000
0000
,  // measure 52
0000
3003
0000
0000
;
