#TITLE:JUGGLE;
#SUBTITLE:;
#ARTIST:Ras;
#TITLETRANSLIT:;
#SUBTITLETRANSLIT:;
#ARTISTTRANSLIT:;
#GENRE:;
#CREDIT:;
#BANNER:JUGGLE_banner.png;
#BACKGROUND:JUGGLE_bg.png;
#LYRICSPATH:;
#CDTITLE:;
#MUSIC:JUGGLE.ogg;
#OFFSET:-0.710000;
#SAMPLESTART:85.029999;
#SAMPLELENGTH:15.000000;
#LASTBEATHINT:280.993225;
#SELECTABLE:YES;
#BPMS:0.000000=148.000000
;
#STOPS:40.500000=0.203000,
40.750000=0.203000,
41.000000=0.203000,
41.250000=0.203000,
41.500000=0.203000,
41.750000=0.203000,
42.000000=0.203000,
42.250000=0.203000,
200.000000=1.216000,
231.000000=0.135000,
231.333328=0.135000,
231.666672=0.068000,
231.833328=0.068000
;
#BGCHANGES:;
#KEYSOUNDS:;
#ATTACKS:;

//---------------dance-single - ----------------
#NOTES:
     dance-single:
     :
     Easy:
     6:
     0.249859,0.291851,0.225949,0.167370,0.000000,209.000000,182.000000,27.000000,20.000000,0.000000,0.000000,0.249859,0.291851,0.225949,0.167370,0.000000,209.000000,182.000000,27.000000,20.000000,0.000000,0.000000:
0000
0000
0000
0000
,
0000
0000
0000
0000
,
0100
0001
0010
1000
,
0220
0000
0330
0000
,
0011
0000
1000
0100
,
1000
0000
0010
0100
,
0010
0000
0100
0001
,
0100
0000
0001
0010
,
0011
0000
1100
0000
,
1010
0000
0101
0000
,
2002
0000
0000
3003
0000
0000
0000
0000
0000
0000
0000
0000
0000
0000
0000
0000
,
0100
0000
0010
0100
,
0001
0000
0010
0100
,
1000
0000
0010
1000
,
0001
0000
0101
0000
,
1000
0000
0100
1000
,
0010
0000
0100
0001
,
0010
0000
1001
0000
,
0010
0001
0100
2000
,
3010
0000
0100
0010
,
1000
0000
0100
1000
,
0001
0000
0100
0001
,
0010
0000
1001
0000
,
0010
0100
0001
0000
,
0010
0100
1000
0000
,
0010
0100
0001
1000
,
2002
0000
3003
0000
,
0110
0000
0001
0000
,
0010
0000
0100
0000
,
1000
0000
0010
0000
,
0001
0000
0100
0000
,
0020
0000
0000
0030
,
2000
0000
0000
3000
,
0002
0000
0000
0003
,
0200
0000
0000
0300
,
1001
0000
0010
0010
,
0110
0000
1000
1000
,
1100
0000
0001
0001
,
0101
0000
0010
0010
,
0210
0000
0010
0310
,
2001
0000
0001
3001
,
0102
0000
0100
0103
,
2200
0000
3300
0000
,
0010
0100
0010
0000
,
1000
0100
1000
0000
,
0001
0010
0001
0000
,
1000
0001
1000
0000
,
0001
0010
0100
0000
,
0010
0100
1000
0000
,
0001
0100
1000
0010
,
0110
1000
0100
0010
,
0000
0010
0100
1000
,
0000
0001
0100
0010
,
0000
0010
0100
0001
,
0000
1000
0010
0100
,
0000
0001
0010
0100
,
0000
1000
0100
0010
,
0001
0110
0000
1001
,
0010
0100
0010
0000
,
1000
0100
0010
0000
,
0001
0100
1000
0000
,
1000
0100
0001
0000
,
1000
0010
0110
0000
,
0001
0100
0110
0000
,
0001
0010
0100
1000
,
2002
0000
0000
3003
0000
0000
0000
0000
,
0010
0100
0001
0000
,
0010
0100
1000
0000
,
0001
1000
0100
0010
,
2002
0000
0000
3003
;

//---------------dance-single - ----------------
#NOTES:
     dance-single:
     :
     Medium:
     12:
     0.584598,0.556504,0.217580,0.083685,0.209212,489.000000,463.000000,26.000000,10.000000,0.000000,0.000000,0.584598,0.556504,0.217580,0.083685,0.209212,489.000000,463.000000,26.000000,10.000000,0.000000,0.000000:
// measure 0
0000
0000
0000
0000
,  // measure 1
0000
0000
0000
0000
,  // measure 2
0001
0000
0110
0000
1000
0100
0010
0001
,  // measure 3
0100
0000
0000
0000
1001
0000
0000
0010
0000
0100
0010
0000
2000
0000
0000
0000
,  // measure 4
3100
0000
0010
0000
0001
0000
0000
0000
0101
0000
0000
0010
0000
0000
1000
0000
,  // measure 5
0100
0000
1000
0000
0010
0000
0000
0000
0110
0000
0000
1000
0000
0000
0100
0000
,  // measure 6
0010
0000
0001
0000
0010
0000
0000
0000
1001
0000
0000
0010
0000
0000
0100
0000
,  // measure 7
0001
0000
1000
0000
0010
0100
0010
0000
1000
0000
0000
0100
0000
0000
0010
0000
,  // measure 8
0001
0000
1000
0000
0000
0100
0000
0000
0010
0000
0000
0001
0000
0000
1000
0000
,  // measure 9
0001
0000
0010
0000
0000
0100
0000
0000
1000
0000
0000
0010
0000
0000
0100
0000
,  // measure 10
0001
0000
1000
0100
0010
0001
0010
0100
1000
0010
0220
0000
0000
0330
0000
0000
,  // measure 11
0001
0010
0100
0000
1000
0100
0010
0100
,  // measure 12
1000
0010
0100
0000
0001
0100
0010
0100
,  // measure 13
0001
0010
0100
0000
1000
0010
0100
0010
,  // measure 14
1000
0100
0010
0001
0100
0000
0110
0000
,  // measure 15
1000
0100
0010
0000
0010
0100
1000
0001
,  // measure 16
0100
0010
0100
0000
0010
0100
0001
0010
,  // measure 17
0100
1000
0001
0000
0100
0010
0100
0001
,  // measure 18
0010
0000
0001
0000
0100
0000
0010
0000
1000
0100
0000
0100
0020
0000
0000
0000
,  // measure 19
0031
0100
0001
0000
0001
0010
0100
1000
,  // measure 20
0010
1000
0010
0000
0010
1000
0100
0010
,  // measure 21
0001
1000
0001
0000
0001
1000
0100
0010
,  // measure 22
0001
0100
1000
0100
0001
0000
1001
0000
,  // measure 23
1000
0010
0100
0000
0100
0010
1000
0100
,  // measure 24
0010
0100
1000
0000
1000
0001
0100
0001
,  // measure 25
1000
0010
0001
0000
0001
0010
1000
0001
,  // measure 26
2002
0000
0000
3003
,  // measure 27
0100
0000
0100
0000
0100
0010
0100
0010
,  // measure 28
1000
0000
1000
0000
1000
0100
1000
0100
,  // measure 29
0010
0000
0010
0000
0010
0001
0010
0001
,  // measure 30
1000
0001
0010
0100
1000
0000
1001
0000
,  // measure 31
0010
0100
0001
0000
0010
0100
1000
0000
,  // measure 32
0010
1000
0001
0000
0010
0001
1000
0000
,  // measure 33
0001
1000
0010
0000
0100
0001
1000
0000
,  // measure 34
0001
0010
1000
0010
0001
0000
1001
0000
,  // measure 35
0100
0010
0010
0000
1000
0100
0010
0100
,  // measure 36
1000
0001
0001
0000
0100
0010
0100
0001
,  // measure 37
0010
0100
0100
0000
1000
0001
0100
0010
,  // measure 38
0100
0001
0001
0010
0100
0000
1100
0000
,  // measure 39
0010
0000
1000
0100
1000
0000
0000
0000
0010
0000
0100
0000
0001
0010
0000
0000
,  // measure 40
0001
0000
1000
0000
1000
0000
0010
0000
0100
0000
0001
0010
0001
0000
0000
0000
,  // measure 41
0010
0100
1000
0000
0010
0100
0001
0100
,  // measure 42
0001
0000
1000
0000
0010
0100
0010
0000
1000
0000
0100
0000
0010
0000
0000
0000
,  // measure 43
0011
1100
1010
0011
,  // measure 44
1001
0000
0000
0000
0110
0000
0000
0000
1001
0000
0000
0100
0000
0000
0010
0000
,  // measure 45
1000
1100
0001
0011
,  // measure 46
1000
0000
0000
0000
0101
0000
0000
0010
0000
0100
0010
0000
2000
0000
0000
0000
,  // measure 47
3001
0010
0100
1000
0010
0100
0001
0000
,  // measure 48
1000
0100
0010
0001
0100
0010
2000
0000
,  // measure 49
3010
0000
0100
0000
0010
0000
0100
0000
0001
1000
0001
0000
0010
0000
0100
0000
,  // measure 50
1000
0000
0000
0000
0110
0000
0000
0100
0000
0000
0001
0000
0010
0000
0100
0000
,  // measure 51
0010
0000
0001
0000
1000
0000
0000
0010
0000
0000
0100
0000
0010
0000
1000
0000
,  // measure 52
0100
0000
0010
0000
0001
0000
0000
1000
0000
0000
0001
0000
0010
0000
0100
0000
,  // measure 53
1000
0000
0010
0000
0100
0000
0010
0000
1000
0001
0000
0001
1000
0000
0010
0000
,  // measure 54
0110
0000
0000
0000
1000
0000
0000
0100
0000
0000
1000
0000
0010
0000
1000
0000
,  // measure 55
0100
1000
0000
0000
0001
0000
0000
0010
0000
0000
0001
0000
0100
0000
0001
0000
,  // measure 56
0010
0100
0000
0000
1000
0000
0000
0010
0000
0000
0100
0000
0001
0000
0010
0000
,  // measure 57
0100
0000
0000
1000
0000
0000
0100
0000
0000
0000
0000
0000
0010
0000
0000
0000
0000
0000
0001
0000
0000
0000
0000
0000
0010
0000
0000
0000
0000
0000
1000
0000
0000
0000
0000
0000
0010
0000
0000
0000
0100
0000
0000
0000
0010
0000
0000
0000
,  // measure 58
0001
0100
0010
0100
0001
0010
0100
0000
,  // measure 59
1000
0010
0100
0010
1000
0001
0010
0000
,  // measure 60
0001
0100
1000
0100
0010
1000
0100
0000
,  // measure 61
0010
1000
0010
0001
0100
0010
0110
0000
,  // measure 62
1000
0000
0000
0100
0000
1000
0100
0000
0010
0000
0001
0000
1000
0000
0010
0000
,  // measure 63
0100
0000
0000
0001
0000
0010
0001
0000
1000
0000
0010
0000
0100
0000
0001
0000
,  // measure 64
0010
0000
0000
0100
0000
1000
0001
0000
0100
0000
0010
0000
0100
0010
0100
0000
,  // measure 65
0001
0000
0000
0010
0100
0000
1000
0001
0000
0000
1001
0000
0000
0100
0010
0000
,  // measure 66
1000
0100
0010
0100
1000
0001
0100
0000
,  // measure 67
0010
0100
0001
0100
0010
1000
0001
0000
,  // measure 68
0010
0100
1000
0100
0010
0100
1000
0000
,  // measure 69
0010
0000
1000
0000
0001
0010
0001
0000
0000
0100
0010
0000
2000
0000
3002
0000
,  // measure 70
0003
0000
0000
0000
;

//---------------dance-single - ----------------
#NOTES:
     dance-single:
     :
     Hard:
     15:
     0.818916,0.995849,0.435161,0.142264,0.933086,685.000000,633.000000,52.000000,17.000000,0.000000,0.000000,0.818916,0.995849,0.435161,0.142264,0.933086,685.000000,633.000000,52.000000,17.000000,0.000000,0.000000:
// measure 0
0000
0000
0000
0000
,  // measure 1
0000
0000
0000
0000
,  // measure 2
1000
0000
0010
0100
0000
0010
0000
0100
0000
0001
0010
0000
0100
0000
1000
0000
,  // measure 3
0100
0010
0100
0000
1000
0000
0010
0100
0000
0100
0010
0000
1000
0100
0010
0000
,  // measure 4
0001
0100
0010
0000
1000
0010
0000
0010
0100
0000
0000
0011
0000
0000
1000
0000
,  // measure 5
0100
0010
0001
0000
0001
0100
0000
0100
0010
0000
0000
1100
0000
0000
0001
0000
,  // measure 6
1000
0100
0010
0000
0001
0100
0000
0100
0010
0000
0000
1001
0000
0000
0010
0000
,  // measure 7
0001
0100
0010
0000
1000
0100
0000
0100
0010
0000
0000
1100
0000
0000
0010
0100
,  // measure 8
0001
0010
0100
0000
0000
1100
0000
0000
1010
0000
0000
0011
0000
0000
0001
1000
,  // measure 9
0001
0000
1100
0000
0000
0101
0000
0000
0011
0000
0000
1100
0000
0000
0010
0100
,  // measure 10
0001
1000
0010
1100
0011
0110
0101
1010
0101
1001
0220
0000
0000
0330
0000
0000
,  // measure 11
1000
0000
0100
0010
0000
0010
0000
0010
0100
1000
0010
0000
0100
0000
0001
0000
,  // measure 12
0010
0000
0001
1000
0000
0010
0000
1000
0000
0001
0010
0000
0100
0000
1000
0000
,  // measure 13
0010
0000
0100
0001
0000
0001
0000
0001
0010
0100
1000
0000
0010
0000
0100
0000
,  // measure 14
0001
0000
0100
1000
0000
0100
0001
0010
0000
0100
1000
0000
2002
0000
3003
0000
,  // measure 15
0010
0000
0100
0001
0000
0010
0000
0001
1000
0100
0010
0000
0001
0000
0100
0000
,  // measure 16
0010
0000
1000
0100
0000
1000
0000
0010
0100
0001
0010
0000
0100
0000
1000
0000
,  // measure 17
0001
0000
0100
0010
0000
0100
0000
0001
1000
0100
0010
0000
0001
0000
1000
0000
,  // measure 18
0010
0000
0100
0010
1000
0001
0100
0001
1000
0010
0000
0010
0200
0300
0200
0300
,  // measure 19
0001
0000
0010
0100
0000
0010
0000
0100
0010
0001
1000
0000
0010
0000
0100
0000
,  // measure 20
0001
0000
0010
0100
0000
1000
0000
0010
0100
0010
0100
0000
0001
0000
0010
0000
,  // measure 21
0100
0000
1000
0010
0000
0100
0000
0010
1000
0100
1000
0000
0010
0000
0100
0000
,  // measure 22
0010
0000
1000
0001
0000
0010
0000
0001
1000
0010
1000
0000
0220
0000
0330
0000
,  // measure 23
0001
0000
0010
0001
0000
0100
0000
0001
1000
0100
1000
0000
0010
0000
1000
0000
,  // measure 24
0100
0000
1000
0010
0000
1000
0000
0100
0010
0001
0100
0000
0010
0000
1000
0000
,  // measure 25
0001
0000
0010
0100
0000
1000
0000
0010
1000
0100
0010
0000
0001
0000
0100
0000
,  // measure 26
0001
0000
0010
1000
0000
0010
0001
0000
1000
0010
1000
0010
0200
0000
0300
0000
,  // measure 27
0110
0000
0000
1000
0000
1000
0000
1000
0000
0010
0100
0000
0001
0000
0000
0000
,  // measure 28
0011
0000
0000
0100
0000
0100
0000
0100
0000
0010
1000
0000
0001
0000
0000
0000
,  // measure 29
1100
0000
0000
0001
0000
0001
0000
0001
0000
0100
0010
0000
1000
0000
0000
0000
,  // measure 30
1001
0000
0000
0010
0000
0010
0000
0010
0000
0100
0010
0000
1000
0000
0000
0000
,  // measure 31
2001
0000
0010
0000
3001
0010
0100
1000
,  // measure 32
1002
0000
0010
0000
1003
0100
0010
0001
,  // measure 33
0100
0010
0100
0010
1000
0100
0001
0000
,  // measure 34
0100
1000
0001
0100
0010
0100
1001
0000
,  // measure 35
0010
0000
1000
0100
0010
0000
0000
0000
0010
0000
0100
0000
1000
0001
0100
0000
,  // measure 36
0010
0000
0100
0010
0100
0000
0001
0010
0001
0000
1000
0000
1010
0000
0000
0000
,  // measure 37
0001
0000
0010
0100
0010
0000
0001
0000
1000
0000
0010
0100
0010
0000
1000
0000
,  // measure 38
0001
0000
1000
0100
0010
0000
0001
0100
0010
0000
1000
0000
1001
0000
0000
0000
,  // measure 39
0010
0000
0100
0001
0100
0000
0010
0000
1000
0000
0100
0010
0100
0000
1000
0000
,  // measure 40
0001
0000
0100
0010
0000
0100
0000
0010
1000
0100
0010
0000
0001
0000
0100
0000
,  // measure 41
0010
0000
0100
0010
1000
0000
0001
0000
0010
0000
0100
1000
0001
0000
0100
0000
,  // measure 42
0010
0000
1000
0000
0001
0010
0100
1000
0010
0000
0100
0000
1001
0000
0000
0000
,  // measure 43
1010
1100
0011
0101
,  // measure 44
1010
0000
0000
0000
0011
0000
0000
0000
1100
0000
0000
0101
0000
0000
1100
0000
,  // measure 45
1001
0011
0101
1001
,  // measure 46
1010
0000
0000
0000
0000
0000
0000
0000
0000
0000
0000
0000
1001
0000
0000
0000
0000
0000
0000
0000
0000
1100
0000
0000
0000
0000
0000
1000
0000
0000
0010
0000
0000
0000
0000
0000
1000
0000
0000
0000
0100
0000
0000
0000
0010
0000
0000
0000
,  // measure 47
0001
0100
0001
0000
1000
0010
1000
0000
0001
0010
0001
1000
0200
0000
0000
0000
,  // measure 48
1300
0010
1000
0000
0001
0100
0001
0000
0010
0100
1000
0001
0200
0300
0200
0300
,  // measure 49
0001
0010
0100
1000
0001
0010
0100
1000
0010
0100
0001
1000
0100
0010
0001
0100
,  // measure 50
0020
0030
0000
0000
0000
0000
0000
0000
1000
0000
0000
0000
0100
0000
1000
0000
0000
0000
1000
0000
0100
0000
0000
0000
1000
0000
0010
0000
1000
0000
0000
0000
,  // measure 51
0100
0000
1000
0000
0001
0000
0100
0010
0000
0010
0100
0000
0001
0010
0001
0000
,  // measure 52
0100
0000
0010
0000
1000
0000
0100
0001
0000
0001
0100
0000
1000
0001
0100
0000
,  // measure 53
0001
0000
1000
0000
0001
0000
0010
0100
1000
0000
0010
0100
0001
0000
1000
0000
,  // measure 54
1001
0000
0000
0000
0010
0000
0100
0001
0000
0001
0010
0000
0001
0010
0100
0000
,  // measure 55
0010
0000
0001
0000
1000
0000
0010
0100
0000
0100
0010
0000
1000
0100
0010
0000
,  // measure 56
0100
0000
1000
0000
0001
0000
0010
1000
0000
1000
0010
0000
0001
1000
0010
0000
,  // measure 57
1000
0000
0000
0000
0000
0000
0001
0000
0000
0000
0000
0000
0100
0000
0000
0000
0000
0000
0010
0000
0000
0100
0000
0000
0010
0000
0000
0000
0000
0000
0100
0000
0000
0010
0000
0000
0100
0000
0000
0000
1001
0000
0000
0000
0010
0000
0100
0000
,  // measure 58
0001
0000
1000
0100
0000
0100
0010
0000
0001
1000
0010
0000
0100
0000
0001
0000
,  // measure 59
1000
0000
0010
0100
0000
0100
0001
0000
0010
0100
1000
0000
0010
0000
0100
0000
,  // measure 60
0001
0000
0100
1000
0000
1000
0100
0000
0001
0010
0100
0000
1000
0000
0010
0000
,  // measure 61
0100
0000
0010
0100
0001
0000
0010
0100
1000
0000
0001
0000
1001
0000
0000
0000
,  // measure 62
0100
0000
0001
0010
0000
0100
1000
0000
0010
0100
0001
0000
0010
0000
0001
0000
,  // measure 63
1000
0000
0100
0010
0000
0001
1000
0000
0010
1000
0100
0000
1000
0000
0001
0000
,  // measure 64
1000
0000
0100
0000
0010
0000
0001
0000
1000
0010
0100
0001
0010
0100
1000
0001
,  // measure 65
0010
0000
0100
1000
0100
0000
0000
1001
0000
0000
0110
0000
0000
1000
0001
1000
,  // measure 66
0001
0000
0010
0001
0000
0100
0000
0001
0000
1000
0010
0000
1000
0000
0100
0000
,  // measure 67
1000
0000
0010
0100
0000
0001
0000
0010
0000
0001
1000
0000
0100
0000
1000
0000
,  // measure 68
0001
0000
0010
0000
0100
0000
1000
0000
0010
0100
0001
1000
0010
0100
0001
0010
,  // measure 69
0100
1000
0100
0000
0010
0000
0100
1000
0000
0010
0100
0001
0020
0000
2000
0000
,  // measure 70
3030
0000
0000
0000
;
