#TITLE:Invitation from Mr.C;
#SUBTITLE:;
#ARTIST:C-Show;
#TITLETRANSLIT:;
#SUBTITLETRANSLIT:;
#ARTISTTRANSLIT:;
#GENRE:HOLIC;
#CREDIT:;
#BANNER:Invitation_from_Mr.C_banner.png;
#BACKGROUND:Invitation_from_Mr.C.png;
#LYRICSPATH:;
#CDTITLE:;
#MUSIC:Invitation from Mr.C.ogg;
#OFFSET:-1.100000;
#SAMPLESTART:86.660004;
#SAMPLELENGTH:12.000000;
#LASTBEATHINT:324.000000;
#SELECTABLE:YES;
#BPMS:0.000000=115.000000
,16.000000=230.000000
,53.000000=115.000000
,57.000000=230.000000
,65.000000=115.000000
,69.000000=230.000000
,112.000000=115.000000
,128.000000=230.000000
,192.000000=115.000000
,195.000000=230.000000
,212.000000=115.000000
,236.000000=230.000000
,313.000000=115.000000
,321.000000=230.000000
;
#STOPS:44.000000=0.783000,
111.750000=0.261000,
194.000000=0.522000,
211.000000=0.783000,
248.000000=0.783000,
321.000000=0.261000,
321.500000=0.261000
;
#BGCHANGES:;
#KEYSOUNDS:;
#ATTACKS:;

//---------------dance-single - ----------------
#NOTES:
     dance-single:
     :
     Easy:
     10:
     0.292560,0.435748,0.126304,0.180434,0.000000,227.000000,213.000000,14.000000,20.000000,0.000000,0.000000,0.292560,0.435748,0.126304,0.180434,0.000000,227.000000,213.000000,14.000000,20.000000,0.000000,0.000000:
0000
0000
0000
0000
,
0000
0000
0000
0000
,
0001
0100
0000
0100
0000
0100
0010
0000
,
1000
0100
0000
0100
0000
0100
0010
0000
,
0001
0000
0100
0000
,
0001
1000
0100
0000
,
1000
0000
0001
0000
,
0100
0010
1000
0000
,
0001
0010
0001
0000
,
1000
0010
1000
0000
,
0001
0010
0100
1000
,
1001
0000
0100
0000
0000
0100
0000
0000
,
0100
0000
0000
0010
0000
0000
0020
0000
,
0030
1000
0001
1000
,
0000
0000
0001
0000
0000
0001
0000
0000
,
0001
0000
0000
0100
0000
0000
0200
0000
,
0300
0010
1000
0001
,
0000
0000
1000
0000
0000
1000
0000
0000
,
1000
0000
0000
0100
0000
0000
0200
0000
,
0300
0000
0010
0000
0000
0010
0000
0000
,
0010
0000
0000
0001
0000
0000
0002
0000
,
0003
0000
1000
0000
0000
0001
0000
0000
,
1000
0000
0000
0010
0000
0000
0100
0000
,
0000
0220
0000
0000
,
0000
0000
0000
0000
,
0000
0330
0000
0000
,
0000
0000
0000
0000
,
0000
1001
0000
0000
,
0100
0100
0100
0000
,
0001
0001
0001
0000
,
1000
0100
0010
0000
,
0001
0100
0010
2000
,
3001
0000
0001
0010
,
0100
0010
0001
0000
,
1000
0000
0010
0100
,
0010
1000
0010
0000
,
1000
0000
0100
1000
,
0001
0100
0010
0000
,
1010
0000
0001
0000
,
0022
0000
0033
0000
,
0100
0001
1000
0001
,
0100
0001
1000
0000
,
0010
1000
0100
1000
,
0010
0100
0010
0000
,
1000
0100
1000
0001
,
0100
0001
0010
0000
,
0001
0100
0010
1000
,
0002
0000
0003
0000
,
1000
0001
1001
0220
,
0000
0000
0000
0000
,
0000
0000
0000
0330
,
0000
0000
0000
0000
,
0000
0000
0000
0000
,
0001
0010
0100
1000
,
0010
1000
0200
0300
,
0010
0001
1000
0001
,
0010
0000
1100
0000
,
0001
0110
1000
0110
,
0001
0110
2000
3000
,
2002
0000
0000
0000
,
0000
0000
0000
0000
,
3003
0000
0000
0000
,
0000
0100
0010
0100
,
0001
0010
0100
1000
,
0000
0001
1000
0010
,
0100
0001
0010
0100
,
0000
1000
0100
1000
,
0010
1000
0100
0010
,
0000
0001
0100
0001
,
0010
0001
0000
1100
,
0000
0000
0000
0010
0000
0100
0000
0001
,
0000
0010
0000
0100
0000
1000
0000
0001
,
0000
0000
0000
1000
0000
0010
0000
0100
,
0000
0001
0000
1000
0000
0001
0020
0000
,
0000
0031
0100
0010
,
1000
0100
0010
0001
,
0000
0100
0010
0100
,
0001
2002
0000
3003
,
0000
1000
0010
1000
,
0002
0013
0001
1000
,
0010
0000
0100
0100
0100
0000
0000
0000
;

//---------------dance-single - ----------------
#NOTES:
     dance-single:
     :
     Medium:
     13:
     0.704980,0.983477,0.315759,0.279672,0.302227,547.000000,512.000000,35.000000,31.000000,0.000000,0.000000,0.704980,0.983477,0.315759,0.279672,0.302227,547.000000,512.000000,35.000000,31.000000,0.000000,0.000000:
0000
0000
0000
0000
,
0000
0000
0000
0000
,
0010
1000
0100
0010
0000
0010
0000
0010
0000
0001
0000
0100
0010
0000
1000
0000
,
0001
0100
0010
0100
0000
0100
0000
0100
0000
0001
0000
1000
0200
0000
0300
0000
,
0010
0001
1000
0010
,
1000
0000
0001
0000
0010
0100
1000
0000
,
0010
0100
0001
0100
,
0010
0000
1000
0000
0001
1000
0100
0000
,
1001
0000
0010
0000
0100
0010
1000
0000
,
1001
0000
0010
0000
0001
0100
0010
0000
,
1000
0001
0010
0100
0000
0100
0010
0001
,
2000
3000
0000
0000
0010
0000
0100
0000
1000
0000
0100
0000
0000
0000
0001
0000
,
0010
0100
0010
0001
0000
1000
0010
0000
,
0110
0000
0000
0000
1000
0000
0010
0100
0001
0000
0010
0000
0100
0000
1000
0001
,
0100
0000
0001
0010
0100
0010
0000
0001
,
1000
0010
1000
0001
0000
1000
0100
0000
,
0110
0000
0000
0000
0001
0000
0100
0010
1000
0100
0000
1000
0000
0010
0100
0001
,
0020
0030
0011
0000
0000
1100
0000
0000
,
1010
0000
0000
0011
0000
0000
1001
0000
,
0100
0000
0110
0000
0000
0101
0000
0000
,
0011
0000
0000
1100
0000
0000
1010
0000
,
0200
0000
0310
1000
0010
0100
0000
0001
,
0010
0100
0010
0001
0000
1000
0010
1000
,
0001
2002
0000
0000
,
0000
0000
0000
3003
,
0000
0000
0100
0010
0100
0010
1000
0001
,
1000
0001
0010
0001
0010
0001
1000
0100
,
1000
0100
0020
0000
0000
0000
0200
0330
,
1000
0100
1000
0010
0100
0000
0010
0100
0000
0001
0010
0000
0001
0000
1000
0000
,
0001
0100
0010
0100
0001
0000
0010
0001
0000
1000
0010
0100
0010
0000
1000
0000
,
0100
1000
0001
1000
0100
0000
0010
0001
0000
1000
0010
0100
0010
0000
1000
0000
,
0001
0010
0100
0010
0001
0000
1000
0010
0000
0100
0001
0010
0100
0000
0110
0000
,
0001
0100
0010
0100
0000
0010
0100
0010
,
1000
0100
1000
0010
1000
0000
0001
0000
,
0010
0100
1000
0100
0010
0100
1000
0000
,
0010
0100
0001
0100
0010
0100
0001
0000
,
1000
0010
0100
0001
0010
0100
1000
0010
,
0000
0010
0100
0000
0001
0010
0100
0000
,
0010
0001
0100
0010
1000
0001
0100
0000
,
0220
0330
2002
3003
,
0010
1000
0001
0100
0010
1000
0100
0010
,
0001
0010
0100
1000
0010
0100
0010
0000
,
1000
0001
0010
0001
1000
0010
0100
0010
,
1000
0100
0001
0100
1000
0000
1001
0000
,
0001
0010
0100
1000
0010
0100
0010
1000
,
0001
1000
0100
0010
0100
0000
1000
0000
,
0001
0100
0010
0100
0001
1000
0010
1000
,
0002
0000
2000
3003
,
0100
0000
0010
1000
0100
0000
0010
0000
2002
3003
0000
0000
0220
0000
0000
0000
,
0000
0000
0000
0000
,
0000
0000
0330
0000
0000
0000
1000
0100
,
1000
0000
0001
0100
0001
0000
1000
0010
,
1000
0000
0001
0000
0010
0000
0100
0000
1000
0000
0000
0000
2002
3003
0000
0000
,
0010
0100
0010
1000
0020
0000
0130
0000
0100
0001
0010
0001
0200
0000
0301
0000
,
0010
0100
1000
0000
0001
1000
0010
0000
0100
0010
1000
0001
0100
0000
0010
0000
,
1000
0100
0010
0000
0100
1000
0010
0000
0100
0001
0010
0000
0001
0100
0010
0000
,
1000
0001
0010
0000
0001
0010
0100
0010
0001
0000
1000
0010
0000
0100
0001
0000
,
0010
0100
1100
0000
1000
0010
0101
0000
,
0010
0001
1010
0000
0100
0010
1001
0000
,
0220
0000
0000
0000
,
0000
0000
0000
0330
,
0001
0010
0100
1000
0001
0010
0100
1000
,
0010
0000
1000
0100
1000
0010
1000
0100
,
0010
0100
1000
0010
1000
0000
0001
0010
,
0001
0000
0100
0010
0100
0001
1000
0100
,
0010
0000
0001
0100
1000
0000
1000
0100
,
0001
0000
0010
0001
0100
0001
0010
0001
,
1000
0001
1000
0010
1000
0000
0001
0010
,
0001
0000
1000
0010
0100
0001
0010
0100
,
1000
2020
3030
0022
,
0033
0000
0100
0010
0100
0001
0100
1000
,
0100
0010
0100
0001
0100
1000
0100
0010
,
0100
0000
0010
1000
0010
0001
0010
0100
,
0010
1000
0010
0100
0010
0001
0010
0000
,
0110
0000
1000
0010
0100
0010
1000
0100
,
0002
0000
0103
1000
0010
0100
0001
0100
,
1000
0110
0000
1001
,
0000
0000
0001
0100
1000
0001
0010
1000
,
0010
0000
0000
0000
0100
0010
0100
0010
1000
0010
0100
0010
0000
1000
0100
0000
,
0010
0000
0001
0000
0010
0100
0010
1000
0010
0100
0010
0001
0000
1000
0001
0000
,
0010
0100
1000
0000
1010
0000
0011
0000
0220
0000
0000
0000
0330
0000
0000
0000
;

//---------------dance-single - ----------------
#NOTES:
     dance-single:
     :
     Hard:
     17:
     0.962743,1.457003,0.433041,0.225542,0.771354,747.000000,699.000000,48.000000,25.000000,0.000000,0.000000,0.962743,1.457003,0.433041,0.225542,0.771354,747.000000,699.000000,48.000000,25.000000,0.000000,0.000000:
// measure 0
0000
0000
0000
0000
,  // measure 1
0000
0000
0000
0000
,  // measure 2
0100
0000
0001
0010
0100
0000
1100
0000
0000
0000
0101
0000
0000
0000
1010
0000
0000
0000
0011
0000
0000
0000
1000
0000
0010
0000
0001
0000
0010
0000
1000
0000
,  // measure 3
0001
0000
1000
0100
0010
0000
0011
0000
0000
0000
1100
0000
0000
0000
0101
0000
0000
0000
1010
0000
0000
0000
0100
0000
0001
0000
0010
0000
0110
0000
0000
0000
,  // measure 4
1000
0100
1000
0100
0001
0100
1000
0100
,  // measure 5
1000
0010
0001
0010
1000
0010
0001
0000
,  // measure 6
0010
1000
0010
1000
0010
0001
0010
0001
,  // measure 7
0010
1000
0001
0100
1000
0001
1000
0000
,  // measure 8
0010
0100
0001
1000
0010
0100
0001
0010
,  // measure 9
0100
0000
1000
0000
0010
0000
1000
0000
0001
0010
0100
0010
0001
0000
0000
0000
,  // measure 10
1000
0000
0010
0100
0010
0000
1000
0000
0000
0000
1100
0000
0000
0000
1001
0000
,  // measure 11
0020
0030
0000
0000
0000
0000
0000
0000
1000
0000
0000
0000
0100
0000
0000
0000
0010
0000
0000
0000
1000
0000
0000
0000
0100
0000
0000
0000
0010
0000
0000
0000
,  // measure 12
0001
0010
0100
0001
0010
0100
1000
0000
,  // measure 13
0101
0000
0000
0000
0000
0000
0000
0000
0011
0000
0000
0000
1000
0000
0100
1000
0010
0000
0100
0000
0010
0000
1000
0000
0001
0000
0010
0000
0100
0000
0010
0001
,  // measure 14
1000
1001
0001
0010
0100
0001
0010
0100
,  // measure 15
1000
0100
0010
1000
0100
0010
0001
0000
,  // measure 16
1010
0000
0000
0000
0000
0000
0000
0000
0100
0000
0000
0000
0010
0100
0001
0000
0010
0000
0100
0000
1000
0000
0100
0000
0001
0000
1000
0100
1000
0000
0010
0000
,  // measure 17
0100
0001
0011
0000
1000
0000
0100
0000
0001
0000
1000
0000
0010
0000
0001
0000
,  // measure 18
1000
0001
0010
1000
0001
0100
1000
0000
,  // measure 19
1001
0000
0001
0010
1000
0001
0100
1000
,  // measure 20
0001
1000
0100
0001
1000
0010
0001
0000
,  // measure 21
0110
0000
0001
0010
0100
0001
0010
0100
,  // measure 22
1000
0010
0100
1000
0001
0010
0100
0010
,  // measure 23
0001
0120
1000
0100
,  // measure 24
1030
0210
0001
0010
,  // measure 25
0301
0000
1000
0010
0100
0001
0010
0100
,  // measure 26
1000
0000
0001
0000
0100
0010
0100
0010
1000
0001
1000
0001
0010
0100
1000
0100
,  // measure 27
0010
0000
0000
0000
2002
0000
0000
0000
0000
0000
0000
0000
0000
0000
0000
3003
,  // measure 28
0010
0000
0100
0000
0010
0000
1000
0000
0010
0000
0100
0000
0001
0000
0011
0000
0000
0000
1000
0010
1000
0000
0001
0000
0010
0000
1000
0000
0010
0000
0001
0000
,  // measure 29
1000
0000
0100
0000
0010
0000
0100
0000
1000
0000
0010
0000
0100
0000
0101
0000
0000
0000
0001
0010
0001
0000
1000
0000
0100
0000
0001
0000
0100
0000
1000
0000
,  // measure 30
0010
0000
0100
0001
0100
0000
0010
0000
1000
0000
0100
0010
0100
0000
1000
0000
0000
0000
0010
0100
0010
0000
1000
0000
0001
0000
0100
0000
1000
0000
0100
0000
,  // measure 31
0010
0000
1000
0100
1000
0000
0010
0000
0100
0000
0001
0010
0001
0000
1000
0000
0001
0000
0010
0000
0100
0000
1000
0000
0010
0000
0000
0000
1001
0000
0000
0000
,  // measure 32
0010
0000
0100
0000
0010
0000
1000
0100
0010
0000
0100
0000
1000
0000
0001
0000
,  // measure 33
0100
1000
0100
0001
0010
0100
1000
0001
,  // measure 34
1000
0000
0010
0000
0010
0000
1000
0000
0001
0010
0001
0000
1000
0000
0100
0000
,  // measure 35
0010
0000
1000
0000
0010
0000
0001
0000
0100
1000
0100
0000
0001
0000
0010
0000
,  // measure 36
0001
0000
1000
0000
0100
0000
1000
0010
0100
0000
0001
0000
0010
0000
0100
0000
,  // measure 37
1000
0100
0001
0100
1000
0010
0100
0001
,  // measure 38
1000
0000
0100
0000
0100
0000
1000
0000
0010
0100
0010
0000
1000
0000
0001
0000
,  // measure 39
0020
0130
2002
3003
,  // measure 40
0001
0000
1000
0000
0100
0000
0010
0001
0100
0000
0010
0000
1000
0000
0001
0000
,  // measure 41
1000
0100
0001
0100
1000
0010
1000
0000
,  // measure 42
0001
0000
0010
0100
1000
0000
0010
0000
1000
0000
0010
0100
0001
0000
0010
0000
,  // measure 43
0001
0000
0100
0000
1000
0000
0100
0000
0010
0100
0001
0100
0020
0000
0000
0000
,  // measure 44
1030
0000
0100
0000
1000
0000
0001
0010
0100
0000
1000
0000
0010
0000
0100
0000
,  // measure 45
0001
0010
1000
0010
0001
1000
0010
0000
,  // measure 46
0100
0000
0010
0000
1000
0100
0010
0100
1000
0000
0001
0000
0100
0010
1000
0010
,  // measure 47
0100
0001
2002
3003
,  // measure 48
0110
0000
1000
0010
0001
0000
0010
1000
0001
0000
0000
0000
0220
0000
0000
0000
,  // measure 49
0000
0000
0000
0000
,  // measure 50
0000
0000
0330
1000
,  // measure 51
0001
0000
1000
0001
1000
0001
0010
0100
,  // measure 52
0010
0100
1000
0100
0010
0001
1001
0000
,  // measure 53
0100
0001
0001
0001
0010
0000
0110
0000
1000
0010
0010
0010
1000
0000
0101
0000
,  // measure 54
0010
1000
0100
1000
0010
0001
0010
1000
0001
0010
0100
1000
0010
0000
0110
0000
,  // measure 55
0001
0010
0010
0010
0001
0000
1100
0000
0010
1000
1000
1000
0001
0000
0110
0000
,  // measure 56
1000
0000
0100
0000
0010
0000
0100
0000
1000
0000
0001
0000
0010
0000
0100
0000
1000
0010
1000
0000
0100
0000
0010
0000
0200
0000
0000
0000
0300
0000
0000
0000
,  // measure 57
1000
0100
0001
1000
0010
0000
1001
0000
0001
0100
1000
0001
0010
0000
1001
0000
,  // measure 58
0010
0100
0001
0100
0010
0000
1100
0000
1000
0010
0100
0010
1000
0000
0011
0000
,  // measure 59
2200
0000
0300
0000
,  // measure 60
0002
0000
3000
0000
,  // measure 61
0200
0003
0020
0330
,  // measure 62
1001
0000
0000
0000
0100
0000
0001
0010
0100
0000
0010
0000
0001
0000
0100
0000
,  // measure 63
0010
0000
1000
0000
0100
0000
1000
0010
0100
0000
0001
0000
0010
0000
0100
0000
,  // measure 64
0010
0001
1000
0100
0001
0100
1000
0010
,  // measure 65
0001
0000
0010
0000
1000
0000
0001
0000
0010
0100
0010
0100
1000
0000
0010
0000
,  // measure 66
0100
0010
0100
0010
1000
0000
0001
0010
0100
0000
0010
0000
0001
0000
1000
0010
,  // measure 67
0100
0001
1000
0010
0100
0001
0010
0100
,  // measure 68
1000
0010
0001
0010
1000
0100
0001
0100
,  // measure 69
1000
0001
0011
0000
1100
0000
2002
0000
,  // measure 70
3003
0000
0000
0000
0010
0000
0110
0000
0100
0000
0001
0010
0100
0000
1000
0000
,  // measure 71
0010
0000
1000
0000
0001
0000
0100
0010
0100
0000
0001
0000
1000
0000
0100
0010
,  // measure 72
0100
0000
1000
0000
0001
0000
0010
0100
1000
0000
0001
0000
1000
0000
0010
0100
,  // measure 73
0001
0000
1000
0000
0100
0000
0001
0000
0100
0000
1000
0000
0010
0100
0001
1000
,  // measure 74
0020
0000
0000
0000
1030
0000
1100
0000
0100
0000
0010
0001
1000
0000
0010
0000
,  // measure 75
1000
0000
0001
0000
0100
0000
1000
0000
0100
0000
0001
0000
0010
0100
0010
0100
,  // measure 76
1000
0000
0001
0000
0010
0000
0100
1000
0100
0000
1000
0000
0010
0000
0100
0001
,  // measure 77
0100
0000
0010
0000
1000
0000
0100
0000
0001
0000
0100
0000
1000
0010
0100
0001
,  // measure 78
0010
0000
0100
0000
1000
0000
0001
0000
0100
0000
0010
0100
0010
0000
1000
0000
0100
0000
0010
0001
0010
0000
0100
0000
0000
0000
1000
0000
0010
0000
0100
0000
,  // measure 79
0010
1000
0100
0010
0002
0000
0000
0000
1003
0000
0010
0100
0010
0000
1000
0000
0001
0000
0010
0100
0010
0000
0001
0000
1000
0000
0010
0000
0100
0000
0001
0000
,  // measure 80
0010
0100
1000
0001
0100
0000
0010
0000
0110
0000
0000
0000
1001
0000
0000
0000
0220
0000
0000
0000
0000
0000
0000
0000
0330
0000
0000
0000
0000
0000
0000
0000
;
