#TITLE:Into The Madness;
#SUBTITLE:;
#ARTIST:Yuta Imai;
#TITLETRANSLIT:;
#SUBTITLETRANSLIT:;
#ARTISTTRANSLIT:;
#GENRE:SPOOKY;
#CREDIT:;
#BANNER:Into_The_Madness_banner.png;
#BACKGROUND:Into_The_Madness.png;
#LYRICSPATH:;
#CDTITLE:;
#MUSIC:Into The Madness.ogg;
#OFFSET:-0.310000;
#SAMPLESTART:88.559998;
#SAMPLELENGTH:12.380000;
#LASTBEATHINT:300.500000;
#SELECTABLE:YES;
#BPMS:0.000000=155.000000
;
#STOPS:
;
#BGCHANGES:;
#KEYSOUNDS:;
#ATTACKS:;

//---------------dance-single - ----------------
#NOTES:
     dance-single:
     :
     Easy:
     6:
     0.265783,0.308671,0.160678,0.160678,0.000000,220.000000,201.000000,19.000000,19.000000,0.000000,0.000000,0.265783,0.308671,0.160678,0.160678,0.000000,220.000000,201.000000,19.000000,19.000000,0.000000,0.000000:
0000
0000
0000
0000
,
0000
0000
0000
0000
,
0000
0000
0000
0000
,
0000
0000
0000
0000
,
0000
0000
0000
0000
,
0010
0100
0001
0000
,
0010
0100
1000
0000
,
2002
0000
3003
0000
,
0100
0100
0100
0000
,
0010
0001
1000
0001
,
0010
0100
1000
0000
,
0010
0100
0010
1000
,
0100
0010
0001
0000
,
0200
0000
0320
0000
,
1030
0100
1000
0000
,
0002
0000
0023
0000
,
0130
1000
1001
0000
,
0010
0100
0001
0100
,
0010
1000
1000
0000
,
0100
0010
0100
1000
,
0001
0100
0100
0000
,
0010
1000
0001
0100
,
0001
0010
0100
0000
,
1000
0010
0100
0010
,
1000
0000
1001
0000
,
0100
0010
0100
0010
,
1000
0001
2020
3030
,
0100
0001
0100
0001
,
0010
0001
2200
3300
,
0010
0010
0100
0010
,
1000
1000
1000
1000
,
0101
0000
0011
0000
,
1000
0100
2020
3030
,
0100
0000
0100
0000
,
0100
0000
0100
0000
,
0010
0000
0010
0000
,
0010
0000
0010
0000
,
0100
0000
1000
0000
,
0010
0000
0001
0000
,
0010
0000
1000
0000
,
0100
0000
0001
0000
,
1001
0000
0010
0010
,
0110
0000
1000
1000
,
1100
0000
0001
0001
,
0011
0000
1001
0000
,
0100
0010
0000
0010
,
1000
0100
0000
0100
,
0010
0001
0100
0010
,
2002
0000
3003
0000
,
0010
0100
1000
0100
,
0010
0100
1000
0000
,
0001
0010
0100
0010
,
0001
0010
0100
0000
,
1000
0001
0100
0001
,
1000
0001
0010
0001
,
0101
0000
1010
0000
,
0200
0000
0000
0300
,
0010
0100
0010
1000
,
0100
0010
0001
0000
,
0100
0001
0010
0100
,
1000
0001
0100
0000
,
0010
0100
0001
1000
,
0100
0010
0001
0000
,
0100
1000
0010
0001
,
0220
0000
0330
0000
,
1000
0000
1000
0000
,
0001
0000
0001
0000
,
0010
0100
0010
0001
,
1000
0010
0100
0000
,
1000
1000
0001
0001
,
0010
0100
0010
0000
,
0001
0010
0100
1000
,
2002
0000
0000
0000
0000
3003
0000
0000
,
1001
0000
0000
0000
;

//---------------dance-single - ----------------
#NOTES:
     dance-single:
     :
     Medium:
     12:
     0.465120,0.568927,0.202962,0.295986,0.511632,385.000000,361.000000,24.000000,35.000000,0.000000,0.000000,0.465120,0.568927,0.202962,0.295986,0.511632,385.000000,361.000000,24.000000,35.000000,0.000000,0.000000:
0000
0000
0000
0000
,
0000
0000
0000
0000
,
0000
0000
0000
0000
,
0000
0000
0000
0000
,
0000
0000
0000
0000
,
1000
0000
1000
0010
0000
0000
0100
0000
0100
0001
0000
0000
,
0010
0000
0010
0001
0000
0001
1000
0000
1000
0010
0000
0000
,
0220
0000
0000
0330
,
0001
0000
0010
0100
0000
1000
0001
0000
0000
1001
0000
0000
,
0100
0000
0000
0010
0000
0000
0100
0000
0000
0001
0000
0010
,
0100
1000
0010
0100
,
0010
0000
0000
1000
0000
0000
0100
0000
0000
1000
0000
0001
,
0010
0001
1000
1001
,
0020
0100
2030
0100
,
3002
0010
0203
0010
,
0301
0000
0000
1001
0000
0000
1000
0000
0010
0100
0000
0000
,
0001
0000
0010
0100
0000
1000
0001
0000
0000
1001
0000
0000
,
0100
0000
0010
0100
0000
0001
0100
0000
0010
0100
0000
0000
,
0010
0000
1000
0010
0000
0100
0010
0000
1000
0010
0000
0000
,
1000
0000
0100
1000
0000
0010
1000
0000
0100
1000
0000
0000
,
0001
0000
0010
0001
0000
0100
0001
0000
0010
0200
0000
0000
,
1300
0000
0010
1000
0000
0001
0010
0000
0001
1000
0000
0000
,
0001
0000
0100
0001
0000
1000
0100
0000
1000
0001
0000
0000
,
0100
0010
0100
0010
0000
1000
0001
0010
0001
0010
0000
0100
,
1000
0000
0100
0010
0000
0001
0100
0000
0000
0110
0000
0000
,
0001
0000
0001
0010
0000
0010
0100
0000
0100
1000
0000
0000
,
1000
0000
1000
0010
0000
0010
0100
0000
0100
0002
0000
0000
,
1003
0000
0010
1000
0000
0001
0010
0000
0001
1000
0000
0000
,
0001
0000
0100
0001
0000
1000
0100
0000
0000
0110
0000
0000
,
1000
0000
0000
1010
0000
0000
0001
0000
0010
0001
0000
0000
,
0100
0000
0010
0100
0000
0001
0010
0000
0000
1100
0000
0000
,
0010
0100
0010
0100
0000
0001
0010
0100
0010
0100
0000
0000
,
1000
0000
0100
0010
0000
0001
0100
0000
0000
0110
0000
0000
,
2000
0000
3020
0000
,
0230
0000
0302
0000
,
0023
0000
0230
0000
,
2300
0000
0002
3003
,
0110
0000
0000
0000
1000
0000
0100
0000
0000
0000
0001
0000
,
0100
0000
0000
0000
0010
0000
1000
0000
0000
0000
0010
0000
,
0001
0000
0000
0000
1000
0000
0010
0000
0000
0000
0001
0000
,
0010
0000
0100
0000
1000
0000
2002
0000
0000
3003
0000
0000
,
0210
0001
0010
0301
,
0021
0100
0001
0130
,
1200
0010
1000
0310
,
2010
0001
0010
3001
,
0100
0000
0000
0110
0000
0000
0000
0000
0001
0010
0000
0000
,
0001
0000
0000
1100
0000
0000
0000
0000
0010
0100
0000
0000
,
0001
0000
0001
1000
0000
1000
0010
0100
0001
1000
0000
0000
,
0220
0000
0330
0000
,
2000
0100
0010
0100
,
3002
0010
0100
0010
,
2003
0100
0001
0100
,
3002
0010
1000
0013
,
1000
0000
0000
1010
0000
0000
0100
0000
0001
0010
0000
0000
,
0001
0000
0000
0101
0000
0000
0010
0000
1000
0100
0000
0000
,
0010
0000
0001
0010
0000
0100
1000
0000
0010
0100
0000
0000
,
2002
0000
0000
3003
,
0100
0000
0100
0010
0000
0010
1000
0000
0001
1000
0000
0000
,
0001
0000
0001
0010
0000
0010
0100
0000
1000
0001
0000
0000
,
0100
0000
0100
0010
0000
0010
1000
0000
0010
0100
0000
0000
,
0001
0000
0001
0010
0000
0001
0000
0000
0001
0010
0000
0000
,
0100
0000
0100
1000
0000
1000
0001
0000
0100
0001
0000
0000
,
1000
0000
1000
0010
0000
0010
0100
0000
0001
0010
0000
0000
,
0001
0000
0100
0001
0000
1000
0010
0000
1000
0001
0000
0000
,
0100
0000
0010
0100
0000
0001
0000
0000
0001
0010
0000
0000
,
0002
0000
0023
0000
,
0230
0000
0000
0000
0000
0000
1300
0001
1000
0001
0000
0000
,
0100
0000
0010
0100
0000
0000
0001
0000
0010
0001
0000
0000
,
1000
0000
0010
1000
0000
0001
0000
0000
0000
1001
0000
0000
,
0100
0010
0100
0010
0000
0000
1000
0000
0100
0010
0000
0000
,
0001
0000
0100
0001
0000
0000
1000
0000
0010
1000
0000
0000
,
0001
0000
0001
0010
0100
0010
0100
0000
0100
1000
0000
0000
,
0010
0000
0010
0100
0000
0100
0001
0010
0100
1000
0000
0000
,
2002
0000
0000
0000
,
0000
0000
0000
3003
;

//---------------dance-single - ----------------
#NOTES:
     dance-single:
     :
     Hard:
     17:
     0.826343,0.916604,0.422837,0.329813,1.636377,684.000000,634.000000,50.000000,39.000000,0.000000,0.000000,0.826343,0.916604,0.422837,0.329813,1.636377,684.000000,634.000000,50.000000,39.000000,0.000000,0.000000:
// measure 0
0000
0000
0000
0000
,  // measure 1
0000
0000
0000
0000
,  // measure 2
0000
0000
0000
0000
,  // measure 3
0000
0000
0000
0000
,  // measure 4
0000
0000
0000
0000
,  // measure 5
0010
0100
0001
0010
0100
1000
0010
0100
0010
1000
0100
0010
,  // measure 6
0001
0010
0100
0000
0000
0000
1000
0010
0100
0000
0000
0000
0001
1000
0100
0000
0010
0000
0001
1000
0010
0000
0100
0000
,  // measure 7
0020
0000
0000
0030
,  // measure 8
0100
0000
0001
0100
0000
1000
0100
0000
0000
0110
0000
0000
,  // measure 9
1000
0010
0100
0010
1000
0010
0100
0010
1000
0100
0010
0001
,  // measure 10
1000
0000
0010
0001
0000
0010
1000
0000
0000
1001
0000
0000
,  // measure 11
0001
0010
0100
0010
0001
0010
0100
0010
0001
0010
0100
1000
,  // measure 12
0001
0000
0010
1000
0000
0010
0001
0100
0010
0110
0000
0000
,  // measure 13
2000
0000
0100
3100
0000
0010
0002
0000
0100
0103
0000
0010
,  // measure 14
1000
0001
0010
0100
1000
0100
0010
0001
0100
0010
0000
0000
,  // measure 15
0101
0000
0010
1000
0000
0001
0010
0001
1000
0010
1000
0001
,  // measure 16
0100
0000
0001
0100
0000
1000
0100
0000
0000
0110
0000
0000
,  // measure 17
1000
0100
0010
0100
1000
0010
0100
0010
1000
0100
0010
1000
,  // measure 18
0010
0001
0100
0010
0100
0001
0010
0100
0010
0002
0000
0000
,  // measure 19
1003
0010
1000
0001
0010
0001
1000
0100
1000
0001
0100
0001
,  // measure 20
0010
0100
1000
0100
0001
0100
1000
0001
0100
0110
0000
0000
,  // measure 21
0001
0100
1000
0100
0001
0100
1000
0100
0001
0100
0000
0000
,  // measure 22
0010
1000
0010
0001
0010
1000
0010
0001
0010
2000
0000
0000
,  // measure 23
3001
0010
0001
0100
0010
0100
0010
1000
0100
1000
0010
0100
,  // measure 24
0001
0010
1000
0001
0100
1000
0010
0000
0000
1001
0000
0000
,  // measure 25
0100
0010
0100
0001
0010
0001
1000
0100
1000
0001
0100
1000
,  // measure 26
0100
0010
0100
0001
0010
0001
1000
0100
1000
0010
0001
0010
,  // measure 27
1000
0000
0001
1000
0100
0010
0100
1000
0001
0010
0001
1000
,  // measure 28
0001
0000
0010
0011
0000
1000
1010
0000
0000
0101
0000
0000
,  // measure 29
0010
1000
0100
0010
0100
1000
0010
0100
0001
0100
0010
1000
,  // measure 30
0001
0010
1000
0010
0001
1000
0010
0001
0010
2000
0000
0000
,  // measure 31
3001
0000
0100
0000
0010
0000
1000
0000
0001
0000
0010
0000
0100
1000
0100
0000
1000
0000
0010
0000
0100
0000
0001
0000
,  // measure 32
1000
0100
0001
1000
0010
0001
0100
0000
0000
1001
0000
0000
,  // measure 33
0020
0000
0230
0000
0302
0000
2003
0000
3200
0000
0302
0000
,  // measure 34
0203
0000
2300
0000
3020
0000
0032
0000
0023
0000
2030
0000
,  // measure 35
3002
0000
0023
0000
0230
0000
2300
0000
3020
0000
0230
0000
,  // measure 36
0302
0000
0023
0000
2030
0000
3001
0100
1000
0010
0000
0000
,  // measure 37
0101
0000
0011
0000
1010
0000
1100
0000
1010
0000
0101
0000
,  // measure 38
0011
0000
1001
0000
0110
0000
1010
0000
0110
0000
0101
0000
,  // measure 39
0011
0000
0110
0000
1100
0000
1010
0000
0101
0000
1001
0000
,  // measure 40
0110
0000
0011
0000
1100
0000
0220
0000
0000
0330
0000
0000
,  // measure 41
1000
0100
0001
0100
0000
1000
0001
0100
1000
0100
0000
0001
,  // measure 42
0010
1000
0010
0001
0000
1000
0001
0010
1000
0010
0000
0001
,  // measure 43
1000
0100
0010
0100
0000
1000
0001
0100
0010
0100
0000
0001
,  // measure 44
0010
0100
1000
0010
0100
0001
0010
0100
1000
0010
0000
0000
,  // measure 45
1100
0000
0000
0011
0000
0100
0000
0000
0010
0110
0000
0000
,  // measure 46
1001
0000
0000
0011
0000
1000
0000
0000
0001
1001
0000
0000
,  // measure 47
0110
0000
0010
0100
0000
0100
0001
1000
0100
0001
1000
0010
,  // measure 48
0002
0000
0000
0003
,  // measure 49
0100
0010
1000
0100
0010
0100
1000
0010
0100
0010
0000
0000
,  // measure 50
1000
0001
0010
0001
1000
0010
0001
0010
1000
0001
0000
0000
,  // measure 51
0010
0100
0010
0001
0100
0010
0100
0001
0010
0100
0000
0000
,  // measure 52
1000
0100
0001
0100
1000
0001
0100
0001
1000
0100
0000
0000
,  // measure 53
0011
0000
1000
0010
0100
0001
1001
0000
1000
0010
0100
0001
,  // measure 54
1001
0000
0100
0010
0100
0001
0011
0000
1000
0001
0010
0100
,  // measure 55
1000
0010
0100
0000
0000
0000
0001
0010
0100
0000
0000
0000
1000
0001
0100
0000
0010
0000
0100
0000
0001
0000
0010
0000
,  // measure 56
0200
0000
0000
0300
,  // measure 57
0010
0001
1000
0100
1000
0010
0100
0001
0010
0100
1000
0100
,  // measure 58
0010
0100
1000
0001
0100
1000
0100
0010
0100
0001
0001
0001
,  // measure 59
1000
0010
0100
0010
1000
0100
0010
0100
1000
0100
0001
0100
,  // measure 60
1000
0001
0010
0100
0010
0001
0100
0010
0100
0110
0000
0000
,  // measure 61
0001
1000
0100
0010
0001
0100
0010
0100
0001
0010
0100
1000
,  // measure 62
0010
0100
0010
0100
0001
0010
0001
0100
0010
1000
1000
1000
,  // measure 63
0001
0100
0010
0100
0001
0010
0100
0010
0001
1000
0010
0100
,  // measure 64
0010
0000
1000
1100
0000
0001
0011
0000
0100
0010
0100
0010
,  // measure 65
2000
0000
3100
0002
0000
0013
2000
0000
3010
0002
0000
0103
,  // measure 66
0020
0000
0000
0000
0130
0000
0002
0000
0000
0000
1003
0000
0100
0010
0100
0010
0100
0010
1000
0000
0001
0000
1000
0000
,  // measure 67
0010
0100
0010
1000
0100
0010
0100
1000
0001
0100
0010
0100
,  // measure 68
0001
0010
0100
1000
0001
1001
0000
0000
0100
0110
0000
0000
,  // measure 69
0010
0010
0010
0100
0001
0010
0100
1000
0100
0001
0001
0001
,  // measure 70
0100
1000
0010
0100
0001
0100
1000
0100
0010
1000
1000
1000
,  // measure 71
0010
0100
1000
0100
0001
0010
1000
0010
0001
1000
0010
0001
,  // measure 72
1000
0100
0001
1000
0010
0001
1000
0100
0001
0010
0000
0000
,  // measure 73
2002
0000
0000
0000
,  // measure 74
0000
0000
0000
3003
;
