#TITLE:Insanity;
#SUBTITLE:;
#ARTIST:BEMANI Sound Team "SYUNN & Yvya";
#TITLETRANSLIT:;
#SUBTITLETRANSLIT:;
#ARTISTTRANSLIT:SYUNN & Yvya;
#GENRE:;
#CREDIT:;
#BANNER:Insanity_banner.png;
#BACKGROUND:Insanity.png;
#LYRICSPATH:;
#CDTITLE:;
#MUSIC:Insanity.ogg;
#OFFSET:-0.060000;
#SAMPLESTART:80.639999;
#SAMPLELENGTH:12.000000;
#SELECTABLE:YES;
#BPMS:0.000000=210.000000
,112.000000=105.000000
,113.000000=210.000000
,127.000000=105.000000
,128.000000=210.000000
,184.000000=420.000000
,186.000000=210.000000
,194.000000=105.000000
,226.000000=210.000000
,288.000000=52.500000
,288.125000=105.000000
,288.250000=210.000000
,289.000000=420.000000
,290.000000=210.000000
;
#STOPS:10.000000=0.286000,
17.000000=0.286000,
24.000000=0.286000,
65.000000=4.286000,
134.000000=0.286000,
141.000000=0.286000,
148.000000=0.286000,
155.000000=0.286000,
162.000000=0.286000,
169.000000=0.286000,
176.000000=0.286000
;
#BGCHANGES:;
#KEYSOUNDS:;
#ATTACKS:;

//---------------dance-single - ----------------
#NOTES:
     dance-single:
     :
     Easy:
     9:
     0.333476,0.503257,0.106510,0.133137,0.017752,263.000000,251.000000,12.000000,15.000000,0.000000,0.000000,0.333476,0.503257,0.106510,0.133137,0.017752,263.000000,251.000000,12.000000,15.000000,0.000000,0.000000:
0000
0000
0000
0000
,
0000
0000
0000
0000
,
0000
0000
0000
0000
,
0000
0000
0000
0000
,
0000
0000
0000
0000
0010
0000
0000
0010
,
0000
0000
0010
0000
0000
0010
0000
0000
,
0000
0000
0100
0000
0000
0100
0000
0000
,
0100
0000
0000
0100
0000
0000
0020
0000
,
0030
1000
0100
1000
,
0001
0010
0001
0100
,
0000
0010
0100
0001
,
1000
0100
0010
0002
,
0000
0103
0010
1000
,
0001
1000
0100
0010
,
0000
0001
0100
0001
,
0010
0100
1000
0020
,
0030
0000
0000
0000
1000
0000
0000
1000
,
0000
0000
1000
0000
0000
1000
0000
0000
,
1000
0000
0001
0000
0010
0000
0000
0010
,
0000
0000
0010
0000
0000
0010
0000
0000
,
0001
0000
1000
0000
0100
0000
0000
0100
,
0000
0000
0100
0000
0000
0100
0000
0000
,
0010
0000
0100
0000
1000
0000
0000
1000
,
0000
0000
1000
0000
0000
1000
0000
0000
,
0002
0000
0103
0010
,
0100
0001
0010
0100
,
2000
0000
3010
0100
,
0010
1000
0100
0010
,
0001
0001
1000
0010
,
1000
0001
0010
0100
,
0000
1000
0010
0100
,
0001
1000
0010
0110
,
1001
0000
0000
0001
0000
0000
1000
0000
,
0000
1000
0000
0000
0000
0000
0110
0000
,
0000
0000
0010
0000
0000
0100
0000
0000
,
0100
0000
0000
0000
0011
0000
0000
0010
,
0000
0000
0100
0000
0000
0100
0000
0000
,
0000
1100
0000
0010
,
0000
0100
0000
0000
0010
0000
0000
0000
,
1000
0000
0000
0100
0000
0000
1000
0000
,
0000
0001
0000
0000
0010
0000
0010
0000
,
0000
0000
0001
0000
0000
0100
0000
0000
,
0010
0000
1000
0000
1000
0000
0000
0010
,
0000
0000
1000
0000
0000
1001
0000
0000
,
0010
0000
0001
0000
0000
0100
0000
0000
,
0010
0000
0000
0100
0000
0000
2020
0000
,
3030
0000
0001
0000
,
0000
0000
0000
0000
,
0000
0000
0010
0001
,
1000
0100
0010
0000
0100
0000
1000
0000
,
0010
0100
0001
0000
0100
0000
0001
0000
,
0010
0000
0100
0000
1000
0000
0001
0000
1000
0000
0000
0010
0000
0000
0100
0000
,
0000
0001
0000
0000
0010
0000
0000
0000
1001
0000
0000
0000
0100
0000
0000
0000
,
0010
0100
0001
0010
0001
0000
1000
0000
,
0010
1000
0100
0010
0001
0100
0100
0000
,
0001
0000
0010
0000
0001
0000
1000
0000
0000
0000
0010
0000
0000
0100
0000
0000
,
0010
0000
0000
0100
0000
0000
0000
0000
0002
0000
0000
0000
0000
0000
0000
0000
,
0013
0100
1000
0010
,
1000
0001
0200
0000
,
0310
1000
0001
0010
,
0100
1000
0010
1000
,
0100
1000
0010
1000
,
0001
0010
0001
0100
,
0001
0010
0001
1000
,
2002
3003
0100
0010
,
0100
0001
0000
0001
,
1000
0100
1000
0010
,
0100
0010
0000
0010
,
1000
0001
0020
0000
,
0031
1000
0000
1000
,
0010
1000
0001
0010
,
0100
1000
0001
1000
,
0020
0030
0000
0000
0100
0000
0000
0000
,
0110
0000
0001
1000
,
0100
0000
1000
0000
,
1010
0000
0100
0001
,
1000
0100
0010
0000
,
0011
0000
1000
0001
,
1000
0000
0000
0000
0001
0100
0000
0001
,
0010
0000
0001
1000
0000
0001
0020
0000
,
0030
0000
0000
0000
0001
2000
0000
0000
,
3000
0000
0000
0000
;

//---------------dance-single - ----------------
#NOTES:
     dance-single:
     :
     Medium:
     13:
     0.581998,0.898674,0.381659,0.186392,0.177516,459.000000,416.000000,43.000000,21.000000,0.000000,0.000000,0.581998,0.898674,0.381659,0.186392,0.177516,459.000000,416.000000,43.000000,21.000000,0.000000,0.000000:
// measure 0
0000
0000
0000
0000
,  // measure 1
0000
0000
0000
0000
,  // measure 2
0000
0000
0000
0000
,  // measure 3
0000
0000
0000
0000
,  // measure 4
0000
0000
0000
0000
0100
0010
0000
0100
,  // measure 5
0001
0000
0010
0100
0000
1000
0001
0000
,  // measure 6
0000
0000
1000
0010
0000
1000
0100
0000
,  // measure 7
0010
0001
0000
1000
0001
0000
0220
0000
,  // measure 8
0330
0000
1000
0010
0000
1000
0100
0000
,  // measure 9
1000
0001
0000
1000
0010
0000
0200
0000
,  // measure 10
0301
0000
0010
0001
0000
1000
0001
0000
,  // measure 11
0010
0001
0000
0100
0001
0000
0220
0000
,  // measure 12
0330
0000
1000
0001
0000
0010
0001
0000
,  // measure 13
1000
0010
0000
0100
0010
0000
2000
0000
,  // measure 14
3100
0000
0010
0001
0000
1000
0001
0000
,  // measure 15
0010
0100
0000
1000
0010
0000
0100
0010
,  // measure 16
1000
0001
0000
0000
0100
0001
0000
0100
,  // measure 17
1000
0000
0100
0001
0000
0100
1000
0000
,  // measure 18
0100
0010
0100
0000
0001
0010
0000
0001
,  // measure 19
1000
0000
0001
0010
0000
0001
1000
0000
,  // measure 20
1000
0000
1100
0000
0010
1000
0000
0010
,  // measure 21
0001
0000
0010
1000
0000
0010
0001
0000
,  // measure 22
0010
0100
0010
0000
1000
0010
0000
1000
,  // measure 23
0100
0000
0010
0001
0000
0100
0010
0000
,  // measure 24
2000
0000
0000
3001
0000
0000
0010
0000
0000
0001
0000
0100
,  // measure 25
0010
0000
0000
1000
0000
0010
1000
0000
0001
1000
0000
0000
,  // measure 26
2002
0000
0000
3003
0000
0000
0100
0000
0010
0100
0000
0000
,  // measure 27
0001
0000
0000
0010
0000
0001
1000
0000
0000
0100
0000
0000
,  // measure 28
1010
0000
0000
0100
0000
0000
0001
0000
0010
0100
0000
0000
,  // measure 29
1000
0000
0000
0010
0000
0100
0001
0000
0000
2000
0000
0000
,  // measure 30
3002
0000
0000
0013
0000
0000
0100
0000
1000
0010
0000
0000
,  // measure 31
1000
0000
0000
0010
0000
0100
0001
0000
0000
0110
0000
0000
,  // measure 32
0011
0000
0000
1001
0000
0000
1010
0000
,  // measure 33
0000
1100
0000
0000
1001
0000
0110
0000
,  // measure 34
0000
0000
1001
0000
0000
0110
0000
0000
,  // measure 35
0011
0000
1100
0000
1001
0000
0000
0101
,  // measure 36
0000
0000
0011
0000
0000
1010
0000
0000
,  // measure 37
1001
0101
0000
1100
,  // measure 38
0000
1010
0000
0000
0011
0000
1001
0000
,  // measure 39
1000
0100
1000
0001
0010
0000
0001
0100
,  // measure 40
0001
0010
0100
0000
1000
0000
0010
1000
,  // measure 41
0100
0010
0100
0000
1000
0010
0100
0010
,  // measure 42
1000
0000
0001
0000
0010
0100
1000
0100
,  // measure 43
0010
0000
0001
0100
0010
0100
0001
0000
,  // measure 44
1000
0000
0010
0100
0010
0100
0001
0010
,  // measure 45
0001
0010
0100
1000
0100
1000
0001
0000
,  // measure 46
1001
0000
0200
0000
,  // measure 47
0000
0000
0000
0000
,  // measure 48
0300
0000
0000
0000
0000
0000
0000
0000
0010
0000
0100
0010
1000
0000
0001
0000
,  // measure 49
0010
0100
1000
0000
0001
0000
1000
0000
0010
1000
0100
0000
0010
0001
1000
0000
,  // measure 50
0001
1000
0100
1000
0001
0000
0100
0100
0000
0010
0010
0000
0000
1010
0000
0000
,  // measure 51
1000
0000
0000
0001
0000
0100
0000
0000
0101
0000
0000
0000
0000
0000
0000
0000
0011
0000
0000
0000
0000
0000
1100
0000
0000
0000
0000
0000
1010
0000
0000
0000
,  // measure 52
0000
1001
0000
0000
0022
0000
0033
0000
0100
0000
0001
1000
0100
0000
1000
0001
,  // measure 53
0100
0000
0010
0100
0001
0000
0010
0000
0100
0000
1000
0100
1000
0000
0001
0000
,  // measure 54
1000
0010
0100
0001
0010
0000
0001
0000
0100
0010
1000
0000
0100
1000
0010
0000
,  // measure 55
0100
0001
0010
0000
0001
0100
0010
0100
0000
0000
0011
0000
0000
1100
0000
0000
,  // measure 56
1010
0000
0000
1000
0002
0000
0000
0000
0013
0000
0100
0000
1000
0000
0100
0000
,  // measure 57
0010
0000
0001
0100
0010
0100
0001
0000
,  // measure 58
1000
0001
0010
0000
0001
1000
0010
1000
,  // measure 59
0001
0000
0100
0001
0010
0001
0100
0000
,  // measure 60
0010
1000
0100
0000
1000
0100
0010
0001
,  // measure 61
0100
0010
1000
0001
0010
0100
1000
0001
,  // measure 62
1000
0100
0010
0000
0001
0100
0010
1000
,  // measure 63
0001
0010
0100
1000
0010
0100
0001
1000
,  // measure 64
0100
0010
0001
0000
1001
0000
0100
0000
,  // measure 65
0100
0000
0010
0100
0010
0000
1000
0100
,  // measure 66
0000
1000
0001
0000
0101
0000
0010
0100
,  // measure 67
0001
0000
0010
0100
1000
0000
0001
0100
,  // measure 68
0000
0001
1000
0000
1020
0000
0000
0000
,  // measure 69
0230
0000
0002
0000
0303
0000
0001
0010
,  // measure 70
0100
0000
1000
0000
0001
1000
0000
0010
,  // measure 71
1000
0000
0001
0100
0000
0010
0100
0000
,  // measure 72
2002
3003
1010
0000
,  // measure 73
0010
0000
1000
0100
0010
0000
0100
1000
,  // measure 74
0001
0100
0010
0100
,  // measure 75
0001
0000
0010
0000
0001
0000
1000
0000
0000
0001
0000
0000
,  // measure 76
0100
0000
0000
0010
0000
0000
0100
0000
0001
0000
0000
0000
0010
0000
0100
0000
,  // measure 77
1000
0100
0000
0000
1000
0000
0010
0000
,  // measure 78
0100
0000
0001
1000
0001
0100
0000
0001
,  // measure 79
0010
0000
0001
1000
0000
0010
0100
0000
,  // measure 80
0010
0000
0000
0000
0110
0000
0000
0000
0100
0000
0000
0000
0010
0000
0000
2000
0000
0000
0000
0000
0000
0000
0000
0000
,  // measure 81
3000
0000
0000
0000
;

//---------------dance-single - ----------------
#NOTES:
     dance-single:
     :
     Hard:
     17:
     0.826717,1.330037,0.896455,0.692312,0.585802,652.000000,551.000000,101.000000,78.000000,0.000000,0.000000,0.826717,1.330037,0.896455,0.692312,0.585802,652.000000,551.000000,101.000000,78.000000,0.000000,0.000000:
// measure 0
0000
0000
0000
0000
,  // measure 1
0000
0000
0000
0000
,  // measure 2
0000
0000
0000
0000
,  // measure 3
0000
0000
0000
0000
,  // measure 4
0000
0000
0000
0000
0001
0101
0000
1000
,  // measure 5
1100
0000
0010
0110
0000
1000
1001
0000
,  // measure 6
0000
0000
0100
0110
0000
0001
0101
0000
,  // measure 7
0010
0011
0000
0100
1100
0000
2002
0000
,  // measure 8
3003
0000
0010
1000
0010
0100
0001
0000
,  // measure 9
0010
0000
0100
0000
1000
0000
0001
0000
1000
0000
0000
0000
0010
1000
0010
0000
,  // measure 10
0100
0001
0100
0000
0001
0000
0010
0000
1000
0000
0010
0000
0001
0000
0000
0000
,  // measure 11
1000
0000
0100
0000
0001
0000
0100
0000
1000
0000
0000
0000
0001
0100
0010
0000
,  // measure 12
1000
0010
0100
0000
0001
0000
1000
0000
0100
0000
1000
0000
1001
0000
0000
0000
,  // measure 13
0010
0000
0001
0000
1000
0000
0010
0000
0110
0000
0000
0000
0001
0010
0100
0000
,  // measure 14
0010
0100
1000
0000
0001
0000
0010
0000
1000
0000
0100
0000
0001
0000
0100
0000
,  // measure 15
1000
0000
0010
0000
0001
0000
1000
0000
0100
0000
0001
0000
1000
0001
0100
0010
,  // measure 16
1000
0001
0100
0010
0000
0000
0000
0000
1000
0000
1100
0000
0000
0000
0001
0000
,  // measure 17
0011
0000
0100
0110
0000
1000
1001
0000
,  // measure 18
0001
0010
1000
0010
0001
1001
0000
1000
,  // measure 19
1010
0000
0001
0101
0000
0100
0110
0000
,  // measure 20
1000
0000
0100
0000
1000
0001
0010
0001
1000
0000
1100
0000
0000
0000
0001
0000
,  // measure 21
0011
0000
0100
0110
0000
0010
1010
0000
,  // measure 22
0100
0000
0010
0000
1000
0100
0010
0000
0001
0000
0101
0000
0000
0000
1000
0000
,  // measure 23
1100
0000
0001
0011
0000
1000
1010
0000
,  // measure 24
0220
0000
0000
0330
0000
0000
1000
0100
0010
0100
1000
0001
,  // measure 25
0200
0000
0000
0310
1000
0001
0010
0100
1000
0020
0000
0000
,  // measure 26
1030
0000
0000
0100
0000
0000
1000
0000
0000
0100
0000
0000
0010
0000
0001
0000
1000
0000
0001
0000
0100
0000
0010
0000
,  // measure 27
2000
0000
0000
3001
0100
0010
0100
0001
0010
0200
0000
0000
,  // measure 28
2300
0000
0000
3200
0000
0000
0302
0000
0000
0203
0000
0000
1300
0000
0000
0000
0001
0000
0000
0000
0010
0000
0000
0000
0100
0000
0000
0000
1000
0000
0000
0000
0001
0000
0000
0000
0200
0000
0000
0000
0000
0000
0000
0000
0000
0000
0000
0000
,  // measure 29
0301
0000
1000
0000
0010
0000
0100
0000
0001
0000
0010
0000
0200
0000
0000
0000
0000
0000
1300
0000
0000
0010
0000
0000
,  // measure 30
1000
0000
0000
0010
0000
0000
0100
0000
0010
0000
1000
0000
0001
0000
0010
0000
0100
0000
0020
0000
0000
0000
0000
0000
,  // measure 31
0031
1000
0100
1000
0010
0100
0001
0000
0000
1001
0000
0000
,  // measure 32
0220
0000
0000
0330
0000
0000
2020
0000
0000
3030
0000
0000
0202
0000
0000
0303
,  // measure 33
0000
0000
0022
0000
0000
0000
0033
0000
0000
0000
0100
1000
0200
0000
0000
0300
,  // measure 34
0000
0000
1000
0000
2020
0000
0000
3030
0000
0000
0022
0000
0000
0033
0000
0000
,  // measure 35
2002
0000
0000
3003
0000
0000
0000
0000
0220
0000
0000
0330
0000
0000
0202
0000
,  // measure 36
0000
0303
0000
0000
2020
0000
0000
3030
0000
0000
2200
0000
0000
3300
0000
0000
,  // measure 37
0000
0000
0001
0101
0100
0010
0110
0000
,  // measure 38
1000
1001
0001
0100
0101
0000
1001
0000
,  // measure 39
0100
0220
0330
0001
0022
0033
1000
2020
,  // measure 40
3030
0000
0001
0000
2002
0000
3003
0000
0000
0000
0010
0100
0001
0000
0022
0000
,  // measure 41
0033
1000
2200
3300
0010
2020
3030
0100
,  // measure 42
0110
0000
0000
0000
0101
0000
0000
0000
2002
0000
0000
3003
0000
0000
2200
0000
,  // measure 43
0000
3300
0000
0000
0022
0000
0000
0033
0000
0000
0202
0000
0000
0303
0000
0000
,  // measure 44
1010
0000
0001
1002
0000
1003
2001
0000
,  // measure 45
3001
0000
0021
0000
0000
0000
0130
0000
0110
0000
0000
0000
1000
0001
0010
0100
,  // measure 46
1000
0000
2002
0000
,  // measure 47
0000
0000
0000
0000
,  // measure 48
3003
0000
0000
0000
0000
0000
0000
0000
0000
0000
0000
0000
0000
0000
0000
0000
0010
0000
0000
0000
0001
0100
0010
0000
1000
0000
0000
0000
0100
0000
1000
0000
,  // measure 49
0001
0000
0010
0000
1000
0000
0010
0000
0001
0000
0000
0000
1000
0000
0010
0000
0100
0000
0000
0000
0001
1000
0100
1000
0010
0000
0000
0000
1000
0010
0100
0010
,  // measure 50
1000
0000
1001
0001
0010
0100
1000
1001
0000
0100
0110
0000
0000
0011
0000
0000
,  // measure 51
1100
0000
0000
0000
1010
0000
0000
0000
0101
0000
0000
0000
0012
0000
0000
0000
0000
0000
1003
0000
0000
0000
0000
0000
0110
0000
0000
0000
0000
0000
0010
0000
0000
1010
0000
0000
0000
0000
0000
1000
0000
0000
1100
0000
0000
0000
0000
0000
,  // measure 52
0001
0000
0101
0000
0000
0000
0010
0000
1000
0001
0010
0100
1000
0000
0000
0000
0110
0000
0000
0000
1000
0100
0010
0100
1000
0000
0000
0000
0001
0000
0100
0000
,  // measure 53
0010
0000
0100
0000
0100
0000
0001
0000
1000
0010
0100
0000
0010
0100
0001
0000
0020
0000
0000
0000
0031
1000
0100
0000
1000
0000
0010
0000
0100
0000
0000
0000
,  // measure 54
0001
0000
0010
0000
1000
0000
0010
0000
0001
1000
0100
0000
1000
0000
0000
0000
0010
0000
0000
0000
1000
0100
1000
0001
0010
0000
0000
0000
0001
0100
0010
0100
,  // measure 55
0001
0000
1000
1000
0001
0010
0100
1100
0000
0000
0011
0000
0000
1001
0000
0000
,  // measure 56
0110
0000
0000
0101
0001
0100
1000
0100
0010
0000
1000
0000
0100
0000
0020
0000
,  // measure 57
0000
0130
1000
0001
0010
0002
0000
0103
,  // measure 58
0010
1000
0100
0000
0010
0001
0100
0000
0001
0000
0100
0000
1000
0000
0200
0000
,  // measure 59
0000
0310
1000
0100
0001
0200
0000
1300
,  // measure 60
0001
1000
0010
0000
1000
0001
0100
0000
0010
0000
0100
0000
0001
0000
1000
0000
,  // measure 61
0100
0001
1000
0010
0001
0100
1000
0001
,  // measure 62
0010
0000
1000
0000
0001
0000
1000
0000
0001
0010
0100
0000
1000
0000
0010
0000
,  // measure 63
1000
0010
0100
0000
0001
0000
0010
0000
0001
0000
1000
0000
0100
0000
0010
0000
,  // measure 64
0001
0000
1000
0000
0010
0000
0100
0000
0001
0000
0010
0000
0100
0000
0000
1000
0000
0000
1000
0000
0000
0100
0000
0000
,  // measure 65
0100
0010
0100
1000
0001
0001
0100
0010
,  // measure 66
0100
0000
0001
0000
0001
0000
0010
0000
0001
1000
0100
0000
1000
0000
0001
0000
,  // measure 67
0100
0000
0010
0000
1000
0000
0001
0000
0010
0001
1000
0000
0010
0000
0100
0000
,  // measure 68
0001
0000
1000
0100
0010
0100
1000
0001
0100
0000
0000
0000
0010
0000
0000
0000
,  // measure 69
1000
2200
0300
3001
,  // measure 70
0001
0000
0011
0000
1000
0101
0000
0001
,  // measure 71
0110
0000
0100
1010
0000
0100
0001
1000
,  // measure 72
2002
3003
0110
0000
,  // measure 73
1001
0000
0000
0000
0010
0100
1000
0000
0010
0000
1000
0010
0100
0000
0001
0000
,  // measure 74
0010
0000
0001
0000
1000
0000
0000
0000
0000
0000
0100
0001
1000
0001
0100
0000
,  // measure 75
0010
0000
1000
0000
0100
0000
0010
0000
0002
0000
0000
0000
0000
0000
1003
0010
,  // measure 76
0100
0000
0000
0110
0000
0000
0001
0000
0010
0000
0100
0000
0100
0000
1000
0001
,  // measure 77
0010
0001
0000
0000
0110
0000
0000
0000
,  // measure 78
1001
0000
0000
0000
0100
0000
0010
1000
0001
0000
0011
0000
0000
0000
1000
0000
,  // measure 79
1010
0000
0001
1001
0000
1000
1100
0000
,  // measure 80
0011
0000
0000
0000
0110
0000
0000
0000
1100
0000
0000
0000
1000
0000
0000
2002
0000
0000
0000
0000
0000
0000
0000
0000
,  // measure 81
3003
0000
0000
0000
;
