#TITLE:Initiating League;
#SUBTITLE:;
#ARTIST:EmoCosine vs. nora2r;
#TITLETRANSLIT:;
#SUBTITLETRANSLIT:;
#ARTISTTRANSLIT:;
#GENRE:;
#CREDIT:;
#BANNER:Initiating_League_banner.png;
#BACKGROUND:Initiating_League.png;
#LYRICSPATH:;
#CDTITLE:;
#MUSIC:Initiating League.ogg;
#OFFSET:-0.300000;
#SAMPLESTART:83.099998;
#SAMPLELENGTH:12.000000;
#SELECTABLE:YES;
#BPMS:0.000000=200.000000
,175.000000=100.000000
,177.000000=200.000000
,181.000000=100.000000
,183.000000=200.000000
,196.000000=100.000000
,212.000000=200.000000
;
#STOPS:36.000000=0.300000,
36.500000=0.300000,
37.000000=0.150000,
37.500000=0.300000,
38.000000=0.300000,
38.500000=0.150000,
39.000000=0.300000,
39.500000=0.300000,
169.000000=0.150000,
169.500000=0.150000,
170.000000=0.150000,
170.500000=0.150000,
195.000000=0.900000,
212.000000=0.300000,
212.500000=0.300000,
213.000000=0.150000,
213.500000=0.300000,
214.000000=0.300000,
214.500000=0.150000,
215.000000=0.300000,
215.500000=0.300000,
312.500000=0.150000,
313.000000=0.075000,
313.250000=0.075000,
313.500000=0.075000,
313.750000=0.075000,
314.500000=0.150000
;
#BGCHANGES:;
#KEYSOUNDS:;
#ATTACKS:;

//---------------dance-single - ----------------
#NOTES:
     dance-single:
     :
     Easy:
     8:
     0.355029,0.462739,0.138067,0.250246,0.000000,288.000000,272.000000,16.000000,29.000000,0.000000,0.000000,0.355029,0.462739,0.138067,0.250246,0.000000,288.000000,272.000000,16.000000,29.000000,0.000000,0.000000:
0000
0000
0000
0000
,
0000
0000
0000
0000
,
0000
0000
0000
0000
,
0000
0000
0000
0000
,
0000
0000
0000
0000
,
1000
0100
0100
0000
,
0001
0010
0010
0000
,
0100
1000
0010
0001
,
2002
0000
3003
0000
,
0100
0100
0000
0010
0010
0000
0100
0100
,
0000
0001
1000
0200
,
0000
1300
0010
1000
,
0010
0100
0001
0100
,
0001
0010
0100
1000
,
0001
2002
0000
0000
,
3003
0100
0010
0100
,
0010
1000
0100
1000
,
0100
0010
0001
1000
,
0001
0220
0000
0000
,
0330
1000
0100
1000
,
0001
1000
0001
0010
,
0000
0100
0010
1000
,
0001
1000
0001
0220
,
0330
0001
0100
0010
,
1000
0001
1000
0100
,
0000
0010
1000
0001
,
0100
0000
0100
0000
0010
0100
0020
0000
,
0030
1000
0010
1000
,
0001
0010
0100
1000
,
0001
1000
0001
0010
,
0100
1000
0001
0200
,
0300
0010
1010
0000
,
0101
0000
0011
0000
,
1100
0001
1000
0001
,
0010
0200
0000
0000
,
0300
0010
0001
1000
,
0001
1000
0010
0100
,
0001
1000
0010
1000
,
0100
1000
0001
0020
,
0000
0031
0100
0010
,
1000
0100
1000
0001
,
0010
0001
0000
1001
,
0000
0000
0220
0330
0000
0000
1000
0000
,
0001
1000
0001
0020
,
0130
1000
0010
0100
,
0001
0020
0130
0010
,
0001
1000
0010
1000
,
0001
0100
0010
1000
,
0001
0000
0010
0100
0010
0100
0010
0000
,
1001
0000
0100
0010
,
1000
0000
0001
0010
,
0100
0010
0100
0000
1000
0010
1000
0000
,
0001
1000
0001
0010
0200
0000
1300
0000
,
0001
0001
0000
1000
1000
0000
0100
0100
,
0000
0010
0001
2000
,
0000
3010
0100
0001
,
0100
0010
1000
0100
,
1000
0001
0010
0100
,
1000
2002
0000
0000
,
3003
0100
0010
1000
,
0010
1000
0100
0010
,
0100
1000
0001
0010
,
0001
1000
0010
1000
,
0100
0010
0001
0100
,
0001
0010
0100
1000
,
0001
0000
1000
0000
0000
0001
0000
0000
,
0010
0202
0000
0000
,
0303
0010
1000
0100
,
1000
0001
0010
0001
,
1000
0010
1000
0100
,
0010
0001
1000
2002
,
3003
0010
1000
0010
,
0001
0010
1000
0100
,
0010
0001
0100
1000
,
0100
0220
0000
0000
,
0330
1000
0000
0010
,
0000
1000
0001
0100
,
0000
0001
0000
0020
,
0000
0030
0000
0000
0000
0000
0010
0000
,
1000
0010
1000
0001
,
0100
0001
0100
0001
,
1000
0000
0001
1000
0001
1000
0002
0000
,
0000
0003
0110
0000
;

//---------------dance-single - ----------------
#NOTES:
     dance-single:
     :
     Medium:
     13:
     0.631162,1.033828,0.371054,0.181213,0.047460,512.000000,469.000000,43.000000,21.000000,0.000000,0.000000,0.631162,1.033828,0.371054,0.181213,0.047460,512.000000,469.000000,43.000000,21.000000,0.000000,0.000000:
0000
0000
0000
0000
,
0000
0000
0000
0000
,
0000
0000
0000
0000
,
0000
0000
0000
0000
,
0000
0000
0000
0000
,
1001
0000
0100
0010
0000
0010
0100
0000
,
0011
0000
1000
0100
0010
0000
1100
0000
,
0001
1000
0001
0010
0100
1000
0010
0100
,
0020
0000
0000
0030
,
0101
0011
1001
1010
1100
1001
0110
1001
,
1010
0000
1000
0000
0100
0010
0002
0000
,
0003
0000
0010
0001
0010
0001
0100
0010
,
0100
0010
1000
0100
1000
0100
1000
0010
,
1000
0010
0100
0001
1000
0010
0100
0001
,
0010
0100
2000
0000
0000
0000
0000
0000
,
3000
0000
0001
0100
0001
0100
0010
1000
,
0010
1000
0001
1000
0001
1000
0100
0010
,
0100
0010
0100
1000
0010
0100
0001
0010
,
0100
1000
0002
0000
0000
0000
0000
0000
,
0003
0000
1001
0000
0100
0000
0010
1000
,
0100
1000
0001
0000
0011
0000
1000
0100
,
0010
0001
0100
0000
0110
0000
0001
1000
,
0100
0010
0200
0000
2300
0000
3001
0100
,
0001
0000
1000
0010
0100
0000
0001
0010
,
0100
0000
0010
0100
1000
0000
0010
0100
,
0001
0000
0100
0010
1000
0000
0001
1000
,
0010
2020
0000
0000
,
3030
0000
0000
0000
0101
0000
0000
0000
0010
0000
0000
0000
1000
0000
0000
0001
,
0000
0000
0010
0000
0001
0000
0000
0000
1100
0000
0000
0000
0001
0000
0000
0100
,
0000
0000
0010
0000
1000
0000
0000
0000
1100
0000
0000
0000
0010
0000
0000
1000
,
0000
0100
1000
0000
0101
0000
0010
0100
,
0020
0000
1030
0100
1000
0010
0100
0001
,
0010
0000
0001
0100
0010
0100
0001
1000
,
0100
2000
0000
0002
,
3003
0220
0000
0000
,
0330
0000
0001
0100
0001
0100
0010
1000
,
0010
1000
0001
0010
0100
1000
0100
0010
,
0001
0000
1000
0100
1000
0100
0010
0001
,
0010
0001
1000
0001
0010
0100
0010
0001
,
1000
0000
0010
0100
0001
0000
0010
0100
,
1000
0000
0000
0010
0000
0000
1000
0100
1000
0010
0000
0000
,
0100
0000
0001
0000
1001
0000
0100
0010
,
0001
0000
0100
0100
0100
0100
0010
1000
,
0010
1000
0001
0100
0001
0000
0010
0100
,
0220
0330
1000
0010
0100
0010
1000
0100
,
0010
0000
0001
1000
2002
3003
0100
0010
,
0100
0010
1000
0100
1000
0100
0010
0001
,
0010
0001
1000
0001
0010
0000
0001
0010
,
0100
1000
0001
0010
0100
0000
1100
0000
,
0001
0000
0010
0000
0001
0100
0010
1000
,
0100
0000
1000
0000
0010
0100
0001
1000
,
0001
0010
0011
0000
1000
0100
1100
0000
,
0010
0000
0100
0000
0010
0000
1000
0001
0000
0001
1000
0001
1000
0000
0110
0000
,
1010
1100
1001
0011
1001
0110
0101
0011
,
1001
0000
0000
0000
0010
0000
0000
0100
0000
0000
0010
0000
1000
0000
0100
0000
,
0020
0000
0031
0100
0001
0100
0010
1000
,
0010
1000
0001
0010
0001
0010
0100
1000
,
0100
1000
0001
1000
0100
0010
0001
0010
,
0100
1000
0020
0000
0000
0000
0000
0000
,
0030
0000
1010
0000
0100
0001
0010
0001
,
1000
0000
0010
0100
0010
1000
0100
0010
,
0001
0000
1000
0001
0010
0001
0100
0010
,
1000
0000
0100
1000
0010
1000
0100
0010
,
0001
0000
0100
0000
0001
0010
0001
1000
,
0100
0000
1000
0000
0010
0100
0010
1000
,
0001
0000
0010
0000
0001
1000
0000
1001
,
0000
0101
0000
0110
0000
0010
1000
0100
,
0020
0000
0130
0000
1000
0100
0010
0100
,
1000
0000
0010
0100
0000
0100
0001
0100
,
0010
0000
1100
0000
0001
0010
0100
0010
,
0001
0000
1000
0010
0000
0010
0100
0010
,
1000
0000
0001
0100
0010
0100
0001
1000
,
0100
0000
1000
0010
0100
0010
1000
0001
,
0010
0000
0001
0100
0010
1000
0001
1000
,
0100
0010
0200
0000
0000
0000
0000
0000
,
0300
0000
0010
0000
0001
0000
0010
0100
,
1000
0001
0000
0001
1000
0000
0010
0000
,
0100
0000
0010
0000
1000
0010
0100
0001
,
0000
0000
0010
0000
0010
0100
0000
0010
0000
0000
0110
0000
0100
0000
1000
0000
,
0001
1000
0010
0100
0001
0000
0010
0001
,
1000
0001
0010
0100
1000
0000
0001
1000
,
0010
0100
0001
0010
0100
1000
0010
0100
,
0001
1000
0100
0001
0100
1000
0000
0000
;

//---------------dance-single - ----------------
#NOTES:
     dance-single:
     :
     Hard:
     16:
     0.925787,1.212075,0.673075,0.172583,0.651502,751.000000,673.000000,78.000000,20.000000,0.000000,0.000000,0.925787,1.212075,0.673075,0.172583,0.651502,751.000000,673.000000,78.000000,20.000000,0.000000,0.000000:
// measure 0
0000
0000
0000
0000
,  // measure 1
0000
0000
0000
0000
,  // measure 2
0000
0000
0000
0000
,  // measure 3
0000
0000
0000
0000
,  // measure 4
0000
0000
0000
0000
,  // measure 5
0102
0000
0013
0020
0000
0130
0000
1000
,  // measure 6
1010
0001
1100
0000
1000
0001
1001
0000
,  // measure 7
0100
0010
1000
1001
0000
0011
0000
1000
,  // measure 8
0001
0000
0010
0000
0001
0000
1000
0010
0100
0000
0001
0000
0010
0000
0100
0000
,  // measure 9
1100
1001
0011
1010
0011
1100
1001
0110
,  // measure 10
0101
0000
0000
0000
0010
0000
0000
1100
0000
0000
0001
0010
0100
0000
1000
0000
,  // measure 11
0001
0000
0010
0000
0001
0000
1000
0000
0010
0000
0100
0010
1000
0000
0100
0000
,  // measure 12
0010
0000
0001
0100
0010
0000
1000
0000
0100
0000
1000
0010
0100
0000
0001
0000
,  // measure 13
0010
0000
0001
0000
1000
0001
1000
0001
1000
0000
0010
0100
0010
0100
0010
0000
,  // measure 14
1000
0010
0100
0001
0020
0000
0000
0000
0000
0000
0000
0000
0000
0000
0030
0000
,  // measure 15
0110
0000
0000
0000
0100
1000
0001
1000
0100
0000
0010
0000
0001
1000
0100
1000
,  // measure 16
0001
0000
0100
0000
0010
1000
0010
1000
0010
0000
0100
0000
0001
0010
0001
0010
,  // measure 17
0001
0000
1000
0000
0001
0100
0010
0000
1000
0010
0100
0000
0001
0010
0100
1000
,  // measure 18
0001
0010
0100
1000
0020
0000
0000
0000
0000
0000
0000
0000
0000
0000
0030
0000
,  // measure 19
0110
0000
0001
0100
0001
0100
0010
1000
,  // measure 20
0010
1000
0100
1000
0100
1000
0001
0010
,  // measure 21
0001
0010
0100
1000
0010
0100
0001
0010
,  // measure 22
1000
0000
0010
0000
0001
1000
0100
0000
1000
0001
0100
0000
0010
0000
0100
0000
,  // measure 23
1001
0000
1000
0010
1000
0010
0100
0001
,  // measure 24
0100
0001
0010
0001
0010
0001
1000
0100
,  // measure 25
1000
0000
0100
0000
0010
0000
0100
0000
1000
0000
0001
0000
0100
0000
0001
0010
,  // measure 26
0100
0000
1000
0010
0100
0000
0001
0000
1000
0010
1000
0010
2000
0000
0000
0000
,  // measure 27
3000
0000
0000
0000
1001
0000
0000
0000
0011
0000
0000
0000
1001
0000
0000
1100
,  // measure 28
0000
0000
0011
0000
1001
0000
0000
0000
0101
0000
0000
0000
0011
0000
0000
0110
,  // measure 29
0000
0000
1100
0000
1001
0000
0000
0000
0101
0000
0000
0000
1010
0000
0000
0110
,  // measure 30
0000
0101
1001
0000
0110
0000
2000
3001
,  // measure 31
0110
0000
0000
0000
0001
0000
0010
0000
0001
0000
1000
0000
0010
0100
0010
0000
,  // measure 32
1000
0100
1000
0000
0001
0010
0000
0100
1000
0000
0010
1000
0000
0001
0100
0000
,  // measure 33
0010
0100
0010
0000
1000
0000
0000
0000
0001
0000
0010
0100
1000
0100
0010
0000
,  // measure 34
0001
1000
0010
0000
0110
0000
1000
0001
,  // measure 35
1100
0000
1000
0001
0010
0001
0100
0010
,  // measure 36
1000
0001
1000
0010
0100
0001
0010
1000
,  // measure 37
0010
0000
0001
0000
1000
0000
0100
0000
0100
0000
0100
0000
0010
0001
1000
0000
,  // measure 38
0010
0000
0100
0000
0001
0000
0010
0001
0010
0001
0010
0000
0100
0000
0100
0000
,  // measure 39
0200
0000
1300
0010
0100
0010
1000
0001
,  // measure 40
0010
0000
0000
0100
0000
0000
0010
0000
0001
0000
1000
0000
0010
0000
0100
0000
0001
0000
1000
0000
0010
0000
0100
0000
,  // measure 41
0020
0000
0000
0000
1030
0000
0001
0000
0010
0000
0100
0000
1000
0010
0100
0000
,  // measure 42
0001
0010
0011
0110
1100
1001
0100
0100
,  // measure 43
0101
0000
0100
0000
0010
0000
1000
0010
0000
0100
0001
0000
0010
0100
1000
0100
,  // measure 44
0010
0001
1000
0000
0020
0000
0000
0000
1030
0000
0000
0000
0001
0000
0000
0000
0100
0000
0000
0000
0010
0000
0000
0000
1000
0000
0000
0000
0001
0000
1000
0000
,  // measure 45
0000
0000
0100
0000
0010
0000
0000
0000
0001
0000
0010
0000
0100
1000
0001
1000
0100
0000
0010
0000
0010
0000
0000
0000
0001
0000
0000
0000
0100
0000
0000
0000
,  // measure 46
0010
0000
1000
0000
0001
0000
1000
0000
0010
0000
0100
0001
0100
0000
0010
0000
,  // measure 47
1000
0000
0000
0000
0000
0000
0001
0000
0000
0000
0000
0000
0010
0000
0000
0000
0000
0000
0100
0000
0000
0000
0000
0000
1000
0000
0000
0000
0000
0000
0010
0000
0000
0100
0000
0000
0010
0000
0000
0000
1000
0000
0000
0000
0100
0000
0000
0000
,  // measure 48
0001
0000
0000
0000
0000
0000
0000
0000
0000
0000
0000
0000
0000
0000
0000
0000
1000
0000
0000
0000
0000
0000
0000
0000
0000
0000
0000
0000
0000
0000
0000
0000
0010
0000
0000
0000
0000
0000
0000
0000
0000
0000
0000
0000
0000
0000
0000
0000
0001
0000
0000
0000
0000
0000
0000
0000
0000
0000
0000
0000
0000
0000
0000
0000
1000
0000
0000
0000
0000
0000
0000
0000
0000
0000
0000
0000
0000
0000
0000
0000
0100
0000
0000
0000
0000
0000
0000
0000
0000
0000
0000
0000
0000
0000
0000
0000
0001
0000
0000
0000
0000
0000
0000
0000
0000
0000
0000
0000
0000
0000
0000
0000
0100
0000
0000
0000
0000
0000
0000
0000
0000
0000
0000
0000
0000
0000
0000
0000
1000
0000
0000
0000
0000
0000
0000
0000
0000
0000
0000
0000
0000
0000
0000
0000
0002
0000
0000
0000
0000
0000
0003
0000
0000
0000
0000
0000
0000
0000
0000
0000
0000
0000
0000
0000
0000
0000
0000
0000
0000
0000
0000
0000
0000
0000
0000
0000
0000
0000
0000
0000
0000
0000
0000
0000
0000
0000
0000
0000
0000
0000
0000
0000
,  // measure 49
1001
0000
0100
0100
0000
0010
0000
0110
1000
0010
0000
0010
0100
0001
0100
0000
,  // measure 50
0011
0000
1000
0100
0000
0110
0000
0100
1000
0010
0000
0010
0100
0001
0010
0000
,  // measure 51
0011
0000
1000
0100
0000
1010
0000
1000
0010
0100
0010
1000
0001
0010
0100
0000
,  // measure 52
0110
0000
0100
1000
0010
0100
0001
1001
0000
0010
0010
0010
0100
0010
0110
0000
,  // measure 53
0011
1100
1001
0101
1100
1010
0101
0011
,  // measure 54
1001
0000
0000
0000
0010
0000
0000
0110
0000
0000
1000
0001
1000
0000
0010
0000
,  // measure 55
0200
0000
0000
0000
0301
0000
0010
0000
0001
0000
1000
0010
1000
0000
0100
0000
,  // measure 56
1000
0000
0001
0100
0001
0000
0010
0000
0001
0000
0010
0100
1000
0000
0001
0000
,  // measure 57
1000
0000
0010
0100
0001
0010
0001
0010
0001
0000
1000
0000
0010
0100
0010
0100
,  // measure 58
0010
1000
0200
0000
0000
0000
0000
0300
,  // measure 59
0110
0000
0000
0000
1000
0000
0001
0000
0010
0001
0000
0001
0010
0000
0100
0000
,  // measure 60
1000
0000
0010
1000
0010
0000
0100
0001
0100
0000
0010
0000
1000
0000
0001
0000
,  // measure 61
1001
0000
0000
0000
0100
0000
0010
0000
1000
0001
0000
0001
0010
0000
0100
0000
,  // measure 62
1000
0000
0001
0010
0001
0000
1000
0100
1000
0000
0010
0000
0100
0000
0001
0000
,  // measure 63
0101
0000
0000
0000
1000
0000
0001
0000
0010
0100
0000
0100
1000
0000
0010
0000
,  // measure 64
0100
0000
0001
0100
0001
0000
1000
0010
1000
0000
0001
0000
0010
0000
0100
0000
,  // measure 65
1100
0000
1010
0000
0011
1001
0000
1100
,  // measure 66
0000
0000
1010
0000
0000
0000
0001
1000
0001
0000
0100
0000
0010
0000
0100
0000
,  // measure 67
1001
0000
0000
0000
0010
0000
1000
0000
0100
0000
1000
0010
0100
0000
0001
0000
,  // measure 68
0010
0000
0100
0010
0001
0000
1000
0000
0001
0000
1000
0010
0100
0000
0001
0000
,  // measure 69
0011
0000
0000
0000
1000
0000
0010
0000
0100
0000
0001
0010
0100
0000
1000
0000
,  // measure 70
0001
0000
1000
0010
0100
0000
0010
0000
1000
0000
0001
0100
0010
0000
1000
0000
,  // measure 71
1010
0000
0000
0000
0001
0000
0010
0000
0001
0000
1000
0100
1000
0100
1000
0000
,  // measure 72
0010
0000
0100
0000
0001
0000
0010
0000
0001
0000
0010
0100
0010
0100
0010
0000
,  // measure 73
0001
0000
1000
0000
0010
0100
0001
0100
0010
0000
1000
0000
0010
1000
0100
1000
,  // measure 74
0010
0100
0010
0100
1000
0010
0001
0010
,  // measure 75
0110
0000
2000
0000
0100
0100
0000
0010
,  // measure 76
0000
3010
0200
0001
0000
0301
0010
0100
,  // measure 77
1000
0000
0002
0000
0010
0010
0000
1000
,  // measure 78
0000
0000
1003
0000
0020
0032
0023
2030
3020
0030
0110
0000
0001
0000
0100
0000
,  // measure 79
0010
0000
1000
0100
0010
0000
0001
0000
0010
0000
0100
1000
0001
0000
0100
0000
,  // measure 80
0010
0000
1000
0001
0100
0000
0010
0000
1000
0000
0001
0000
0010
0001
1000
0001
,  // measure 81
0010
0000
0100
0000
1000
0010
0100
0010
1000
0000
0001
0000
0010
0100
1000
0100
,  // measure 82
0010
0100
1000
0100
0010
0000
0001
0000
0100
0000
0110
0000
0000
0000
0000
0000
;

//---------------dance-single - ----------------
#NOTES:
     dance-single:
     :
     Challenge:
     18:
     1.041664,1.390321,0.759367,0.215729,0.983725,845.000000,757.000000,88.000000,25.000000,0.000000,0.000000,1.041664,1.390321,0.759367,0.215729,0.983725,845.000000,757.000000,88.000000,25.000000,0.000000,0.000000:
// measure 0
0000
0000
0000
0000
,  // measure 1
0000
0000
0000
0000
,  // measure 2
0000
0000
0000
0000
,  // measure 3
0000
0000
0000
0000
,  // measure 4
0000
0000
0000
0000
,  // measure 5
0201
0000
1000
1300
0000
0110
0000
1000
,  // measure 6
1002
0010
0013
0000
0100
0001
1001
0000
,  // measure 7
0101
0000
0010
0110
0000
1100
0000
0101
,  // measure 8
0100
0000
0000
0011
0000
0000
1000
0100
0010
0100
1000
0010
0100
0000
0000
0000
,  // measure 9
1010
0011
1001
1100
0101
1001
0110
1100
,  // measure 10
0011
0000
0000
0000
1001
0000
0000
0110
0000
0000
0001
0010
0100
0000
1000
0000
,  // measure 11
0001
0000
1000
0000
0010
0000
0100
0000
0010
0000
0100
0001
0010
0001
0100
0000
,  // measure 12
0010
0000
0100
0010
0100
0000
0010
0000
0100
0000
0010
1000
0100
0010
0100
1000
,  // measure 13
0010
0000
0100
0010
1000
0100
0010
0001
1000
0100
0010
0001
1000
0001
0010
0100
,  // measure 14
1000
0001
0010
0100
2000
0000
0000
0000
0010
0000
0000
0000
3001
0000
0000
0000
,  // measure 15
0110
0000
0000
0000
0001
0010
0001
0010
0001
0000
1000
0000
0010
1000
0010
1000
,  // measure 16
0010
0000
0100
0000
0001
0010
0100
1000
0001
0000
1000
0000
0010
0100
0001
1000
,  // measure 17
0100
0000
1000
0000
0001
0100
0010
1000
0001
0100
0010
1000
0010
1000
0100
0010
,  // measure 18
0100
1000
0001
0010
0200
0000
0000
0000
1000
0000
0000
0000
0002
0000
0000
0000
,  // measure 19
0303
0000
1010
0010
0001
0100
0010
1000
,  // measure 20
0001
1000
0010
0100
0010
1000
0001
0010
,  // measure 21
0100
0000
1000
0001
1000
0000
0010
0000
0100
0000
0001
1000
0010
0000
0010
0000
,  // measure 22
0010
0000
0010
0000
1000
0010
0100
0000
0001
0010
0100
0000
1000
0001
1000
0001
,  // measure 23
1000
0100
0010
0100
2200
3300
0001
0100
,  // measure 24
0010
0000
0100
0001
0010
0000
0001
0000
0010
0000
0100
0000
1000
0000
0001
0000
,  // measure 25
1001
0000
0000
0000
0100
0000
0010
0000
1000
0000
0001
0000
0010
0001
1000
0000
,  // measure 26
0010
1000
0001
0000
0100
0000
0100
0000
0010
0100
0001
1000
0002
0000
0000
0000
,  // measure 27
0013
0000
0000
0000
1010
0000
0010
0000
1010
0000
0000
0000
0011
0000
0000
1100
,  // measure 28
0000
0000
1001
0000
0101
0000
0100
0000
0101
0000
0000
0000
1010
0000
0000
1100
,  // measure 29
0000
0000
0011
0000
1001
0000
1000
0000
1001
0000
0000
0000
0110
0000
0000
0101
,  // measure 30
0000
0000
1010
0000
0110
0000
0010
0000
0110
0000
0000
0000
0001
0000
0010
0100
,  // measure 31
2000
0000
0000
0000
3001
0000
0100
0000
0010
0000
1000
0001
0010
0001
1000
0000
,  // measure 32
0010
0000
0010
0000
1000
0010
0000
0001
0010
0000
1000
0100
0000
0001
0100
0000
,  // measure 33
1000
0001
1000
0000
0001
0000
0010
0000
0010
0000
0001
0100
0010
0100
0001
0000
,  // measure 34
1000
1000
2002
3003
2200
3300
2002
3003
,  // measure 35
0022
0000
0033
0000
1000
0000
0001
0000
0010
0000
0001
1000
0010
0000
0100
0000
,  // measure 36
0001
0000
0010
0100
1000
0000
0010
0000
0100
0010
0100
0010
0100
0000
0001
0000
,  // measure 37
1001
0000
0000
0000
0100
0000
0010
0000
1000
0000
0001
0010
0100
0000
0010
0000
,  // measure 38
0001
0000
1000
0000
0010
0000
1000
0001
1000
0001
1000
0001
1000
0000
0010
0000
,  // measure 39
0110
0000
0000
0000
1001
0000
0000
0000
0010
0100
1000
0000
0001
0000
0100
0000
,  // measure 40
0010
0000
0000
0100
0000
0000
0001
0000
0100
0000
1000
0000
0001
0000
0010
0000
1000
0000
0001
0000
1000
0000
0100
0000
,  // measure 41
0001
0000
0000
0000
0110
0000
0000
0000
1000
0000
0001
0000
1000
0000
0010
0100
,  // measure 42
0001
0000
0010
0100
1000
0000
0011
0000
0110
0000
1100
0000
0001
0000
0001
0000
,  // measure 43
0010
0000
0000
0000
0001
0000
0000
0000
1000
0000
0000
0000
0010
0000
0100
0000
0000
0000
0001
0000
1000
0000
0001
0000
1000
0000
0010
0000
0100
0000
0001
0010
,  // measure 44
0100
0010
0001
0000
1000
0000
0010
0000
0100
0000
0000
0000
0001
0000
0000
0000
0010
0000
0001
0000
1000
0000
0000
0000
0010
0000
0000
0000
1000
0000
0001
0000
,  // measure 45
0000
0000
1000
0000
0010
0000
0100
0000
0010
0000
1000
0000
1000
0000
0010
1000
0100
1000
0010
0000
0100
0000
0001
0000
0010
0000
0001
0000
1000
0000
0000
0000
,  // measure 46
0010
0000
0100
0001
0010
0000
0100
0000
1000
0000
0010
0100
0001
0000
0010
0000
,  // measure 47
0100
0000
0000
0000
0000
0000
1000
0000
0000
0001
0000
0000
0010
0000
0000
0000
0000
0000
0100
0000
0000
0000
0000
0000
1000
0000
0000
0010
0000
0000
0100
0000
0000
0000
0000
0000
0100
0000
0000
0000
1000
0000
0000
0000
0100
0000
0000
0000
,  // measure 48
0001
0000
0000
0000
0000
0000
0000
0000
0000
0000
0000
0000
0000
0000
0000
0000
0010
0000
0000
0000
0000
0000
0000
0000
0000
0000
0000
0000
0000
0000
0000
0000
1000
0000
0000
0000
0000
0000
0000
0000
0000
0000
0000
0000
0000
0000
0000
0000
0010
0000
0000
0000
0000
0000
0000
0000
0000
0000
0000
0000
0000
0000
0000
0000
0001
0000
0000
0000
0000
0000
0000
0000
0000
0000
0000
0000
0000
0000
0000
0000
1000
0000
0000
0000
0000
0000
0000
0000
0000
0000
0000
0000
0000
0000
0000
0000
0010
0000
0000
0000
0000
0000
0000
0000
0000
0000
0000
0000
0000
0000
0000
0000
0001
0000
0000
0000
0000
0000
0000
0000
0000
0000
0000
0000
0000
0000
0000
0000
0100
0000
0000
0000
0000
0000
0000
0000
0000
0000
0000
0000
0000
0000
0000
0000
2000
0000
0000
0000
0000
0000
3000
0000
0000
0000
0000
0000
0000
0000
0000
0000
0000
0000
0000
0000
0000
0000
0000
0000
0000
0000
0000
0000
0000
0000
0000
0000
0000
0000
0000
0000
0000
0000
0000
0000
0000
0000
0000
0000
0000
0000
0000
0000
,  // measure 49
0110
0000
0000
0000
0001
0000
0001
0000
1000
0000
0010
0000
0000
0000
0110
0000
1000
0000
0001
0000
0010
0000
0001
1000
0010
0000
0100
0000
0001
0000
0000
0000
,  // measure 50
0011
0000
0000
0000
1000
0000
0010
0000
0100
0000
0010
0000
0000
0000
0010
0000
1000
0000
0001
0000
0010
0000
0001
1000
0010
0000
0100
0000
0110
0000
0000
0000
,  // measure 51
1001
0000
0000
0000
0010
0000
0100
0000
1000
0000
0001
0000
0000
0000
0001
0000
1000
0000
0010
0000
0100
0000
0001
0010
0100
0000
1000
0000
0001
0000
0100
0000
,  // measure 52
0010
0100
0001
0000
1000
0000
0010
0100
0001
0000
1000
0000
0001
1000
0001
0000
0000
0000
0110
0000
0100
0000
0100
0010
1000
0000
0001
0000
0101
0000
0000
0000
,  // measure 53
1010
0101
0011
1001
1100
0110
1001
0011
,  // measure 54
1000
0000
0001
0000
1001
0000
0000
0011
0000
0000
1000
0100
0010
0000
0100
0000
,  // measure 55
2000
0000
0000
0000
3001
0100
0010
0100
0001
0000
0010
0000
0001
1000
0100
1000
,  // measure 56
0001
0000
0010
0000
0100
1000
0001
1000
0100
0000
0010
0000
0001
1000
0100
1000
,  // measure 57
0001
0000
0010
0000
0001
0100
0010
1000
0001
1000
0100
0010
0001
1000
0010
0100
,  // measure 58
0001
0010
0100
0010
0002
0000
0000
0000
0100
0000
0000
0000
1003
0000
0000
0000
,  // measure 59
0110
0000
0000
0000
1000
0000
0010
0000
1000
0001
0000
0001
0010
0100
0000
0100
,  // measure 60
1000
0001
1000
0000
0010
0000
0100
0010
1000
0010
0100
0010
0100
0000
0001
0000
,  // measure 61
1001
0000
0000
0000
0010
0000
0001
0000
1000
0001
0000
0001
0010
0100
0000
0100
,  // measure 62
0010
0000
0001
0000
1000
0000
0100
0010
0100
1000
0100
0010
0100
0000
1000
0000
,  // measure 63
1010
0000
0000
0000
0100
0000
0001
0000
0010
0100
0000
0100
1000
0001
0000
0001
,  // measure 64
0010
0000
0001
0000
1000
0000
0001
0010
0001
1000
0001
0010
0001
0000
1000
0000
,  // measure 65
1100
0000
0011
0000
1010
1100
0000
0101
,  // measure 66
0000
0000
0110
0000
0000
0000
0001
1000
0010
1000
0001
0000
0100
0000
0010
0000
,  // measure 67
1001
0000
0000
0000
0100
0000
0010
0000
1000
0010
0100
0010
1000
0000
0001
0000
,  // measure 68
0010
0100
1000
0100
0010
0000
0001
0010
0001
1000
0001
0010
0001
0000
1000
0000
,  // measure 69
1001
0000
0000
0000
0100
0000
0010
0000
1000
0001
0100
0000
0010
0000
1000
0000
,  // measure 70
0001
0010
0100
0010
0001
0000
1000
0010
1000
0001
1000
0010
1000
0000
0001
0000
,  // measure 71
1001
0000
0000
0000
0100
0000
0010
0100
0010
0000
1000
0001
0010
0100
1000
0000
,  // measure 72
0001
0000
0010
0000
0001
0000
1000
0010
1000
0000
0001
0010
0100
1000
0001
0000
,  // measure 73
0100
0000
0010
0000
1000
0001
1000
0001
0010
0100
0010
0100
1000
0010
1000
0010
,  // measure 74
0100
0001
0100
0001
0010
0000
0100
0000
1000
0000
0100
0000
0001
0000
0100
0000
,  // measure 75
0110
0000
0012
0000
1000
1003
0010
0100
,  // measure 76
0000
0110
0000
0001
0100
1000
0100
0001
,  // measure 77
0100
0000
1010
0000
0100
0001
0010
1000
,  // measure 78
0010
0000
0001
0000
2000
3200
0302
2003
3010
0000
0110
0000
0010
0000
0100
0000
,  // measure 79
0010
0000
1000
0001
0010
0001
1000
0000
0010
0000
0100
0010
0100
0000
0001
0000
,  // measure 80
0010
0000
0001
1000
0100
0010
0100
1000
0001
0000
0100
0000
0001
1000
0100
0010
,  // measure 81
0001
0010
0100
1000
0010
1000
0001
0010
0100
0010
0001
1000
0000
0000
0001
0000
,  // measure 82
0010
1000
0001
0100
1001
0101
0000
0000
;
