#TITLE:インドがパッカーン!!煩悩マハラジャドリーム;
#SUBTITLE:;
#ARTIST:ARM × かたほとり ft. 柊木りお;
#TITLETRANSLIT:India ga pakkan!! Bonnou Maharaja dream;
#SUBTITLETRANSLIT:;
#ARTISTTRANSLIT:ARM X Katahotori ft. Rio Hiiragi;
#GENRE:;
#CREDIT:;
#BANNER:India_ga_pakkan!!_Bonnou_Maharaja_dream_banner.png;
#BACKGROUND:India_ga_pakkan!!_Bonnou_Maharaja_dream.png;
#LYRICSPATH:;
#CDTITLE:;
#MUSIC:India ga pakkan!! Bonnou Maharaja dream.ogg;
#OFFSET:-0.710000;
#SAMPLESTART:64.430000;
#SAMPLELENGTH:15.000000;
#LASTBEATHINT:332.000000;
#SELECTABLE:YES;
#BPMS:0.000000=86.500000
,9.875000=173.000000
;
#STOPS:9.875000=0.347000
;
#BGCHANGES:;
#KEYSOUNDS:;
#ATTACKS:;

//---------------dance-single - ----------------
#NOTES:
     dance-single:
     :
     Easy:
     7:
     0.287263,0.303153,0.097693,0.130257,0.000000,247.000000,235.000000,12.000000,16.000000,0.000000,0.000000,0.287263,0.303153,0.097693,0.130257,0.000000,247.000000,235.000000,12.000000,16.000000,0.000000,0.000000:
0000
0000
0000
0000
,
0000
0000
0000
0000
,
0000
0000
0000
0000
,
0000
0000
0000
0000
,
0000
0000
0000
0000
,
0000
0000
0000
0000
,
0000
0000
0000
0000
,
0000
0001
1000
0100
,
0000
1000
0001
0010
,
0000
0010
0100
0010
,
0000
0001
1000
0001
,
0000
0100
0010
1000
,
0000
0001
0010
0100
,
0000
1001
0000
0110
,
0000
1000
0001
1001
,
0000
0010
1000
0100
,
0000
0010
0001
0100
,
0000
0010
1000
0100
,
0000
1000
0001
2002
,
3003
0010
0010
0010
,
0100
0100
0200
0000
,
0301
1000
0100
0010
,
0100
1000
0001
1000
,
0000
0010
1000
0010
,
0000
0100
0001
0100
,
0000
0001
1000
0001
,
0000
0100
0010
0220
,
0330
1000
0000
0001
,
0000
0010
0000
0100
,
0000
1000
0000
0001
,
0010
0200
0000
1300
,
0000
1000
0010
1000
,
0000
0001
0010
0000
,
0001
0100
0010
1000
,
0100
0000
1000
1000
,
0000
0010
0010
0100
,
0000
0001
0100
0000
,
0010
1000
0100
1000
,
0001
0010
0001
1000
,
0010
0200
0000
0301
,
0000
1001
0000
0010
,
0000
0100
0000
0010
,
0000
1000
0001
1000
,
0001
0010
0001
0010
,
0001
1000
1000
1000
,
0000
0010
0100
0010
,
0100
0001
0001
0001
,
0000
1000
0010
0001
,
0010
0100
0010
1000
,
0000
0100
1000
0100
,
0001
0100
0010
0100
,
0000
0010
0001
1000
,
0010
0100
0100
0100
,
0000
0001
0100
1000
,
0100
0010
0010
0010
,
0000
1000
0100
1000
,
0000
0001
0010
0001
,
0000
1001
0000
0110
,
0000
0010
1000
0001
,
0100
0002
0000
0023
,
0000
0230
0000
1300
,
1000
0010
0100
0010
,
1000
0001
0000
0101
,
0000
0001
0010
0100
,
1000
0010
0100
0001
,
0000
1000
0010
0100
,
0010
1000
0001
0010
,
0000
0002
0000
2003
,
0000
3010
0100
0110
,
0000
0001
0100
0010
,
0100
0001
0001
0001
,
0000
0100
0001
0010
,
0100
1000
1000
1000
,
0000
0001
0010
1000
,
0001
0100
1000
0010
,
0000
0100
0001
1000
,
0010
0100
0001
1000
,
0100
0020
0000
0032
,
0000
1003
0100
1000
,
0001
0010
0001
1001
,
0000
0010
0100
0000
,
0110
0002
0000
1003
,
0000
0020
0000
0130
;

//---------------dance-single - ----------------
#NOTES:
     dance-single:
     :
     Medium:
     12:
     0.590809,0.606306,0.464041,0.219809,0.122116,508.000000,451.000000,57.000000,27.000000,0.000000,0.000000,0.590809,0.606306,0.464041,0.219809,0.122116,508.000000,451.000000,57.000000,27.000000,0.000000,0.000000:
0000
0000
0000
0000
,
0000
0000
0000
0000
,
0000
0000
0010
0000
,
0000
0000
0000
0000
,
0000
0000
0000
0000
,
0000
0220
0000
0000
,
0000
0330
0000
0000
,
0000
0000
1000
0000
0010
0100
0001
1000
,
0001
0000
0010
0001
1000
0001
0100
0010
,
0100
0000
0001
0010
1000
0010
0100
1000
,
0001
0000
1000
0010
0100
0010
1000
0001
,
0001
0000
0011
0000
1000
0100
0010
0100
,
1000
0000
0001
0010
0100
0010
0100
1000
,
0001
0000
1000
0010
0100
0010
1000
0100
,
0010
0000
0001
0100
0010
0100
0001
0000
,
0100
0001
0010
0000
0100
1000
0010
0000
,
0100
0000
1001
0000
0100
1000
0010
0001
,
0100
1000
0002
0000
1003
0010
0100
0010
,
1000
0000
0001
0000
1000
0000
0100
0010
,
0100
0000
0010
0001
0010
0000
0011
0000
,
1000
0010
1000
0000
1000
0100
0010
0100
,
1000
0001
0100
0010
0100
0001
1000
0001
,
0010
0000
0100
0100
0010
0010
0002
0000
,
1003
0000
1001
0000
0010
0100
0110
0000
,
0001
0000
1001
0000
1000
0100
0001
0100
,
1000
0001
0100
0000
0010
0100
0010
1000
,
0001
0010
0200
0000
0310
0000
1001
0000
,
0110
0000
0000
1000
0000
1000
0010
0000
0010
0100
0000
0100
,
0001
0000
0001
0010
0000
0001
1000
0000
0100
2000
0000
0000
,
3010
0000
0000
0100
0000
0000
0110
0000
0000
0001
0000
0010
,
0000
0100
0000
1000
0000
0000
0001
1000
0001
1000
0000
0000
,
0010
0110
1010
1010
,
0100
0101
0101
0010
,
1010
0000
0011
0000
0100
0010
0200
0000
,
0001
0301
1000
1100
,
1000
1001
0101
0120
,
1000
1030
0201
0010
,
0310
0000
1000
0100
1100
0000
0001
0010
,
0011
0000
1000
0001
1001
0000
0010
0100
,
0010
0000
0000
1000
0000
0000
1001
0000
0000
0001
0000
1000
,
0000
0000
0000
0000
0100
0000
0000
0000
0000
0000
0000
0000
0010
0000
0000
0000
0000
0000
0000
0000
0000
0110
0000
0000
0000
0000
0000
0000
0000
0000
0010
0000
0000
0000
0000
0000
0100
0000
0000
0000
0000
0000
0000
0000
0000
0110
0000
0000
,
0000
0100
1000
0001
1000
0001
0100
0010
,
0100
0000
0001
0010
0100
1000
0100
0010
,
0001
0000
1000
0010
0100
0010
1000
0001
,
0010
0000
0100
0010
0001
0100
0002
1000
,
1003
0000
0010
0100
0001
1000
0100
0010
,
0100
0000
1000
0100
0001
0100
0020
0001
,
0031
0000
1001
0000
0001
0010
0100
0000
,
1000
0010
0100
0010
1000
0001
0010
0001
,
1000
0000
0010
0100
0010
0100
0001
1000
,
0001
1000
0000
0011
0000
1001
0000
0100
,
2000
0000
3010
0100
0001
1000
0100
0001
,
0100
0000
1010
0000
0011
0000
0020
0100
,
0130
0000
1000
0001
0010
0001
1000
0100
,
0010
0000
0011
0000
1001
0000
0002
0100
,
0103
0000
0000
0010
0000
0010
0100
0000
0100
0010
0000
0000
,
1010
0000
0000
1000
0000
1000
0001
0000
0001
0010
0000
0000
,
0011
0000
0000
1000
0000
1000
0100
0000
0100
0010
0000
0010
,
0002
0000
0103
0010
0100
0010
1000
0010
,
1000
0010
0200
0000
0301
0010
0001
0000
,
1000
0010
0110
0000
1001
0000
0220
0000
,
0330
0000
0001
0000
0010
0001
0100
1000
,
0100
0000
0010
1000
0100
0001
0100
1000
,
0010
0000
1000
0100
1000
0010
0100
0001
,
0010
0000
0001
0100
0010
1000
0200
0010
,
0310
0000
0001
0100
1000
0100
0010
0100
,
0001
0000
1000
0010
0001
1000
0100
0001
,
1001
0200
0000
0320
,
0000
1030
0001
1001
,
0000
0000
0010
0100
0010
0100
0001
0010
,
0001
0010
0100
0000
1100
0000
0200
0010
,
0310
0000
0001
1000
0001
1000
0010
0100
,
0010
0100
0010
0000
1100
0000
0012
0000
,
1003
0000
0000
0100
0000
0100
0010
0000
0010
0002
0000
0000
,
1003
0000
1000
0001
0000
0001
0010
0000
0010
0200
0000
0000
,
1300
0000
0000
0001
0000
0100
0010
0000
0010
0100
0000
0001
,
1000
0000
0000
0000
1000
0000
0100
0000
0000
0010
0000
0000
0100
0000
0000
0010
0000
0000
0001
0000
0000
0010
0000
0000
,
0100
1000
0002
0000
0000
0000
0000
0000
,
0003
1010
0110
1010
,
0110
0101
0110
0011
,
1001
0011
1100
1001
,
1010
0000
0100
0010
1000
0001
0010
0001
,
1000
0010
0200
0000
0000
0000
1300
0000
;

//---------------dance-single - ----------------
#NOTES:
     dance-single:
     :
     Hard:
     15:
     0.759445,0.741041,0.439618,0.203527,0.480323,653.000000,599.000000,54.000000,25.000000,0.000000,0.000000,0.759445,0.741041,0.439618,0.203527,0.480323,653.000000,599.000000,54.000000,25.000000,0.000000,0.000000:
// measure 0
0000
0000
0000
0000
,  // measure 1
0000
0000
0000
0000
,  // measure 2
0000
0000
1001
0000
,  // measure 3
0000
0110
0000
0000
,  // measure 4
0000
0000
0000
0000
,  // measure 5
0000
2002
0000
0000
,  // measure 6
3003
0000
0010
0100
0001
1000
0100
0010
,  // measure 7
0100
0000
1000
0000
0001
0000
0000
0001
0010
0000
0010
0000
0001
0000
1000
0100
,  // measure 8
1000
0000
0010
0000
0100
0001
1000
0001
0100
0000
0010
0000
1000
0000
0100
0000
,  // measure 9
0001
0100
1000
0001
0100
0010
1000
0001
,  // measure 10
0010
0000
0100
0000
1000
0010
1000
0010
1000
0000
0001
0000
0010
0001
0010
0001
,  // measure 11
0010
0000
0100
0000
1000
0000
0000
1000
0010
0000
0100
0000
0001
0010
0001
0000
,  // measure 12
1000
0000
0100
0000
0010
0000
0000
0100
0010
0000
0100
0000
1000
0100
0010
0001
,  // measure 13
2000
0000
3001
0010
0100
1000
0010
0100
,  // measure 14
0001
1000
0100
0010
0001
0010
0110
0000
,  // measure 15
0100
1000
0010
0000
0001
1000
0100
0000
,  // measure 16
0010
0000
0100
0000
0010
0000
0000
0010
1000
0000
1000
0000
0010
0000
0001
0000
,  // measure 17
0100
0000
1000
0000
0010
0000
0100
0010
0100
0000
0001
0000
1000
0000
0100
0010
,  // measure 18
0100
1000
0001
1000
1001
0000
1010
0001
,  // measure 19
0101
0000
0010
1000
1100
0000
0101
0000
,  // measure 20
0010
0000
0001
0000
1001
0000
0000
0000
0100
0000
1000
0000
0010
0100
0010
0100
,  // measure 21
0010
0000
1000
0000
0001
0000
0010
0001
1000
0000
0100
0000
1000
0000
0010
0100
,  // measure 22
0001
0000
1000
0000
0010
0000
0010
0000
0010
0000
1000
0100
1000
0000
0001
0000
,  // measure 23
0100
0010
0001
0000
0001
1000
0100
0000
,  // measure 24
0010
1000
0001
0100
0020
0000
0000
0000
1030
0000
0001
0000
1000
0000
0100
0000
,  // measure 25
0010
0000
0001
0000
1000
0000
0000
1000
0001
0000
0000
0001
0010
0000
0100
0000
,  // measure 26
0010
0100
1000
0001
0011
0000
2200
0000
,  // measure 27
3300
0000
0000
0000
0010
0000
0000
0010
0100
0000
0000
0100
0001
0000
0000
0001
,  // measure 28
1000
0000
0000
0000
0000
0000
0000
0000
0000
1000
0000
0000
0010
0000
0000
0000
0100
0000
0000
0000
0001
0000
0000
0000
0010
0000
0000
0000
0100
0000
0000
0000
1000
0000
0000
0000
0002
0000
0000
0000
0000
0000
0000
0000
0000
0000
0000
0000
,  // measure 29
0013
0000
0000
1000
0000
0100
1000
0000
0001
0010
0000
1001
,  // measure 30
0000
0100
0000
0110
0000
0000
1000
0001
1000
0002
0000
0000
,  // measure 31
0013
0000
0100
1000
0000
0000
1010
0000
0000
0101
0000
0000
,  // measure 32
0012
1003
0110
1010
,  // measure 33
1000
0100
0001
0000
0001
0100
1000
0010
,  // measure 34
0110
1010
0011
1100
,  // measure 35
0101
0110
1001
0020
,  // measure 36
0130
0001
1000
0100
0001
0100
1000
0010
,  // measure 37
0100
0000
0001
0000
0100
0010
0100
0010
0100
0000
0000
0000
0001
1000
0001
1000
,  // measure 38
0001
0000
0000
0000
1000
0010
0100
0010
1000
0000
0000
0000
0001
0010
0100
0010
,  // measure 39
0001
0000
0000
0100
0000
0110
0000
1010
0000
1001
0000
1001
,  // measure 40
0000
0000
0000
0000
0011
0000
0000
0000
0000
0000
0000
0000
0010
0000
0000
0000
0000
0000
0100
0000
0000
1000
0000
0000
0000
0000
0000
0100
0000
0000
1000
0000
0000
0000
0000
0000
0100
0000
0000
1000
0000
0000
0000
0000
0000
0100
0000
0000
,  // measure 41
1000
0000
0001
0000
0010
0000
0100
0010
0000
0100
0010
0000
0100
0010
0000
0100
,  // measure 42
0010
0000
0001
0000
1000
0000
0010
0100
0010
0000
1000
0000
0001
0000
0010
0000
,  // measure 43
0200
0000
0000
0000
0310
0000
0001
0010
0001
0000
1000
0000
0010
0000
0100
0001
,  // measure 44
0100
0010
1000
0100
0001
0100
2000
0010
,  // measure 45
3010
0000
0000
0000
0100
0000
0001
1000
0001
0000
0100
0000
0010
0000
1000
0100
,  // measure 46
1000
0001
0010
1000
0010
0001
0200
0010
,  // measure 47
0310
0000
1010
0000
1000
0010
0001
0000
,  // measure 48
0001
0000
0010
0000
0100
0000
0010
1000
0010
0000
0100
0000
0002
0000
0010
0000
,  // measure 49
0013
0000
0000
0000
0100
0000
1000
0100
1000
0000
0010
0000
0100
0010
1000
0001
,  // measure 50
0100
0010
1000
1010
0000
0011
0000
0100
,  // measure 51
0100
0000
0100
0000
0001
0000
0100
1000
0100
0000
0001
0000
1000
0000
0010
0001
,  // measure 52
0010
1000
0010
0100
0010
0100
2002
0000
,  // measure 53
3003
0000
0000
0000
1000
0000
0100
0010
0100
0000
1000
0000
0001
0000
0100
0010
,  // measure 54
0100
0001
1000
0010
0100
0001
1100
0000
,  // measure 55
0101
0000
0000
0010
1000
0100
0010
0001
1000
0001
0000
0000
,  // measure 56
1001
0000
0000
0010
0100
1000
0001
0100
0010
1000
0000
0000
,  // measure 57
0110
0000
0000
0001
0000
0001
0100
0000
0100
0010
0000
0010
,  // measure 58
1000
0000
0000
0000
0010
0000
0000
0000
0100
0000
0000
0000
0001
0000
0000
0000
0000
0000
0010
0000
0000
0001
0000
0000
0010
0000
0000
0000
0000
0000
0100
0000
0000
0000
0000
0000
1000
0000
0000
0000
0000
0000
0010
0000
0000
0000
0000
0000
,  // measure 59
1000
0010
0200
0000
0001
0001
0302
0000
,  // measure 60
1000
0000
1000
0000
1003
0000
0000
1000
0010
0000
0001
0000
0010
0000
0000
0000
,  // measure 61
1010
0000
0000
0000
0101
0000
0000
0001
0010
0000
0100
0000
1000
0010
1000
0000
,  // measure 62
0001
0000
0010
0000
0100
1000
0100
1000
0100
0000
1000
0000
0010
0100
0010
0000
,  // measure 63
1000
0001
0010
0100
1000
0001
0100
0010
,  // measure 64
1000
0001
0100
1000
0010
0001
0100
1000
,  // measure 65
1001
0000
0000
0000
0010
0000
0000
0010
1000
0000
0100
0000
0010
0001
0010
0000
,  // measure 66
0001
0000
1000
0000
0010
0000
0000
0100
0010
0000
1000
0000
0001
0010
0100
1000
,  // measure 67
0002
0000
0103
0010
1000
0001
0010
0001
,  // measure 68
0100
1000
0100
0010
1000
0001
2002
0000
,  // measure 69
3003
0000
0000
0000
0110
0000
0000
0100
0001
0000
0000
0001
0010
0000
1000
0000
,  // measure 70
0010
0001
1000
0100
0001
0100
2000
0010
,  // measure 71
3010
0000
0000
0000
0101
0000
0000
0001
0010
0000
0000
0010
1000
0000
0010
0000
,  // measure 72
0001
0100
0010
1000
0100
0001
0101
0000
,  // measure 73
1010
0000
0000
1000
0100
0010
0001
0010
0100
1000
0000
0000
,  // measure 74
0110
0000
0000
0001
0100
1000
0100
0010
0100
0001
0000
0000
,  // measure 75
1010
0000
0000
1100
0000
0100
0010
0000
0010
0001
0100
0010
,  // measure 76
1000
0000
0000
0000
0100
0000
0000
0000
0010
0000
0000
0000
0001
0000
0000
0000
0000
0000
1000
0000
0000
0001
0000
0000
1000
0000
0000
0000
0000
0000
0001
0000
0000
1000
0000
0000
0001
0000
0000
0000
0000
0000
0100
0000
0000
0000
0000
0000
,  // measure 77
0010
0100
0002
0000
0013
1000
0020
0000
,  // measure 78
0031
1000
0010
0100
0001
0010
0011
0000
,  // measure 79
1000
0100
0010
0100
1100
0000
0001
0100
,  // measure 80
1000
0100
0110
0000
1000
0010
0001
1000
,  // measure 81
1001
0000
0010
0001
0100
1000
0010
0001
,  // measure 82
0100
1000
0020
0000
0000
0000
0130
0000
;
