#TITLE:In Your EyEs;
#SUBTITLE:;
#ARTIST:kors k;
#TITLETRANSLIT:;
#SUBTITLETRANSLIT:;
#ARTISTTRANSLIT:;
#GENRE:;
#CREDIT:;
#BANNER:In_Your_EyEs_banner.png;
#BACKGROUND:In_Your_EyEs.png;
#LYRICSPATH:;
#CDTITLE:;
#MUSIC:In Your EyEs.ogg;
#OFFSET:-0.200000;
#SAMPLESTART:97.529999;
#SAMPLELENGTH:12.000000;
#LASTBEATHINT:358.000000;
#SELECTABLE:YES;
#BPMS:0.000000=180.000000
;
#STOPS:
;
#BGCHANGES:;
#KEYSOUNDS:;
#ATTACKS:;

//---------------dance-single - ----------------
#NOTES:
     dance-single:
     :
     Easy:
     7:
     0.341872,0.362222,0.130237,0.154656,0.000000,294.000000,278.000000,16.000000,19.000000,0.000000,0.000000,0.341872,0.362222,0.130237,0.154656,0.000000,294.000000,278.000000,16.000000,19.000000,0.000000,0.000000:
0000
0000
0000
0000
,
0000
0000
0000
0000
,
0000
0000
0000
0000
,
0000
0000
0000
0000
,
0000
0000
0000
0000
,
0100
0000
0000
0010
0000
0000
0100
0000
,
0002
0000
0013
0000
,
1000
0010
0100
0001
,
1000
0100
0010
0001
,
1000
0000
0001
0000
0000
0010
0000
0000
,
0001
0000
0000
0100
0000
0000
0010
0000
,
1000
0001
0010
0100
,
2000
0000
3010
0000
,
0100
0001
1000
0010
,
1000
0100
0010
0001
,
0200
0010
0000
0310
,
1000
0001
1000
0001
,
0010
0000
0000
0010
0000
0000
0010
0000
,
0100
0000
0000
0100
0000
0000
0100
0000
,
1000
0000
0000
1000
0000
0000
1000
0000
,
0001
0000
0000
0001
0000
0000
0001
0000
,
1000
0001
1000
0001
,
0010
0001
0010
0001
,
1000
0010
0100
0001
,
2002
0000
0000
3003
,
0010
0100
0001
0100
,
0010
1000
0100
1000
,
0001
1000
0100
0010
,
0001
0000
0000
0100
0000
0000
0001
0000
,
1000
0010
0100
0010
,
1000
0100
0010
0001
,
1000
0001
0010
0100
,
2002
0000
3003
0000
,
0100
0001
0100
0010
,
1000
0000
0000
0001
0000
0000
1000
0000
,
0001
0010
0100
1000
,
0010
0100
0001
1000
,
0100
0010
0100
0010
,
0001
1000
0001
1000
,
0010
1000
0001
0100
,
0220
0000
0330
0000
,
1000
0100
0001
0100
,
1000
0100
0001
0100
,
1000
0010
0100
0010
,
1000
0010
0100
0000
,
0001
0100
1000
0100
,
0001
0100
1000
0100
,
0001
0010
0001
0100
,
0010
1000
1001
0000
,
0100
1000
0010
1000
,
0001
0010
0001
0100
,
0010
1000
0100
0010
,
0002
0000
0003
0000
,
0110
0000
1001
0000
,
0110
0000
1001
0000
,
0100
0010
1000
0001
,
2002
0000
0000
3003
,
0010
0100
0000
0100
,
0001
0010
0000
0010
,
0100
1000
0000
1000
,
0001
1000
1001
0000
,
0010
1000
0000
1000
,
0001
0100
0000
0100
,
0001
0010
0000
0010
,
0200
0000
0300
0000
,
1000
0010
1000
0010
,
0100
0001
0100
0000
,
0001
0010
0001
0010
,
0100
1000
0100
0000
,
2000
0000
0001
3001
,
0200
0000
0010
0310
,
1000
0010
0100
0001
,
2002
0000
0000
0000
0000
3003
0000
0000
,
0001
0100
0010
0100
,
0001
1000
0100
0010
,
0001
1000
0010
0100
,
0001
1000
0110
0000
,
0001
1000
0010
0100
,
0001
1000
0100
0010
,
0100
1000
0001
0010
,
2002
0000
3003
0000
,
0010
1000
0010
0100
,
0010
1000
0010
0100
,
0001
0100
1000
0100
,
0010
0100
0001
0000
,
0010
0100
0010
0001
,
1000
0010
0100
0001
,
1000
0001
0010
0100
,
0110
0000
1001
0000
,
0110
0000
0000
0000
;

//---------------dance-single - ----------------
#NOTES:
     dance-single:
     :
     Medium:
     12:
     0.606997,0.615777,0.122097,0.097678,0.150586,522.000000,507.000000,15.000000,12.000000,0.000000,0.000000,0.606997,0.615777,0.122097,0.097678,0.150586,522.000000,507.000000,15.000000,12.000000,0.000000,0.000000:
0000
0000
0000
0000
,
0001
0100
0000
0100
0000
0010
1000
0200
,
0000
1300
1000
0001
,
0010
0100
0000
0100
0100
0000
1001
0000
,
0010
0000
0100
0010
0000
1000
0001
0000
,
0010
0001
0010
0001
0000
1000
0010
0000
,
0100
0000
0010
1000
0001
1000
0010
0000
,
0100
1001
0010
1001
,
1000
0000
0001
0100
0010
0100
0001
0000
,
1000
0010
1000
0000
0001
0000
0100
0010
,
0000
1000
0010
0000
0100
0001
0100
0000
,
0001
0010
0000
0010
0010
0000
0101
0000
,
0010
1000
0100
0000
1000
0001
0010
0000
,
0001
0000
1000
0100
0000
1000
0010
0000
,
0100
0000
0001
0010
0000
0001
1000
0000
,
0100
1000
0100
0000
0010
0001
0010
0000
,
0001
1000
0010
1000
0002
0000
0103
0000
,
0010
0000
0000
0100
0000
0000
0010
0000
0000
0000
1000
0000
0100
0000
0000
0000
,
1000
0000
0000
0001
0000
0000
1000
0000
0000
0000
0001
0000
0010
0000
0000
0000
,
0001
0000
0000
0100
0000
0000
0001
0000
0000
0000
1000
0000
0010
0000
0000
0000
,
1000
0000
0000
0100
0000
0000
1000
0000
0000
0000
0100
0000
0010
0000
0000
0000
,
0001
0010
0001
0000
1000
0010
1000
0000
,
0001
0100
0001
0000
1000
0100
1000
0000
,
0001
0010
0001
0100
0010
1000
0100
0000
,
2002
0000
0000
0000
0000
3003
0000
0000
,
0010
0100
0010
1000
0000
0001
0010
0000
,
0001
1000
0010
1000
0000
0001
0100
0000
,
0010
1000
0100
0010
0000
0001
1000
0000
,
0001
0010
0100
1000
0000
0010
0100
0000
,
0001
1000
0100
0010
0000
0010
0100
0000
,
1000
0010
0100
0010
0000
0010
1000
0000
,
0001
0010
0100
0010
0000
0001
1000
0000
,
0022
0000
0033
0000
,
0100
0001
0100
0010
0000
1000
0100
1000
,
0001
1000
0010
0100
0000
0010
1000
0100
,
1000
0100
0010
0100
0000
0010
0001
1000
,
0010
0100
0001
0100
0000
0010
1000
0000
,
0010
1000
0001
1000
0000
0001
0010
0100
,
0010
0001
1000
0010
0000
0100
0010
1000
,
0001
0100
0010
0000
0100
0010
1000
0000
,
1000
0000
0000
0100
0000
0000
0010
0000
0000
0001
0000
0000
1000
0000
0001
0000
,
0100
0000
0000
0010
0000
0000
1000
0000
0000
0100
0000
0000
1000
0000
0001
0000
,
0010
0000
0000
0001
0000
0000
1000
0000
0000
0001
0000
0000
0100
0000
0010
0000
,
1000
0000
0000
0010
0000
0000
0100
0000
0000
0010
0000
0000
1000
0000
0100
0000
,
1000
0000
0000
0001
0000
0000
0010
0000
0000
0001
0000
0000
0100
0000
0010
0000
,
1000
0000
0000
0010
0000
0000
0100
0000
0000
0001
0000
0000
0010
0000
0001
0000
,
1000
0000
0000
0001
0000
0000
0010
0000
0000
0100
0000
0000
1000
0000
0010
0000
,
0100
0000
0000
0001
0000
0000
1000
0000
0000
0001
0000
0000
0010
0000
0001
0000
,
1000
0000
0000
0010
0000
0000
1000
0000
0001
0000
0010
0000
0200
0000
0000
0000
,
1300
0000
0000
0010
0000
0000
0100
0000
0000
0010
0000
0000
1000
0000
0001
0000
,
0010
0000
0000
0001
0000
0000
0100
0000
0000
0010
0000
0000
1000
0000
0100
0000
,
1000
0000
0000
0100
0000
0000
1000
0000
0000
0010
0000
0000
0100
0000
0001
0000
,
1000
0000
0000
0001
0000
0000
1000
0000
0000
0010
0000
0000
0100
0000
0001
0000
,
1000
0000
0000
1010
0000
0000
0001
0000
0010
0000
0000
0011
0000
0000
1000
0000
,
0001
0000
0000
0101
0000
0000
1000
0000
0100
0000
0000
1100
0000
0000
0001
0000
,
0100
0000
0000
0010
0000
0000
0100
0000
0001
0000
0010
0000
0100
0000
0000
0000
,
1000
0100
0001
0100
1000
0000
1001
0000
,
0020
0000
0130
0001
0000
0001
1000
0000
,
0100
1000
0000
1000
0001
0100
0001
0000
,
0010
0000
0001
1000
0000
1000
0010
0000
,
0100
0010
0000
0010
1000
0100
0010
0000
,
0002
0000
0103
0010
0000
0010
1000
0000
,
0100
1000
0000
1000
0001
0010
0100
0000
,
0010
0000
0001
0100
0000
0100
0010
0000
,
1000
0001
0000
0001
1000
0010
0100
0000
,
0001
0000
0000
0010
0000
0000
0001
0000
1000
0000
0100
0000
0010
0000
0000
0000
,
0001
1000
0000
1000
0001
0100
0010
0000
,
1000
0000
0000
0100
0000
0000
1000
0000
0001
0000
0100
0000
0010
0000
0000
0000
,
0100
0001
0010
0000
0001
1000
0100
0000
,
1002
0000
0000
0000
0000
0000
0013
0010
,
0001
1000
0000
1000
0010
0100
0010
0000
,
1000
0001
0000
0001
0010
0100
0010
0000
,
2200
0000
0000
3300
,
0001
0100
0010
0100
0000
0001
1000
0000
,
0001
0010
0000
0010
0001
1000
0100
0000
,
1000
0010
0000
0010
0100
0001
1000
0000
,
0001
1000
0100
0010
0100
1000
0001
0000
,
0100
0010
0000
0010
1000
0001
0010
0000
,
0001
0100
0000
0100
0010
1000
0100
0000
,
0010
0100
0000
0100
1000
0001
1000
0000
,
0010
0000
0100
0000
0001
0000
1000
0000
0001
0000
0000
0011
0000
0000
1000
0000
,
0010
0100
0010
1000
0001
0010
0100
0000
,
0010
0001
1000
0010
0100
0010
1000
0000
,
0001
1000
0010
1000
0100
0010
0001
0000
,
0010
0001
1000
0001
0100
0010
1000
0000
,
0001
0100
0001
0100
0010
1000
0010
0000
,
1000
0100
1000
0100
0010
0001
0010
0000
,
0001
1000
0000
1000
0100
0010
0001
0000
,
0100
0010
1000
0001
0010
0100
1000
0000
,
0011
0000
0000
0000
;

//---------------dance-single - ----------------
#NOTES:
     dance-single:
     :
     Hard:
     17:
     0.898868,0.905554,0.154656,0.105818,0.923868,773.000000,754.000000,19.000000,13.000000,0.000000,0.000000,0.898868,0.905554,0.154656,0.105818,0.923868,773.000000,754.000000,19.000000,13.000000,0.000000,0.000000:
// measure 0
0000
0000
0000
0000
,  // measure 1
0001
0010
0000
0101
0000
0000
0010
1000
,  // measure 2
0200
0000
1000
0000
0000
0000
1300
0000
0001
0000
0000
0000
0100
0010
0100
0010
,  // measure 3
1000
1100
0000
0011
0001
0000
1001
0000
,  // measure 4
0010
0000
0001
0000
0100
0000
0001
0000
1000
0100
1000
0000
0020
0000
0000
0000
,  // measure 5
0130
0001
0010
0002
0000
0013
0100
1000
,  // measure 6
0001
1000
0010
0100
0010
1000
1100
0000
,  // measure 7
0010
1000
0010
0001
0100
0001
0100
1000
,  // measure 8
0100
0000
0001
0000
0010
0000
0001
0000
1000
0100
1000
0100
0020
0000
0000
0000
,  // measure 9
0031
0000
0100
0000
0001
0000
0010
0000
0001
1000
0001
0000
0100
0000
0000
0000
,  // measure 10
0010
0000
1000
0000
0100
0000
1000
0000
0001
0000
0010
0000
0001
0100
0001
0100
,  // measure 11
0010
0110
0000
1001
1000
0000
0011
0000
,  // measure 12
1000
0000
0001
0000
0010
0000
0001
0100
0000
0000
0100
0000
0020
0000
0000
0000
,  // measure 13
1030
0000
0100
0000
0010
0000
0100
1000
0001
0000
0100
0000
0010
0000
0000
0000
,  // measure 14
1000
0000
0001
0000
0010
0000
0001
1000
0100
0000
0010
0000
0001
0000
0000
0000
,  // measure 15
0010
1000
0010
0001
0100
1000
0100
0001
,  // measure 16
1000
0000
0001
0000
1000
0000
0001
0000
0010
0100
0010
0100
0010
0000
0000
0000
,  // measure 17
0001
0000
0000
0001
0000
0000
0001
0000
0000
1000
0000
1000
0010
0000
0100
0000
,  // measure 18
0010
0000
0000
0010
0000
0000
0010
0000
0000
0100
0000
0100
0001
0000
0010
0000
,  // measure 19
0001
0000
0000
0011
0000
0000
0100
0000
0000
0010
0000
0010
1000
0000
0100
0000
,  // measure 20
1000
0000
0000
1010
0000
0000
0100
0000
0000
0001
0000
0001
0010
0000
0100
0000
,  // measure 21
1000
0000
0010
0100
0000
0010
0100
0000
0000
0001
0000
0001
0100
0000
0010
0000
,  // measure 22
1000
0000
0100
0010
0000
0100
0010
0000
0000
0001
0000
0001
0010
0000
0001
0000
,  // measure 23
1000
0000
0001
0010
0001
0000
1000
0100
1000
0000
0001
0100
0001
0000
0010
0001
,  // measure 24
0010
0110
1100
0101
,  // measure 25
1000
0000
0010
0000
0100
0000
0001
0010
0000
0010
0001
0000
1000
0000
0100
0000
,  // measure 26
0010
0000
0100
0000
1000
0000
0001
0100
0000
0100
0010
0000
1000
0000
0001
0000
,  // measure 27
1000
0000
0010
0000
0100
0000
0001
0010
0000
0010
0001
0000
0010
0000
0100
0000
,  // measure 28
1000
0000
0100
0000
0010
0000
0110
0000
0000
0001
0000
0001
1000
0000
0010
0000
,  // measure 29
0100
0000
0010
0000
1000
0000
0001
0010
0000
0001
1000
0000
0010
0000
0100
0000
,  // measure 30
0001
0000
0010
0000
0100
0000
0010
0001
0000
1000
0100
0000
1000
0000
0010
0000
,  // measure 31
0100
0000
0010
0000
1000
0000
0001
0010
0000
0100
1000
0000
0001
0000
1000
0000
,  // measure 32
0010
0000
0100
0010
0100
0000
0010
0000
2000
0000
0000
0000
0000
0000
0000
0000
,  // measure 33
3001
0000
0010
0000
0001
0000
1000
0010
0000
0010
1000
0000
0001
0000
0100
0000
,  // measure 34
0001
0000
0010
0000
0001
0000
1000
0100
0000
0100
1000
0000
0010
0000
0100
0000
,  // measure 35
0010
0000
1000
0000
0100
0000
0010
0001
0000
1000
0100
0000
1000
0000
0001
0000
,  // measure 36
0010
0000
0100
0000
0010
0000
0001
1000
0000
1000
0010
0000
0100
0000
0010
0000
,  // measure 37
1000
0000
0100
0000
0010
0000
0001
0100
0000
0100
0001
0000
1000
0010
1000
0000
,  // measure 38
0001
0000
0010
0000
0100
0000
0010
0001
0000
0001
1000
0000
0001
0100
0001
0000
,  // measure 39
1000
0010
0100
0010
1000
0100
0001
0100
,  // measure 40
1000
0000
0000
0011
0000
0000
0001
0000
0000
0110
0000
0000
1000
0000
0001
0000
,  // measure 41
0010
0000
0001
0100
0000
0001
0100
0000
0010
1000
0000
0100
1000
0000
0001
0000
,  // measure 42
1000
0000
0010
0100
0000
0010
1000
0000
0001
0010
0000
0001
1000
0000
0100
0000
,  // measure 43
1000
0000
0010
0100
0000
0010
1000
0000
0001
0010
0000
0001
0100
0000
0010
0000
,  // measure 44
1000
0000
0100
0010
0000
0010
0100
0000
1000
0001
0000
0100
0010
0000
1000
0000
,  // measure 45
0001
0000
0010
0001
0000
1000
0001
0000
1000
0010
0000
1000
0001
0000
1000
0000
,  // measure 46
0100
0000
0010
0001
0000
1000
0001
0000
0010
0100
0000
0100
1000
0000
0001
0000
,  // measure 47
0100
0000
0010
1000
0000
0100
1000
0000
0001
0100
0000
0100
0010
0000
1000
0000
,  // measure 48
0001
0000
0010
0001
0000
1000
0100
1000
0001
0000
1000
0000
0020
0000
0000
0000
,  // measure 49
0130
0000
0001
1000
0000
0001
1000
0000
0100
0010
0000
0010
0100
0000
1000
0000
,  // measure 50
0001
0000
0100
0010
0000
0100
0010
0000
1000
0001
0000
0001
0010
0000
0100
0000
,  // measure 51
0010
0000
0001
1000
0000
1000
0001
0000
0100
0010
0000
0010
1000
0000
0001
0000
,  // measure 52
1000
0000
0100
0010
0000
0010
0100
0000
1000
0001
0000
1000
0001
0000
0010
0000
,  // measure 53
0001
0000
0100
0001
0000
1000
0010
0000
1000
0000
0001
0010
0000
0100
1000
0000
,  // measure 54
0010
0000
0100
0010
0000
1000
0010
0000
1000
0000
0100
1000
0000
0000
0010
0000
,  // measure 55
0100
0000
0001
1000
0001
0000
1000
0000
0010
0000
0100
0001
1000
0000
0001
0000
,  // measure 56
2000
0010
0001
3010
,  // measure 57
0100
0000
0001
0000
0010
0000
0001
1000
0000
0000
1000
0000
0001
0000
0000
0000
,  // measure 58
0010
0000
0001
0000
1000
0000
0010
0100
0000
0000
0100
0000
0001
0000
0000
0000
,  // measure 59
1000
0000
0100
0000
0010
0000
0100
1000
0000
0000
1000
0000
0001
0000
0000
0000
,  // measure 60
0100
0000
0010
0000
1000
0000
0001
0010
0000
0000
0010
0000
0001
0000
0000
0000
,  // measure 61
0100
0000
0001
0000
1000
0000
0010
0100
0000
0000
0100
0000
0001
0000
0000
0000
,  // measure 62
1000
0000
0100
0000
0010
0000
0001
1000
0000
0000
1000
0000
0001
0000
0000
0000
,  // measure 63
1000
0000
0001
0000
0010
0000
0100
1000
0000
0000
0001
0000
0100
0000
0000
0000
,  // measure 64
0010
0000
0100
0000
0001
0000
0100
0010
0000
1000
0000
0100
0020
0000
0000
0000
,  // measure 65
0031
0000
0100
0000
0001
0000
1000
0010
0000
0010
0000
1000
0001
0000
0000
0000
,  // measure 66
1000
0000
0001
0000
0010
0000
0100
1000
0000
1000
0000
0001
0100
0000
0000
0000
,  // measure 67
0010
0000
1000
0000
0001
0000
1000
0100
0000
0010
0000
0100
1000
0000
0000
0000
,  // measure 68
0001
0000
0100
0000
0010
0000
0100
0001
0000
1000
0000
0001
0020
0000
0000
0000
,  // measure 69
0031
0000
0100
0000
0001
0000
0010
0001
0000
0100
0000
0001
1000
0000
0000
0000
,  // measure 70
0010
0000
1000
0000
0100
0000
0010
0100
0000
1000
0000
0001
0100
0000
0000
0000
,  // measure 71
0010
1000
0010
0000
0100
0001
0100
0000
0001
0010
0001
0000
1000
0100
1000
0000
,  // measure 72
0001
0010
0100
1000
0002
0000
0000
0000
1003
0100
0010
0001
2000
0000
0000
0000
,  // measure 73
3001
0100
0000
0010
0000
0100
0000
0001
0000
1000
0000
0001
1000
0000
0100
0000
,  // measure 74
1000
0000
0010
0000
0100
0000
0001
1000
0000
0010
0000
0010
0100
0000
0001
0000
,  // measure 75
0010
0001
0000
0100
0000
0010
0000
1000
0000
1000
0001
0010
0001
0000
0100
0000
,  // measure 76
0010
0000
1000
0000
0001
0000
1000
0100
0000
0010
0000
0001
1000
0001
1000
0000
,  // measure 77
0010
1000
0000
0100
0000
1000
0000
0001
0000
0010
0000
0001
0100
0000
0010
0000
,  // measure 78
1000
0000
0001
0000
0010
0000
0001
0100
0000
0010
0000
1000
0001
0100
0001
0000
,  // measure 79
1000
0100
0000
0010
0000
0001
0000
1000
0000
0001
0000
0100
0001
0010
0001
0000
,  // measure 80
1000
0000
0010
0100
0010
0000
1000
0000
0001
0000
1000
0100
0010
0000
0001
0000
,  // measure 81
0010
0001
0000
0100
0000
0101
0000
0001
0000
0010
0000
0001
1000
0000
0010
0000
,  // measure 82
1000
0000
0001
0000
0100
0000
0010
1000
0000
0001
0000
1000
0100
0000
0010
0000
,  // measure 83
0100
1000
0000
0001
0000
1001
0000
0100
0000
0010
0000
1000
0001
0000
0010
0000
,  // measure 84
0001
0000
0100
0000
0010
0000
0100
0001
0000
1000
0000
0001
0010
0100
0010
0000
,  // measure 85
0001
0000
0010
0000
0001
0000
1000
0000
0100
0000
1000
0000
0010
0100
0010
0000
,  // measure 86
1000
0000
0001
0000
1000
0000
0100
0000
0010
0000
0100
0000
1000
0001
1000
0000
,  // measure 87
0001
0010
0001
0000
0100
0010
0100
0000
0010
1000
0010
0000
1000
0100
1000
0000
,  // measure 88
0001
0010
0001
0010
0002
0000
0000
0000
0103
0010
1000
0100
1000
0000
0000
0000
,  // measure 89
0101
0000
0000
0000
;
