#TITLE:In The Ruins;
#SUBTITLE:;
#ARTIST:good-cool feat.CHiCO;
#TITLETRANSLIT:;
#SUBTITLETRANSLIT:;
#ARTISTTRANSLIT:;
#GENRE:ANCIENT EURO;
#CREDIT:;
#BANNER:In_The_Ruins_banner.png;
#BACKGROUND:In_The_Ruins.png;
#LYRICSPATH:;
#CDTITLE:;
#MUSIC:In The Ruins.ogg;
#OFFSET:0.400000;
#SAMPLESTART:47.290001;
#SAMPLELENGTH:12.300000;
#LASTBEATHINT:282.000000;
#SELECTABLE:YES;
#BPMS:0.000000=156.000000
;
#STOPS:
;
#BGCHANGES:;
#KEYSOUNDS:;
#ATTACKS:;

//---------------dance-single - ----------------
#NOTES:
     dance-single:
     :
     Easy:
     5:
     0.236159,0.279963,0.151091,0.168866,0.000000,186.000000,169.000000,17.000000,19.000000,0.000000,0.000000,0.236159,0.279963,0.151091,0.168866,0.000000,186.000000,169.000000,17.000000,19.000000,0.000000,0.000000:
0000
0000
0000
0000
,
0000
0000
0000
0000
,
0000
0000
0000
0000
,
0000
0000
0000
0000
,
0000
0000
0000
0000
,
2002
0000
0000
3003
,
0100
0100
0200
0300
,
0001
0010
0001
1000
,
0010
0000
0010
0100
,
0010
1000
0100
0000
,
1000
0001
2002
3003
,
0100
0001
0010
0000
,
0001
1000
0100
1000
,
0010
0100
0001
0000
,
1000
0000
0000
0010
0000
0010
0000
0000
,
2000
0000
3001
0010
,
0002
0000
0103
0010
,
0100
0001
0000
0001
,
0010
0100
1000
0001
,
2000
0000
3010
0100
,
0002
0000
0013
0001
,
0100
0000
0110
0000
,
1000
0001
0010
0100
,
1000
0010
1000
0000
,
0001
0010
0001
0000
,
0000
0110
0000
1001
,
0000
0100
0010
0100
,
0001
0000
1000
0000
,
0100
1000
0001
0000
,
0010
0000
0001
0000
,
2002
0000
3003
0000
,
0100
0100
0100
0000
,
0010
1000
0001
0000
,
0010
0010
0010
0000
,
0001
0000
1100
0000
,
0001
0001
0001
0000
,
0100
0010
0100
0000
,
1000
1000
1000
0000
,
0010
0000
0000
0100
0000
0100
0000
0000
,
0001
0000
1000
0000
,
2002
0000
3003
0000
,
0100
0000
0100
0000
,
0010
0000
0010
0000
,
1001
0000
1000
0000
,
0010
0000
0001
0000
,
0110
0000
0001
0000
,
1000
0000
0100
0000
,
0011
0000
1000
0000
,
0220
0000
0330
0000
,
1000
0010
1000
0000
,
0001
0010
0001
0000
,
0220
0000
0330
0000
,
1000
0001
1000
0001
,
0010
0001
1000
0000
,
0010
1000
0001
0000
,
0100
0000
0110
0000
,
0001
1000
0001
1000
,
0010
0000
1000
0100
,
1000
0000
0001
0000
,
0010
0001
1000
0000
,
0100
0000
0110
0000
,
1000
0010
0100
0000
,
0001
0000
0010
0000
,
0001
1000
0001
0000
,
0100
0000
0000
0010
0000
0010
0000
0000
,
0100
0000
0000
0010
0000
0010
0000
0000
,
0100
0000
0000
0010
0000
0010
0000
0000
,
2002
0000
0000
0000
,
3003
0000
0000
0000
,
0010
0000
1000
0000
,
0110
0000
0000
0000
;

//---------------dance-single - ----------------
#NOTES:
     dance-single:
     :
     Medium:
     10:
     0.450734,0.497711,0.311070,0.106652,0.062214,355.000000,320.000000,35.000000,12.000000,0.000000,0.000000,0.450734,0.497711,0.311070,0.106652,0.062214,355.000000,320.000000,35.000000,12.000000,0.000000,0.000000:
// measure 0
0000
0000
0000
0000
,  // measure 1
0000
0000
0000
0000
,  // measure 2
0000
0000
0000
0000
,  // measure 3
0000
0000
0000
0000
,  // measure 4
0000
0000
0000
0000
,  // measure 5
0220
0000
0000
0330
,  // measure 6
0001
0010
0100
1000
0010
0000
1001
0000
,  // measure 7
0100
0010
0100
0001
0000
0001
1000
0000
,  // measure 8
0100
0000
0000
0010
0000
0000
0001
0000
0000
1000
0000
0000
0010
0000
0000
0000
,  // measure 9
1000
0100
1000
0010
0000
0010
0100
0000
,  // measure 10
0011
0000
1000
0001
0010
0000
1100
0000
,  // measure 11
0010
0100
0010
1000
0000
1000
0001
0000
,  // measure 12
0010
0000
0000
0001
0000
0000
0100
0000
0000
0010
0000
0000
1000
0000
0000
0000
,  // measure 13
0100
1000
0010
0100
0000
0100
0010
0000
,  // measure 14
1000
0000
0001
0011
0000
1100
0000
0000
,  // measure 15
0001
0010
0100
0000
1000
0010
0000
0100
,  // measure 16
0000
0100
0010
0000
1000
0001
1000
0000
,  // measure 17
0010
0100
0001
0020
0000
0000
0031
0000
,  // measure 18
1000
0010
1000
0000
0001
0010
0001
0000
,  // measure 19
0100
0001
0010
0000
0001
1000
0000
1000
,  // measure 20
0000
0010
0100
0000
0010
1000
0001
0000
,  // measure 21
0020
0000
0130
1000
0000
0000
1000
0000
,  // measure 22
0001
0010
0100
1000
0020
0000
0130
0000
,  // measure 23
0001
0100
0001
0000
1000
0100
1000
0000
,  // measure 24
0010
1000
0010
0000
0100
0001
0100
0000
,  // measure 25
0010
1001
0010
1001
,  // measure 26
1000
0110
1001
0110
,  // measure 27
0001
0000
0010
0000
0001
0100
0000
0010
,  // measure 28
0000
1000
0100
0000
2002
0000
3003
0000
,  // measure 29
0100
0000
0100
0000
0010
0100
0010
0000
,  // measure 30
1000
0010
0001
0010
0000
0110
0000
0000
,  // measure 31
0001
0010
0100
0000
1000
0010
0100
0000
,  // measure 32
0001
0010
0100
1000
0020
0000
0130
0000
,  // measure 33
1000
0010
0100
0000
0001
0010
0100
0000
,  // measure 34
1000
0100
0010
0001
0100
0000
0110
0000
,  // measure 35
1000
0001
0010
0000
0010
0001
1000
0000
,  // measure 36
0010
0100
0010
1000
0010
0000
0100
0000
,  // measure 37
0001
0010
0001
0000
1000
0100
0010
0100
,  // measure 38
1000
1000
0000
0001
0000
0101
0000
0000
,  // measure 39
0010
0000
0000
0000
0110
0000
0000
0000
1000
0000
0000
1001
0000
0000
0001
0000
,  // measure 40
0010
0100
1000
0010
0200
0000
0000
0000
,  // measure 41
0301
0000
0000
0001
0000
0000
0010
0000
,  // measure 42
1000
0000
0000
1000
0000
0000
1000
0000
,  // measure 43
0110
0000
0000
0001
0000
0000
0001
0000
,  // measure 44
1000
0000
0000
1000
0000
0000
0001
0000
,  // measure 45
0110
0000
0000
1000
0000
0000
1000
0000
,  // measure 46
0010
0000
0000
0010
0000
0000
0100
0000
,  // measure 47
1001
0000
0000
0100
0000
0000
0010
0000
,  // measure 48
1000
0000
0000
0001
0000
0000
1000
0000
0020
0000
0000
0000
0030
0000
0000
0000
,  // measure 49
0100
0000
0001
0010
0000
0001
1000
0001
,  // measure 50
0100
0000
0010
1000
0000
1000
0100
1000
,  // measure 51
0001
0011
1000
1010
,  // measure 52
0001
1000
0001
1000
0001
0010
0100
0000
,  // measure 53
1000
0000
0010
1000
0000
1000
0100
1000
,  // measure 54
0001
0000
0010
0001
0000
0100
0001
0100
,  // measure 55
0010
0110
1000
1001
,  // measure 56
0010
0100
0001
0010
0100
0000
1100
0000
,  // measure 57
1000
0010
0100
0010
0000
0010
0100
0000
,  // measure 58
0001
0000
0000
0010
0000
0000
0100
0000
0000
1000
0000
0000
0010
0000
0000
0000
,  // measure 59
0100
0001
0010
0001
0000
0001
1000
0000
,  // measure 60
1001
0000
0010
0100
0010
0000
1100
0000
,  // measure 61
0001
0010
0100
0010
0000
0010
0001
0000
,  // measure 62
1000
0000
0000
0010
0000
0000
0100
0000
0000
0001
0000
0000
0010
0000
0000
0000
,  // measure 63
0001
0100
0010
1000
0000
1000
0100
0000
,  // measure 64
1000
0010
0000
0110
0000
1001
0000
0010
,  // measure 65
0001
1000
0000
0110
0000
1001
0000
0010
,  // measure 66
1000
0001
0000
0110
0000
1001
0000
0000
,  // measure 67
0220
0000
0000
0000
,  // measure 68
0000
0000
0330
0000
,  // measure 69
0001
1000
0000
0001
1000
0000
0001
1000
0000
0010
0000
0000
0000
0000
0000
0000
,  // measure 70
0110
0000
0000
0000
;

//---------------dance-single - ----------------
#NOTES:
     dance-single:
     :
     Hard:
     13:
     0.656420,0.684353,0.311070,0.177754,0.399947,517.000000,482.000000,35.000000,20.000000,0.000000,0.000000,0.656420,0.684353,0.311070,0.177754,0.399947,517.000000,482.000000,35.000000,20.000000,0.000000,0.000000:
0000
0000
0000
0000
,
0000
0000
0000
0000
,
0000
0000
0000
0000
,
0000
0000
0000
0000
,
0000
0000
0000
0000
,
2002
0000
0000
3003
,
0100
0000
0010
0000
0100
0010
1000
0001
0010
0000
0000
0000
1001
0000
0000
0000
,
0010
0000
0001
0010
0001
0000
0100
1000
0000
1000
0010
0000
0100
0000
0001
0000
,
1000
0000
0010
1000
0000
0100
1000
0000
0010
1000
0000
0100
1000
0000
0010
0000
,
0100
0000
0001
0100
0001
0000
1000
0010
0000
0100
0010
0000
0100
0000
0001
0000
,
0110
0000
0000
0000
1000
0000
0010
0000
0100
0010
0100
0000
0002
0000
0000
0000
,
0013
0000
0100
0010
0100
0000
1000
0100
0000
0100
1000
0000
0010
0000
0100
0000
,
0001
0000
0010
0001
0000
0100
0001
0000
0010
0001
0000
0100
0001
0000
0010
0000
,
0100
0000
1000
0100
1000
0000
0010
0100
0000
0001
0100
0000
0010
0000
0100
0000
,
0010
0000
1000
0100
1000
0000
1100
0000
0000
0000
0011
0000
0000
0000
0000
0000
,
0010
0100
0001
0000
0010
0001
0100
0010
,
0000
0010
0100
0001
0010
0100
0010
0001
,
0100
0010
0100
0002
0000
1003
0100
0100
,
1000
0010
1000
0000
0001
0010
0001
0000
1000
0100
1000
0100
1000
0000
0010
0000
,
1000
0100
0010
0000
0010
0100
1000
0010
,
0000
0010
0100
1000
0100
0010
1000
0100
,
0010
0100
1000
0200
0000
1300
0001
0010
,
0001
0010
0001
0000
1000
0010
1000
0000
0001
0100
0001
0100
0001
0000
0010
0000
,
0001
0100
1000
0100
0010
0100
0001
0010
,
0000
0100
2000
0000
3001
0100
0010
0000
,
0010
0010
1001
0000
0100
0100
1001
0000
,
0100
0010
1001
0010
1001
0100
1001
0000
,
0100
0010
1000
0100
0010
0100
0000
0011
,
0000
1000
0010
0000
0110
0000
1000
0001
,
1000
0100
1000
0010
0100
0001
0010
0001
,
1000
0000
0001
0010
0001
0000
1001
0000
0000
0000
1100
0000
0000
0000
0000
0000
,
0010
0100
0010
0100
0010
0000
1000
0000
0001
0000
0011
0000
0000
0000
1000
0000
,
0010
0001
0010
1000
0010
0200
0000
0301
,
0010
0001
0010
0001
0010
0000
0100
0000
1000
0000
1010
0000
0000
0000
0100
0000
,
0001
0000
0010
0000
0001
0000
1000
0000
0010
0000
1000
0001
1000
0000
0100
0000
,
1000
0010
1000
0010
1000
0000
0100
0000
0001
0000
0010
0000
1001
0000
0000
0000
,
0010
0001
0100
1000
0010
1000
0100
0010
,
0001
1000
0001
1000
0001
0000
0010
0000
0100
0000
1000
0001
0100
0000
0010
0000
,
1000
1100
0000
0011
0000
2002
0000
3003
,
0100
0010
0100
0010
0100
0000
0010
0000
0100
0010
0000
0010
0100
0010
0100
0000
,
0001
0000
0010
0100
1000
0000
0010
0000
0200
0000
0000
0000
0301
0000
0000
0000
,
0021
0000
0000
1000
0000
0000
0100
0000
,
0001
0000
0000
0100
0000
0000
1030
0000
,
1002
0000
0000
0100
0000
0000
1000
0000
,
0010
0000
0000
0100
0000
0000
1003
0000
,
0210
0000
0000
1000
0000
0000
0010
0000
,
0001
0000
0000
1000
0000
0000
0301
0000
,
2010
0000
0000
0100
0000
0000
3001
0000
,
0001
0000
1000
0010
0100
0000
0001
0000
0020
0000
0000
0000
0031
0000
0000
0000
,
1000
0000
0010
0000
0100
0000
0010
1000
0000
0010
1000
0000
0100
0000
1000
0000
,
0001
0000
0100
0000
0010
0000
0100
0001
0000
0100
0001
0000
0100
0000
0010
0000
,
1000
0000
0001
0000
1000
0000
0001
0010
0000
0100
0010
0000
0100
0000
0010
0000
,
0001
0001
0001
0001
0001
0001
0001
0001
,
1000
0000
0100
0000
0010
0000
0100
1000
0000
0100
1000
0000
0100
0000
0010
0000
,
0001
0000
0100
0000
0010
0000
0100
0001
0000
0010
0001
0000
0010
0000
0100
0000
,
0010
0010
0010
0010
0010
0010
0010
0010
,
0001
0000
1000
0000
0001
0000
1000
0000
0010
0100
0010
0100
0010
0000
0000
0000
,
1000
0000
0010
1000
0010
0000
0100
0001
0000
0010
0001
0000
0010
0000
0100
0000
,
1000
0000
0100
0010
0000
0100
1000
0000
0100
0010
0000
0100
1000
0000
0010
0000
,
0100
0000
0001
0010
0001
0000
1000
0010
0000
0100
0001
0000
0010
0000
0001
0000
,
1001
0000
0000
0000
0100
0000
0010
0000
1000
0100
0010
0000
0002
0000
0000
0000
,
0103
0000
0010
1000
0010
0000
0100
0001
0000
1000
0010
0000
0100
0000
0001
0000
,
0010
0000
0001
0100
0000
0001
0010
0000
0001
0100
0000
0001
0010
0000
0100
0000
,
1000
0000
0001
0100
0001
0000
1000
0010
0000
1000
0100
0000
1000
0000
0010
0000
,
0100
0000
0001
0010
0001
0000
0011
0000
0000
0000
1100
0000
0000
0000
0010
0000
,
1000
0000
0010
0100
0010
0000
1010
0000
0000
0000
0101
0000
0000
0000
0010
0000
,
1000
0000
0100
0010
0100
0000
1100
0000
0000
0000
0011
0000
0000
0000
0000
0000
,
2002
0000
0000
3003
,
0220
0000
0000
0330
,
0100
0010
0000
0001
0010
0000
0100
0001
0000
1000
0100
0000
0110
0000
0000
0000
,
1001
0000
0000
0000
;
