#TITLE:異次元の孤独~カナタノキミヘ~;
#SUBTITLE:;
#ARTIST:RoughSkreamZ feat. Sennzai;
#TITLETRANSLIT:Ijigen no kodoku~kanata no kimi e~;
#SUBTITLETRANSLIT:;
#ARTISTTRANSLIT:;
#GENRE:;
#CREDIT:;
#BANNER:Ijigen no kodoku~kanata no kimi e~_banner.png;
#BACKGROUND:Ijigen no kodoku~kanata no kimi e~_bg.png;
#LYRICSPATH:;
#CDTITLE:;
#MUSIC:Ijigen no kodoku~kanata no kimi e~.ogg;
#OFFSET:-0.600000;
#SAMPLESTART:62.500000;
#SAMPLELENGTH:12.000000;
#LASTBEATHINT:443.062500;
#SELECTABLE:YES;
#DISPLAYBPM:125.000000:500.000000;
#BPMS:0.000000=124.999992
,9.000000=249.999985
,81.000000=124.999992
,85.000000=249.999985
,93.000000=124.999992
,97.000000=249.999985
,105.000000=124.999992
,109.000000=249.999985
,117.000000=124.999992
,121.000000=249.999985
,193.000000=124.999992
,209.000000=249.999985
,361.000000=124.999992
,369.000000=249.999985
,420.000000=31.249998
,420.500000=62.499996
,421.000000=124.999992
,421.500000=187.500000
,422.750000=249.999985
,425.000000=499.999969
,443.000000=31.249998
;
#STOPS:8.000000=0.480000,
420.000000=0.960000
;
#BGCHANGES:;
#KEYSOUNDS:;
#ATTACKS:;

//---------------dance-single - ----------------
#NOTES:
     dance-single:
     :
     Easy:
     12:
     0.415854,0.588961,0.122999,0.213199,0.000000,355.000000,340.000000,15.000000,26.000000,0.000000,0.000000,0.415854,0.588961,0.122999,0.213199,0.000000,355.000000,340.000000,15.000000,26.000000,0.000000,0.000000:
// measure 0
0000
0000
0000
0000
,  // measure 1
0000
0000
0000
0000
,  // measure 2
1001
0100
0000
0010
,  // measure 3
0000
1000
0000
0000
0000
0000
0001
0000
,  // measure 4
0000
0001
0010
0000
,  // measure 5
0010
0001
0010
0100
,  // measure 6
0000
1000
0010
0000
,  // measure 7
0010
1000
0100
0010
,  // measure 8
0000
0100
1000
0000
,  // measure 9
1000
0010
0100
0001
,  // measure 10
0000
0010
0100
0000
,  // measure 11
0100
0010
0001
2000
,  // measure 12
0000
3001
0100
0010
,  // measure 13
0000
0010
0100
0001
,  // measure 14
0000
0010
0100
1000
,  // measure 15
0000
0100
1000
0010
,  // measure 16
0000
0100
0001
0010
,  // measure 17
0000
0001
1000
0100
,  // measure 18
0000
1000
0010
0100
,  // measure 19
0001
0010
0000
1001
,  // measure 20
0000
0000
0220
0000
0000
0330
0000
0000
,  // measure 21
0000
0001
0000
0001
,  // measure 22
0010
0200
0000
1300
,  // measure 23
0000
0000
0220
0000
0000
0330
0000
0000
,  // measure 24
0000
1000
0000
0100
,  // measure 25
1000
0100
0000
0010
,  // measure 26
0000
0000
2002
0000
0000
3003
0000
0000
,  // measure 27
0000
0010
0000
0100
,  // measure 28
0010
0100
0000
0001
,  // measure 29
0000
0000
2002
0000
0000
3003
0000
0000
,  // measure 30
0000
0100
0000
0010
,  // measure 31
0100
0010
0000
1000
,  // measure 32
0000
0001
0000
0010
,  // measure 33
0001
0010
0000
0100
,  // measure 34
0000
1000
0000
0010
,  // measure 35
1000
0010
0000
0100
,  // measure 36
0000
0010
1000
0001
,  // measure 37
0000
0010
0001
1000
,  // measure 38
0000
0100
1000
0001
,  // measure 39
0100
0010
0000
0110
,  // measure 40
0000
0002
0000
0023
,  // measure 41
0000
0031
1000
0100
,  // measure 42
0010
0200
0000
2300
,  // measure 43
0000
3010
0100
0001
,  // measure 44
1000
0100
0000
1000
,  // measure 45
0000
0100
1000
0010
,  // measure 46
1000
0001
0000
0010
,  // measure 47
0000
0001
0010
0100
,  // measure 48
0010
0000
0001
0000
0000
1000
0001
0000
,  // measure 49
0000
1000
0010
0000
0000
1000
0100
0000
,  // measure 50
1000
0001
0010
0100
,  // measure 51
1000
2002
0000
3003
,  // measure 52
0000
0220
0000
0000
,  // measure 53
0000
0330
0000
0000
,  // measure 54
0000
0001
0000
0000
0010
0000
0001
0000
,  // measure 55
0000
1000
0000
0000
0100
0000
1000
0000
,  // measure 56
0000
0010
0000
0000
0100
0000
0010
0000
,  // measure 57
0000
1000
0100
0010
,  // measure 58
0000
0001
0000
0000
0100
0000
0001
0000
,  // measure 59
0000
1000
0000
0000
0100
0000
1000
0000
,  // measure 60
0000
0010
0000
0000
0100
0000
0010
0000
,  // measure 61
0000
2000
0000
0000
0000
0000
3001
0000
,  // measure 62
0000
0010
0000
0000
0001
0000
0100
0000
,  // measure 63
0010
1000
0100
1000
,  // measure 64
0010
0000
0100
0000
0000
0001
0000
0000
,  // measure 65
0100
0010
1000
0100
,  // measure 66
0010
0001
0000
0000
0001
0000
1000
0000
,  // measure 67
0001
0010
0001
1000
,  // measure 68
0100
1000
0000
0000
0010
0000
1000
0000
,  // measure 69
0001
1000
0100
1000
,  // measure 70
0001
0100
0000
0000
0010
0000
0100
0000
,  // measure 71
0001
0010
0000
0000
0100
0000
1000
0000
,  // measure 72
0010
0100
0000
0000
0010
0000
1000
0000
,  // measure 73
0001
0200
0000
0310
,  // measure 74
0000
0000
1000
0001
1000
0000
0100
0000
,  // measure 75
1000
0010
0100
0001
,  // measure 76
0010
0001
1000
0010
,  // measure 77
0100
0010
1000
0100
,  // measure 78
0010
0001
0010
0000
0001
0000
1000
0000
,  // measure 79
0010
1000
0001
0010
,  // measure 80
0001
1000
0001
0000
1000
0000
0100
0000
,  // measure 81
1000
0000
0010
0100
0010
0100
0020
0000
,  // measure 82
0000
1030
0100
0001
,  // measure 83
0100
1000
0100
0001
,  // measure 84
0100
1000
0010
0001
,  // measure 85
0010
1000
0010
0001
,  // measure 86
0010
0100
0001
0000
0010
0100
0000
0010
,  // measure 87
0100
0000
1000
0000
0010
0100
0000
0010
,  // measure 88
0100
0000
0001
1000
0001
0000
0100
0010
,  // measure 89
0100
0000
0001
0000
1000
0000
0010
0100
,  // measure 90
0001
1000
0200
0000
0000
0000
0320
0000
,  // measure 91
0000
0032
0000
1003
,  // measure 92
0000
0100
0010
0100
,  // measure 93
0001
0100
0010
1000
,  // measure 94
0100
1000
0100
0000
0010
0000
0001
0000
,  // measure 95
0100
0000
0001
1000
0001
0000
0010
0000
,  // measure 96
0100
1000
1100
0000
,  // measure 97
0011
0000
1001
0000
,  // measure 98
0110
0001
0100
0010
,  // measure 99
1000
0100
1000
0000
0010
0000
0100
0001
,  // measure 100
0100
0000
0001
0010
0001
0000
1000
0000
,  // measure 101
1100
0000
1000
0010
1000
0000
0001
0000
,  // measure 102
0011
1000
0100
1000
,  // measure 103
0010
0100
0010
0000
1000
0000
0001
0010
,  // measure 104
0100
1000
0020
0000
0000
0000
0000
0030
,  // measure 105
0000
0000
0000
0000
,  // measure 106
0000
0020
0000
0000
,  // measure 107
0000
0000
0000
0000
,  // measure 108
0000
0000
0000
0000
,  // measure 109
0000
0000
0000
0000
,  // measure 110
0000
0000
0030
0000
;

//---------------dance-single - ----------------
#NOTES:
     dance-single:
     :
     Medium:
     15:
     0.705195,0.860789,0.204999,0.303398,0.012300,602.000000,577.000000,25.000000,37.000000,0.000000,0.000000,0.705195,0.860789,0.204999,0.303398,0.012300,602.000000,577.000000,25.000000,37.000000,0.000000,0.000000:
// measure 0
0000
0000
0000
0000
,  // measure 1
0000
0000
0000
0000
,  // measure 2
0220
0330
0000
0000
0000
0000
0000
0000
0000
0000
0000
0000
1000
0000
0000
0000
0000
0000
0000
0000
0000
0000
0000
0000
0100
0000
0000
0000
0000
0000
0000
0000
0000
0000
0000
0000
1000
0000
0000
0000
0000
0000
0010
0000
0000
0000
0000
0000
,  // measure 3
0100
0010
0000
0000
1000
0000
0011
0000
,  // measure 4
0100
0000
0001
0000
0010
0000
0001
0100
,  // measure 5
0010
0000
1000
0000
0010
0100
0000
0100
,  // measure 6
0010
0000
1000
0000
0100
0000
1000
0010
,  // measure 7
0100
0000
0010
0000
1000
0001
0000
0001
,  // measure 8
0010
0000
0001
0000
0100
0000
0010
1000
,  // measure 9
0100
0000
1000
0000
0010
0100
0000
0100
,  // measure 10
0001
0000
0010
0100
1000
0000
0010
0100
,  // measure 11
0001
0000
0010
0001
0100
0010
1000
0001
,  // measure 12
0010
0100
1000
0000
1100
0000
1000
0010
,  // measure 13
0100
0000
0001
0000
1000
0100
0010
0100
,  // measure 14
1000
0000
0010
0000
0110
0000
1000
0001
,  // measure 15
0100
0000
0001
0010
0100
0010
0002
0000
,  // measure 16
0000
0000
1003
0000
1001
0000
0100
0010
,  // measure 17
1000
0000
0100
0010
0001
0100
0010
0000
,  // measure 18
1000
0000
0001
0000
1001
0000
0100
0010
,  // measure 19
1000
0000
0100
1000
0010
0100
0001
0010
,  // measure 20
0100
1000
0002
0000
0000
0000
0000
0000
,  // measure 21
0000
1003
1000
0010
0100
0000
0010
0100
,  // measure 22
0001
0000
0010
0001
0100
0010
1000
0010
,  // measure 23
0100
0001
2000
0000
0000
0000
0000
0000
,  // measure 24
0000
3001
0001
0100
0010
0000
0100
0010
,  // measure 25
1000
0000
0100
1000
0010
0100
0001
0010
,  // measure 26
0100
2200
0000
0000
,  // measure 27
3300
0001
0100
0010
1000
0000
0001
0010
,  // measure 28
0100
0000
0010
0001
0100
0010
1000
0001
,  // measure 29
1000
0220
0000
0000
,  // measure 30
0330
0001
1000
0000
0010
0000
0100
0010
,  // measure 31
1000
0000
0001
1000
0100
0010
0001
0100
,  // measure 32
0010
0000
2000
0000
3002
0000
0013
0100
,  // measure 33
1000
0000
0010
0000
0100
0001
0010
0001
,  // measure 34
1000
0000
0010
0000
0100
0000
0001
0010
,  // measure 35
0100
0000
1000
0010
0100
0010
2000
0000
,  // measure 36
0000
0000
3001
0100
0001
0000
1000
0100
,  // measure 37
1000
0000
0001
0100
0010
0100
0001
0010
,  // measure 38
0100
0010
0011
1000
,  // measure 39
1100
0000
0010
0100
0001
0000
0100
0010
,  // measure 40
1000
0001
0010
0000
0001
0000
1000
0010
,  // measure 41
0100
0000
0010
1000
0100
1000
0001
0000
,  // measure 42
0010
0000
0001
0000
0100
0000
0010
1000
,  // measure 43
0001
0000
0100
0010
1000
0100
0020
0000
,  // measure 44
0000
0000
0031
0000
0100
0000
0001
0010
,  // measure 45
0100
0000
1000
0100
0010
0100
1000
0000
,  // measure 46
0010
0000
0100
0001
0000
1000
0010
0000
,  // measure 47
1000
0000
0001
0010
0100
1000
0010
0100
,  // measure 48
0001
0000
1000
0000
0200
0000
0000
0000
0310
0000
0001
1000
0100
0000
1000
0000
,  // measure 49
0010
0000
0100
0000
0001
0000
0010
0100
0000
0100
0010
0000
0001
0000
1000
0000
,  // measure 50
1001
0000
0010
0100
0010
0100
0001
1000
,  // measure 51
0001
1000
0220
0000
0330
0000
2002
0000
,  // measure 52
3003
0220
0000
0330
,  // measure 53
0000
0000
0010
0100
0010
0000
0110
0000
,  // measure 54
0000
1001
0000
0010
0001
0000
1000
0000
,  // measure 55
0100
1000
0000
0010
0100
0010
1000
0000
,  // measure 56
0001
0010
0000
0001
0100
0010
1000
0100
,  // measure 57
0000
1000
0000
0010
0100
0000
0220
0000
,  // measure 58
0330
1000
0000
0100
0010
0000
0001
0000
,  // measure 59
1000
0010
0000
0010
1000
0000
0001
0100
,  // measure 60
0001
0010
0000
0001
0100
0000
0001
1000
,  // measure 61
0100
1000
0000
0010
0100
0010
0200
0000
,  // measure 62
0000
0301
0000
0010
0001
0000
1000
0010
,  // measure 63
1000
0000
0100
1000
0100
0000
1000
0010
,  // measure 64
1000
0000
0001
0010
0001
0000
0100
0001
,  // measure 65
0100
0000
0001
0010
0001
0010
0100
0000
,  // measure 66
0000
1100
0000
1000
0010
0000
1000
0010
,  // measure 67
0100
0000
0010
0100
0001
0000
0010
0001
,  // measure 68
0100
0010
0000
1000
0010
0000
0100
0010
,  // measure 69
1000
0000
0001
1000
0010
0100
0001
0010
,  // measure 70
0100
1000
0000
0001
1000
0000
0100
1000
,  // measure 71
0001
0000
0010
0001
1000
0000
0010
0100
,  // measure 72
0001
0010
0000
0010
0001
0000
1000
0100
,  // measure 73
1000
0000
0010
1000
0100
0010
0002
0000
,  // measure 74
0000
0000
0103
0010
0100
0000
0001
0000
,  // measure 75
0011
0000
1000
0000
0010
0100
0010
0000
,  // measure 76
1000
0100
1000
0001
0100
0000
0010
0100
,  // measure 77
0001
0010
0001
0000
1000
0000
0100
0010
,  // measure 78
0100
0010
0100
1000
0001
0000
0100
0001
,  // measure 79
1000
0000
0010
1000
0001
0000
0010
0001
,  // measure 80
1000
0000
0010
0100
0010
0100
0010
0100
,  // measure 81
0010
0100
0001
1000
0001
1000
0002
0000
,  // measure 82
0000
0000
1003
0100
1000
0000
0010
1000
,  // measure 83
0010
0000
0100
0001
0100
0000
0001
0010
,  // measure 84
0001
0000
0010
0001
0100
0000
0010
1000
,  // measure 85
0100
0000
1000
0100
0001
0100
2000
0000
,  // measure 86
0000
0000
3001
0100
0010
1000
0000
1100
,  // measure 87
0000
1000
0001
0010
0001
0100
0010
0000
,  // measure 88
0100
0000
0001
0010
0100
1000
0000
1001
,  // measure 89
0000
0100
0010
0100
0001
1000
0100
0010
,  // measure 90
0001
0100
0020
0000
1000
0000
0230
0000
,  // measure 91
0001
0302
0010
2003
,  // measure 92
0100
3010
0110
0100
,  // measure 93
0001
0010
0001
0000
1000
0000
0001
1000
,  // measure 94
0100
0010
0001
0000
1001
0000
0100
0010
,  // measure 95
0100
0000
0001
1000
0100
1000
0002
0000
,  // measure 96
0000
0000
0013
0100
1000
0000
0010
0100
,  // measure 97
0001
0000
0010
0100
1000
0000
0010
1000
,  // measure 98
0100
1000
0001
0100
0001
0000
0010
0001
,  // measure 99
1000
0000
0010
1000
0100
0010
0002
0000
,  // measure 100
0000
0000
0103
0010
1000
0000
0100
1000
,  // measure 101
0010
0100
0001
0010
0100
0000
0010
0001
,  // measure 102
0100
0010
0110
1000
,  // measure 103
1001
0000
0001
0010
0100
1000
0001
0010
,  // measure 104
0100
1000
0020
0000
0000
0000
0000
0000
,  // measure 105
0030
0000
0000
0000
,  // measure 106
0000
2000
0000
0000
,  // measure 107
0000
3002
0000
0000
,  // measure 108
0000
2003
0000
0000
,  // measure 109
0000
3002
0000
0000
,  // measure 110
0000
0103
0010
0000
;

//---------------dance-single - ----------------
#NOTES:
     dance-single:
     :
     Hard:
     18:
     1.026165,1.223227,0.467397,0.180399,0.385398,876.000000,819.000000,57.000000,22.000000,0.000000,0.000000,1.026165,1.223227,0.467397,0.180399,0.385398,876.000000,819.000000,57.000000,22.000000,0.000000,0.000000:
// measure 0
0000
0000
0000
0000
,  // measure 1
0000
0000
0000
0000
,  // measure 2
2002
3003
0000
0000
0000
0000
0000
0000
0000
0000
0000
0000
0110
0000
0000
0000
0000
0000
0000
0000
0000
0000
0000
0000
0010
0000
0000
0000
0000
0000
0000
0000
0000
0000
0000
0000
1000
0000
0000
0000
0000
0000
0001
0000
0000
0000
0000
0000
,  // measure 3
0010
0100
0000
0100
0010
0001
1000
0100
,  // measure 4
0001
0000
0100
1000
0100
1000
0010
0100
,  // measure 5
0010
0100
0001
0010
0100
1000
0001
1000
,  // measure 6
0100
0000
1000
0010
1000
0010
0100
0001
,  // measure 7
0100
0001
0010
0001
1000
0100
0001
1000
,  // measure 8
0010
0000
0001
0100
0001
0100
0010
1000
,  // measure 9
0010
1000
0001
0010
1000
0001
0100
1000
,  // measure 10
0100
0000
1000
0010
1000
0010
0100
0001
,  // measure 11
0100
0001
0010
0001
0100
1000
0100
0010
,  // measure 12
1000
0100
0010
0000
0011
0000
0001
0100
,  // measure 13
0001
0010
0001
0000
0011
0000
0001
0010
,  // measure 14
0100
1000
0010
0100
0010
1000
0100
0000
,  // measure 15
1100
0000
1000
0010
0100
0010
1000
0100
,  // measure 16
0001
0100
1000
0010
0100
0010
1000
0001
,  // measure 17
0010
0001
0100
1000
0001
1000
0100
0001
,  // measure 18
0010
1000
0010
0001
0100
0010
1000
0010
,  // measure 19
0001
0000
0010
0000
1000
0000
0010
0100
0010
0000
1000
0000
0001
0000
0010
0000
,  // measure 20
0100
0000
1000
0000
1001
0000
0010
0100
0010
0000
0010
0100
0000
0100
0010
0100
,  // measure 21
0010
0100
0001
0000
1001
0000
0000
0000
1000
0000
0010
0000
0100
0000
0010
0000
,  // measure 22
0001
0000
0010
0000
0100
0000
0010
0000
1000
0000
0100
0000
0010
0000
0001
1000
,  // measure 23
0001
0000
0010
0000
0110
0000
1000
0001
1000
0001
0000
1001
0000
0110
0000
1001
,  // measure 24
0000
0001
0010
0100
1000
0000
0010
0000
1000
0000
0001
0000
0010
0000
0001
0000
,  // measure 25
0100
0000
0010
0000
1000
0000
0001
0000
0010
0000
0100
0000
1000
0000
0001
0100
,  // measure 26
0001
0000
0010
0000
0110
0000
1000
0100
1000
0100
0010
0100
1000
0010
0000
0010
,  // measure 27
0100
0001
0010
0001
0100
0000
0010
0000
1000
0000
0100
0000
0010
0000
0001
0000
,  // measure 28
0100
0000
0010
0000
1000
0000
0001
0000
0010
0000
0100
0000
1000
0000
0010
0100
,  // measure 29
0010
0000
1000
0000
1001
0000
0100
0010
0100
0010
0000
1010
0000
0101
0000
0001
,  // measure 30
0100
0010
1000
0100
0010
0000
0001
0000
0100
0000
0010
0000
1000
0000
0100
0000
,  // measure 31
0010
0000
0100
0000
1000
0000
0010
0000
0100
0000
0001
0000
0010
0000
0001
1000
,  // measure 32
0001
0100
0020
0000
0130
0001
0100
0010
,  // measure 33
0100
0010
1000
0000
1100
0000
1010
0000
,  // measure 34
1001
0000
0011
0000
0100
0001
0010
0001
,  // measure 35
0100
0010
0100
0001
0010
1000
0010
0001
,  // measure 36
1000
0100
0001
0100
1000
0010
0200
0000
,  // measure 37
0010
0010
0310
0000
0110
0000
1000
0010
,  // measure 38
0100
0010
1000
0001
0010
0000
0101
0000
,  // measure 39
1010
0000
0001
0100
0010
1000
0001
0010
,  // measure 40
1000
0001
1000
0010
0001
0100
0010
1000
,  // measure 41
0001
0011
0101
1001
,  // measure 42
1000
0010
0100
0010
1000
0100
1000
0010
,  // measure 43
0001
0010
1000
0001
0010
0100
2000
0000
,  // measure 44
0000
0000
3001
0010
1000
0000
1000
0010
,  // measure 45
0001
1000
0010
0001
0010
1000
0001
0010
,  // measure 46
0100
1000
0010
0100
0010
0100
0001
0010
,  // measure 47
0001
0000
0010
0000
0100
0000
1000
0000
0010
0000
0100
0000
0001
1000
0001
0000
,  // measure 48
0100
0010
0100
0010
0100
0000
0001
0000
0011
0000
1000
0010
0100
0010
1000
0000
,  // measure 49
1100
0000
0001
0000
0010
0000
0001
0000
0101
0000
1000
0001
0010
0001
1000
0000
,  // measure 50
0220
0330
0000
0000
1001
0000
0000
0000
0110
0000
0100
0000
0110
0000
0100
0000
,  // measure 51
0110
0010
0120
0000
0001
0000
2000
0000
,  // measure 52
3030
0000
0000
0000
0001
0010
0001
0000
1000
0100
1000
0000
0010
0100
0010
0000
,  // measure 53
1000
0100
1000
0000
0001
0000
0100
0000
1000
0000
0100
0000
0001
0000
0000
0000
,  // measure 54
0000
0011
0000
1000
0010
0100
0001
0000
,  // measure 55
0010
0100
1000
0010
0100
1000
0100
0010
,  // measure 56
0100
0001
0000
0010
0001
0100
0010
0001
,  // measure 57
0010
0100
0000
0001
0010
0100
1000
0010
,  // measure 58
0000
0110
0000
1000
0100
0000
0100
0010
,  // measure 59
0001
0100
0000
0100
0010
0001
0010
1000
,  // measure 60
0001
0010
0000
0010
0100
1000
0010
1000
,  // measure 61
0001
0010
0000
0010
0001
0000
1001
0100
,  // measure 62
0000
0110
0000
0010
1000
0001
0010
0000
,  // measure 63
0001
0100
0020
0130
2000
3001
0020
0130
,  // measure 64
0002
1003
0100
0010
0000
1001
0000
0010
,  // measure 65
0100
0010
0000
0010
1000
0001
0010
0001
,  // measure 66
0100
0020
0000
0130
0100
0010
0100
0001
,  // measure 67
0010
0001
1000
0100
1000
0010
0001
0010
,  // measure 68
1000
0001
0000
0010
0100
1000
0001
1000
,  // measure 69
0010
0100
1000
0100
0001
0010
0100
1000
,  // measure 70
0001
0100
0000
0010
1000
0000
0010
0100
,  // measure 71
0010
1000
0000
0100
0010
0001
0100
0010
,  // measure 72
0100
0001
0000
0001
1000
0100
0010
0001
,  // measure 73
0100
0010
0100
0000
0110
0000
2002
0000
,  // measure 74
3003
0000
0000
0000
0100
0001
0010
0000
0000
0000
0001
0000
0010
0000
0100
0000
,  // measure 75
1000
0010
1000
0100
0001
0100
1000
0010
,  // measure 76
0001
0000
0010
0000
1000
0000
0100
0010
0100
0000
1000
0000
0001
0000
0010
0100
,  // measure 77
0010
0000
0001
0000
0100
0000
0010
0000
1000
0000
0001
0000
0100
0000
0010
0100
,  // measure 78
0001
0000
1000
0000
0100
1000
0100
0000
1000
0000
0010
0000
0100
0000
0001
0000
,  // measure 79
0010
0000
0001
0000
0100
0010
0100
0000
0001
0000
0010
0000
0001
0000
0100
0000
,  // measure 80
0010
0000
0100
0000
0001
1000
0001
1000
0001
0000
0000
0000
1000
0001
1000
0001
,  // measure 81
1000
0000
0000
0000
0010
0100
0010
0100
0010
0000
0100
0000
0000
0000
0100
0000
,  // measure 82
1001
0000
0000
0000
0001
0010
0001
0000
1000
0100
1000
0000
0010
0100
0010
0000
,  // measure 83
1000
0100
1000
0000
0001
0010
0001
0000
0010
0100
0010
0000
0100
1000
0100
0000
,  // measure 84
1000
0010
1000
0000
0010
0000
0100
0000
0001
0000
0010
0000
0100
0000
1000
0000
,  // measure 85
0010
0100
0001
0010
0101
0000
0010
0100
,  // measure 86
1010
0000
1000
0100
1000
1100
0000
0011
,  // measure 87
0000
0000
1000
0000
0001
0000
0100
0000
0010
0000
0001
0000
0010
0100
0010
0100
,  // measure 88
0010
0000
0000
0000
0000
0000
1000
0000
0100
0000
0010
0000
0001
0000
0000
1001
0000
0000
0000
0000
0000
0110
0000
0000
,  // measure 89
0100
0000
0000
0000
0000
0000
0010
0000
0000
0100
0000
0000
0001
0000
0000
0000
0010
0000
0000
0000
0100
0000
0000
0000
1000
0000
0000
0000
0000
0000
0010
0000
0000
0000
0000
0000
0100
0000
0000
0000
0000
0000
0001
0000
0000
0000
0000
0000
,  // measure 90
1000
0000
0001
0000
0010
0100
1000
0000
0010
0000
0100
0000
0010
1000
0100
0000
,  // measure 91
0010
0001
0000
2002
0000
0000
0000
0000
3003
0000
0000
0000
0100
0000
0100
0000
,  // measure 92
0100
0100
0010
0100
0010
0000
1010
0000
,  // measure 93
0100
0001
0010
0100
1000
0000
1001
0000
,  // measure 94
0010
0000
0100
0001
0010
0000
0001
0000
1000
0000
0000
0000
1001
0000
0000
0000
,  // measure 95
0001
0000
0000
0010
0000
0000
0001
0000
0100
0000
0010
0000
1000
0000
0000
0000
0000
0000
2002
0000
0000
0000
0000
0000
,  // measure 96
3003
0000
0010
0100
0010
1000
0100
0010
,  // measure 97
0001
0100
0010
1000
0100
0001
0100
0100
,  // measure 98
0100
0100
1000
0010
0100
0000
0001
0010
,  // measure 99
0100
0000
0010
0001
1000
0000
0000
0000
1001
0000
0000
0000
0200
0000
0310
0000
,  // measure 100
0110
0000
0000
0000
0001
0000
0100
0010
0100
0000
0001
0000
0010
0000
0100
0000
,  // measure 101
1000
0000
0010
0000
1000
0000
0100
1000
0001
0000
0100
0000
0001
0000
0010
0100
,  // measure 102
1000
0010
0100
0001
0011
0000
1100
0000
,  // measure 103
1000
0000
0000
0000
0010
0000
0000
0000
0100
0000
0000
0000
0010
0000
0000
0000
0000
0000
1000
0000
0000
0000
0000
0000
0001
0000
0000
0000
0000
0000
0010
0000
0000
0000
0000
0000
0100
0000
0000
1000
0000
0000
0010
0000
0000
0100
0000
0000
,  // measure 104
0001
0010
0100
1000
0020
0000
0000
0000
0000
0000
0000
0000
0000
0000
0000
0000
,  // measure 105
0030
0000
0000
0000
,  // measure 106
0000
0000
0000
0100
0000
0010
0000
0100
0000
0001
0000
0010
,  // measure 107
0000
0001
0000
1000
0000
0100
0000
1000
0000
0001
0000
0010
,  // measure 108
0000
0000
0100
0000
0000
0000
1000
0000
0000
0001
0000
0000
0100
0000
0000
0010
0000
0000
1000
0000
0000
0001
0000
0000
,  // measure 109
0010
0100
1000
0001
0010
0100
1000
0001
,  // measure 110
1000
0100
0010
0001
0100
0000
0000
0000
;
