#TITLE:Ignited Night;
#SUBTITLE:;
#ARTIST:HHH;
#TITLETRANSLIT:;
#SUBTITLETRANSLIT:;
#ARTISTTRANSLIT:;
#GENRE:HEAT UP;
#CREDIT:;
#BANNER:Ignited_Night_banner.png;
#BACKGROUND:Ignited_Night.png;
#LYRICSPATH:;
#CDTITLE:;
#MUSIC:Ignited Night.ogg;
#OFFSET:-0.520000;
#SAMPLESTART:16.625999;
#SAMPLELENGTH:12.890000;
#LASTBEATHINT:228.500000;
#SELECTABLE:YES;
#BPMS:0.000000=149.000000
;
#STOPS:20.000000=0.805000,
38.000000=0.805000,
136.000000=0.805000,
154.000000=0.805000
;
#BGCHANGES:;
#KEYSOUNDS:;
#ATTACKS:;

//---------------dance-single - ----------------
#NOTES:
     dance-single:
     :
     Easy:
     4:
     0.209669,0.223647,0.129795,0.089858,0.000000,147.000000,134.000000,13.000000,9.000000,0.000000,0.000000,0.209669,0.223647,0.129795,0.089858,0.000000,147.000000,134.000000,13.000000,9.000000,0.000000,0.000000:
0000
0000
0000
0000
,
0000
0000
0000
0000
,
0000
0000
0000
0000
,
0100
0000
0100
0000
,
0010
0000
0010
0000
,
1001
0000
0001
0000
,
0010
0000
0001
1000
,
0001
0000
1000
0000
,
0010
0000
1000
0001
,
1000
0000
0110
0000
,
0001
0000
0001
0010
,
0100
0010
0002
0003
,
1000
0000
0010
0100
,
0010
1000
0002
0003
,
1000
0000
0100
0010
,
0001
0010
0200
0300
,
1000
0000
0001
0000
,
2002
0000
3003
0000
,
0010
0000
0010
0100
,
0001
0100
0010
0000
,
1000
0000
0100
1000
,
0001
1000
0100
0000
,
0010
0000
0010
0001
,
1000
0001
0010
0000
,
0001
0000
1000
0000
,
0220
0000
0000
0330
0000
0000
0000
0000
,
1000
0000
1000
0000
,
0100
1000
0100
0000
,
0001
0000
0001
0000
,
0010
0001
0010
0000
,
0001
0000
1000
0000
,
0100
0010
0100
0000
,
1001
0000
0010
0000
,
0110
0000
0100
0000
,
1001
0000
0010
0000
,
0100
0000
0010
0100
,
0001
0000
1000
0000
,
0100
0000
0010
0001
,
1000
0010
0110
0000
,
0000
0000
0000
0000
,
0100
0000
0010
0100
,
1000
0100
0010
0000
,
1000
0000
0100
0010
,
0001
0010
0100
0000
,
1001
0000
0010
1000
,
0100
1000
0010
0000
,
0100
0000
0001
0000
,
0220
0000
0330
0000
,
1000
0000
0010
0100
,
0010
1000
0100
0000
,
0010
0000
0001
0100
,
0001
1000
0100
0000
,
0010
0000
0100
1000
,
0001
0100
0010
0000
,
1000
0000
0001
0000
,
0110
0000
0110
0000
,
1001
0000
0000
0000
;

//---------------dance-single - ----------------
#NOTES:
     dance-single:
     :
     Medium:
     9:
     0.425043,0.455281,0.319495,0.289543,0.144771,298.000000,266.000000,32.000000,29.000000,0.000000,0.000000,0.425043,0.455281,0.319495,0.289543,0.144771,298.000000,266.000000,32.000000,29.000000,0.000000,0.000000:
// measure 0
0000
0000
0000
0000
,  // measure 1
1000
0000
0000
0001
0000
0000
1000
0000
,  // measure 2
0010
0100
0220
0330
,  // measure 3
0001
0000
0000
0010
0000
0000
0001
0000
1000
0000
0000
0000
0010
0000
0000
0000
,  // measure 4
1000
0000
0000
0100
0000
0000
1000
0000
0001
0000
0010
0000
0100
0000
0000
0000
,  // measure 5
0110
0000
1100
0000
,  // measure 6
0001
0100
1001
1010
,  // measure 7
2002
0000
0000
0000
3003
0000
0000
0000
0010
0000
0000
0001
0000
0000
0100
0000
,  // measure 8
0001
0000
0010
0000
0100
1000
0001
0000
,  // measure 9
1000
0000
0010
0000
0100
0000
0000
0000
2002
3003
0000
0000
0000
0000
0000
0000
,  // measure 10
0010
0000
0000
1000
0000
0000
0010
0000
1000
0000
0000
0000
0100
0000
0010
0000
,  // measure 11
0001
0000
1000
0001
0200
0000
0310
0000
,  // measure 12
0010
0000
0000
0100
0000
0000
0001
0000
0010
0000
0000
0000
0100
0000
1000
0000
,  // measure 13
0001
0000
0100
0010
2000
0000
3002
0000
,  // measure 14
0013
0000
0000
0100
0000
0000
0010
0000
0001
0000
0000
0000
1000
0000
0010
0000
,  // measure 15
0100
0000
0001
1000
0100
0000
1001
0000
,  // measure 16
0010
0000
0000
0001
0000
0000
0010
0000
0001
0000
1000
0000
0010
0000
0000
0000
,  // measure 17
0220
0000
0330
0000
,  // measure 18
1000
0000
0000
0100
0000
0000
1000
0000
0001
0000
0000
0000
0010
0000
0001
0000
,  // measure 19
1000
0000
0010
0100
0001
0000
1001
0000
,  // measure 20
1000
0000
0000
0010
0000
0000
0100
0000
0001
0000
0000
0000
0010
0000
0001
0000
,  // measure 21
1000
0000
0010
0100
0002
0000
2003
0000
,  // measure 22
3100
0000
0000
0010
0000
0000
0100
0000
1000
0000
0000
0000
0010
0000
1000
0000
,  // measure 23
0001
0000
0010
0001
1000
0000
0110
0000
,  // measure 24
0001
0000
0000
0100
0000
0000
0100
0000
0010
0000
0100
0000
0010
0000
0000
0000
,  // measure 25
1000
0100
0010
0001
0100
0000
1001
0000
,  // measure 26
0010
0000
0100
0010
0000
0100
0001
0000
,  // measure 27
0010
0000
0001
0010
0100
0000
1000
0000
,  // measure 28
0010
0000
1000
0010
0000
1000
0001
0000
,  // measure 29
0010
0000
0000
0100
0000
0000
0010
0000
0001
0000
0001
0000
0001
0000
0000
0000
,  // measure 30
1000
0000
0010
1000
0000
0100
1000
0000
,  // measure 31
0001
0000
0011
0000
1000
0001
0100
0000
,  // measure 32
0010
0000
0000
0010
0000
0000
0010
0000
0100
0000
0000
0100
0000
0000
0100
0000
,  // measure 33
0001
0010
0001
0010
0000
0000
0100
1000
0100
1000
0000
0000
,  // measure 34
2002
3003
0000
0000
0000
0000
0000
0000
0110
0000
0000
0000
0000
0000
0000
0000
,  // measure 35
1000
0000
0110
1001
,  // measure 36
0110
0000
1100
0000
,  // measure 37
0001
0000
0000
0000
0010
0000
0001
1000
,  // measure 38
0100
0000
0000
0000
1000
0000
0000
0000
0220
0330
0000
0000
0000
0000
0000
0000
,  // measure 39
2002
0000
3003
0000
,  // measure 40
0001
0000
0000
1000
0000
0000
0010
0000
1000
0000
0000
0000
0100
0000
0010
0000
,  // measure 41
0001
0000
0000
1000
0000
0000
0001
0000
0100
0000
0000
0000
0110
0000
0000
0000
,  // measure 42
0001
0000
0000
0010
0000
0000
0100
0000
1000
0000
0000
0000
0010
0000
0100
0000
,  // measure 43
0001
0000
0100
0010
2000
0000
3002
0000
,  // measure 44
1003
0000
0000
0100
0000
0000
0010
0000
0100
0000
0000
0000
1000
0000
0001
0000
,  // measure 45
0100
0000
0000
0010
0000
0000
1000
0000
0001
0000
0000
0000
0011
0000
0000
0000
,  // measure 46
1000
0000
0000
0001
0000
0000
0010
0000
0100
0000
1000
0000
0100
0000
0000
0000
,  // measure 47
1100
0011
0220
0330
,  // measure 48
0001
0000
0000
0100
0000
0000
0010
0000
1000
0000
0100
0000
1000
0000
0000
0000
,  // measure 49
0001
0000
0000
0100
0000
0000
0010
0000
1000
0000
0000
0000
1001
0000
0000
0000
,  // measure 50
0010
0000
0000
0001
0000
0000
1000
0000
0010
0000
0100
0000
0010
0000
0000
0000
,  // measure 51
1000
0000
0001
0010
0200
0000
0320
0000
,  // measure 52
0031
0000
0000
1000
0000
0000
0100
0000
1000
0000
0010
0000
0100
0000
0000
0000
,  // measure 53
0001
0000
0000
0010
0000
0000
0100
0000
1000
0000
0000
0000
1010
0000
0000
0000
,  // measure 54
0100
0001
0100
0000
0010
1000
0010
0000
,  // measure 55
1010
0011
2002
3003
,  // measure 56
0220
0000
0000
0000
,  // measure 57
0330
0000
0000
0000
;

//---------------dance-single - ----------------
#NOTES:
     dance-single:
     :
     Hard:
     14:
     0.676075,0.626011,0.329479,0.209669,0.554124,474.000000,441.000000,33.000000,21.000000,0.000000,0.000000,0.676075,0.626011,0.329479,0.209669,0.554124,474.000000,441.000000,33.000000,21.000000,0.000000,0.000000:
// measure 0
0000
0000
0000
0000
,  // measure 1
1001
0000
0010
0011
0000
0100
0100
0000
,  // measure 2
1010
0000
1001
0000
0010
0100
0110
0000
,  // measure 3
1000
0000
0100
1000
0000
0010
1000
0000
0001
0010
0001
0000
0200
0000
0000
0000
,  // measure 4
0301
0010
0100
1000
0000
0000
0010
1000
0100
0010
0001
1000
,  // measure 5
0020
0030
0000
0000
0000
0000
0000
0000
0000
0000
0000
0000
0110
0000
0000
0000
0000
0000
0001
0000
0000
0010
0000
0000
,  // measure 6
0001
0000
0000
1000
0000
0000
0100
0000
1100
0000
0000
0000
0101
0000
0000
0000
,  // measure 7
2200
0000
0000
0000
3300
0000
0000
0000
0001
0000
1000
0010
0000
1000
0100
0000
,  // measure 8
0010
0001
0010
0000
0200
0000
0000
0000
1300
0001
1000
0000
0001
0000
0010
0000
,  // measure 9
0001
1000
0001
0000
0100
0010
0100
0010
0100
0000
0000
0000
0000
0000
0000
0000
,  // measure 10
0001
0000
0010
0001
0000
1000
0001
0000
1000
0100
1000
0000
0010
0000
0100
0000
,  // measure 11
0001
0000
0010
0100
0000
1000
0100
0000
0010
0000
0000
0000
1100
0000
0000
0000
,  // measure 12
0010
0000
1000
0010
0000
0100
0010
0000
1000
0001
1000
0000
0001
0000
0010
0000
,  // measure 13
0001
0000
1000
0100
0010
0000
0100
0000
1000
0000
0100
0000
0001
0000
0100
0000
,  // measure 14
1000
0000
0010
1000
0000
0001
1000
0000
0001
0010
0001
0000
0100
0000
0010
0000
,  // measure 15
1000
0000
0010
0100
0000
0010
0001
0000
0010
0000
0000
0000
0101
0000
0000
0000
,  // measure 16
0010
0000
1000
0100
0000
1000
0001
0000
0100
0010
0100
0000
0001
0000
0010
0000
,  // measure 17
0100
1000
0200
0002
0300
0000
0103
0000
,  // measure 18
1000
0000
0001
0010
0000
0001
1000
0000
0001
0010
0001
0000
1000
0000
0010
0000
,  // measure 19
1000
0000
0001
0010
0000
0001
1000
0000
0010
0000
0100
0000
0110
0000
0000
0000
,  // measure 20
0001
0000
1000
0100
0000
1000
0001
0000
1000
0100
1000
0000
0001
0000
0100
0000
,  // measure 21
0001
1000
0100
0000
1000
0000
0001
0000
1000
0000
0010
0000
0001
0000
0010
0000
,  // measure 22
1000
0000
0100
0010
0000
0100
1000
0000
0001
0100
0001
0000
0010
0000
0001
0000
,  // measure 23
1000
0000
0001
0010
0000
0001
1000
0000
0010
0000
0100
0000
0110
0000
0000
0000
,  // measure 24
0001
0000
1000
0010
0000
0001
0010
0000
1000
0100
0010
0000
0002
0000
0000
0000
,  // measure 25
1003
0100
0002
0200
0003
0000
0301
0000
,  // measure 26
0100
0000
1000
0000
0001
0000
0100
0000
0010
0000
0100
0010
0000
1000
0001
0000
,  // measure 27
0010
0000
0100
0000
1000
0000
0100
0000
0010
0001
0000
1000
0002
0000
0000
0000
,  // measure 28
0103
0000
0010
0000
1000
0000
0100
0000
0010
0000
0100
1000
0000
0100
0010
0000
,  // measure 29
0001
0000
0010
0100
0000
0100
0010
0000
0001
0000
1000
0000
1001
0000
0000
0000
,  // measure 30
0010
1000
0001
0020
0000
0100
0130
0000
,  // measure 31
1000
0000
0010
0000
0100
0000
0001
0000
0010
0000
0100
1000
0001
0000
0000
0000
,  // measure 32
0100
0000
0001
0010
0000
0001
0100
0000
0010
0000
1000
0100
0000
0010
0100
0000
,  // measure 33
1000
0100
0010
0001
0000
0000
0001
0010
0100
1000
0010
0100
,  // measure 34
0001
0000
0022
0033
,  // measure 35
2200
3300
1010
0011
,  // measure 36
2020
0000
3030
0000
0100
0001
1000
0100
,  // measure 37
1000
0010
0100
0000
0001
0000
0010
0000
0001
1000
0010
0000
0100
0000
0001
0000
,  // measure 38
1000
0000
0000
0001
0000
0000
0010
0000
0000
0000
0000
0000
0001
0000
0000
0000
0000
0000
1000
0000
0000
0000
0000
0000
0200
0000
0300
0000
0000
0000
0000
0000
0000
0000
0000
0000
0000
0000
0000
0000
0000
0000
0000
0000
0000
0000
0000
0000
,  // measure 39
0010
0100
0010
0100
0010
0100
0010
0100
0010
0000
0000
0000
1001
0000
0000
0000
,  // measure 40
0100
0000
0001
0010
0000
0001
1000
0000
0010
0100
0001
0000
1000
0000
0010
0000
,  // measure 41
0100
0000
0001
0010
0000
0100
1000
0000
0010
0000
1000
0000
1100
0000
0000
0000
,  // measure 42
0010
0000
0001
0100
0000
0010
1000
0000
0010
1000
0100
0000
0010
0000
0001
0000
,  // measure 43
1000
0000
0001
0010
0100
0000
0010
0000
0001
0000
0100
0000
1000
0000
0100
0000
,  // measure 44
0010
0000
1000
0100
0000
0100
0010
0000
0001
1000
0010
0000
0100
0000
0001
0000
,  // measure 45
1000
0000
0001
0100
0000
0010
1000
0000
0100
0000
0010
0000
0011
0000
0000
0000
,  // measure 46
0001
0000
1000
0100
0000
1000
0010
0000
1000
0100
0010
0000
0100
0000
1000
0000
,  // measure 47
1100
0101
0011
1010
,  // measure 48
0001
0000
0010
0100
0000
0100
0010
0000
0001
1000
0010
0000
0100
0000
0010
0000
,  // measure 49
1000
0000
0010
0100
0000
0100
0010
0000
1000
0000
0001
0000
0101
0000
0000
0000
,  // measure 50
1000
0000
0100
0010
0000
0010
0100
0000
1000
0001
0100
0000
0010
0000
0100
0000
,  // measure 51
0001
0010
0100
0000
0010
0000
0001
0000
1000
0000
0100
0000
0001
0000
0100
0000
,  // measure 52
1000
0000
0010
0100
0000
0001
1000
0000
0001
0010
0100
0000
1000
0000
0010
0000
,  // measure 53
1000
0000
0001
1000
0000
0100
0010
0000
0001
0000
1000
0000
1010
0000
0000
0000
,  // measure 54
0100
0000
0010
1000
0000
0001
0010
0000
0001
1000
0001
0000
0010
0000
0100
0000
,  // measure 55
1100
0011
1010
0101
,  // measure 56
2002
0000
0000
0000
,  // measure 57
3003
0000
0000
0000
;
