#TITLE:Ichi-Go! DX Pancake!;
#SUBTITLE:;
#ARTIST:梅干茶漬け;
#TITLETRANSLIT:;
#SUBTITLETRANSLIT:;
#ARTISTTRANSLIT:Umeboshi Chazuke;
#GENRE:;
#CREDIT:;
#BANNER:Ichi-Go!_DX_Pancake!_banner.png;
#BACKGROUND:Ichi-Go!_DX_Pancake!.png;
#LYRICSPATH:;
#CDTITLE:;
#MUSIC:Ichi-Go! DX Pancake!.ogg;
#OFFSET:-0.630000;
#SAMPLESTART:5.960000;
#SAMPLELENGTH:10.500000;
#SELECTABLE:YES;
#BPMS:0.000000=180.000000
,148.000000=90.000000
,150.000000=180.000000
;
#STOPS:
;
#BGCHANGES:;
#KEYSOUNDS:;
#ATTACKS:;

//---------------dance-single - ----------------
#NOTES:
     dance-single:
     :
     Easy:
     7:
     0.318119,0.360500,0.075344,0.192546,0.000000,266.000000,257.000000,9.000000,23.000000,0.000000,0.000000,0.318119,0.360500,0.075344,0.192546,0.000000,266.000000,257.000000,9.000000,23.000000,0.000000,0.000000:
0000
0000
0000
0000
,
0000
0000
0000
0000
,
0000
0000
0000
0000
,
0000
0000
0000
0000
,
1000
0010
1000
0100
,
0010
0001
0010
0000
,
0001
0100
0010
1000
,
0100
1000
0001
0000
,
0010
0001
1000
0001
,
0100
0010
1000
0000
,
2200
0000
3300
0000
,
0001
0100
0020
0030
,
1000
0100
0001
0100
,
1000
0010
0100
0000
,
0001
0010
1000
0010
,
0001
0100
0010
0000
,
0100
0001
1000
0010
,
1000
0100
0010
0000
,
0022
0000
0033
0000
,
1000
0100
0020
0030
,
0001
0100
0010
0100
,
0001
1000
0001
0000
,
1000
0100
0010
0100
,
1000
0001
0100
0000
,
0010
1000
0001
1000
,
0100
0010
0100
0000
,
0010
0001
1000
0001
,
0100
0010
1000
0000
,
0001
0001
1000
0100
,
0010
0100
1000
0000
,
0010
0100
0001
0100
,
0010
1000
0100
0000
,
1000
0000
0001
0000
,
0100
0100
0010
0000
,
1000
0001
0010
0100
,
0010
0001
1000
0000
,
0010
0100
0001
1000
,
2002
3003
0010
1000
,
0001
0010
0100
0010
,
0001
0000
0220
0000
,
0330
0000
1000
0001
,
0010
0100
0010
0001
,
0010
0100
1000
0001
,
1000
0000
0010
0100
,
0001
1000
0100
0010
,
0001
0000
0100
0010
,
1000
0010
0100
0001
,
1000
0000
2002
0000
,
3003
0000
0010
0010
,
0010
0000
2000
0000
,
3100
0000
0020
0000
,
0031
0000
0002
0000
,
0103
0000
0200
0000
,
0310
0000
0020
0000
,
1030
0000
2000
0000
,
3001
0000
0001
1000
,
0001
0000
0100
0010
,
0100
0010
2000
3100
,
1000
0100
0001
0100
,
1000
0000
0001
0100
,
1000
0100
0001
1000
,
0001
0000
0100
0010
,
0100
0001
0100
0010
,
1000
0100
1001
0000
,
0110
0000
0010
1000
,
0001
0010
0100
0000
,
0100
0000
0010
0000
,
0010
0000
1000
0000
,
1000
0000
0000
0000
0001
0000
0000
0001
,
0000
1000
0001
0010
,
0100
1000
0010
0100
,
0001
0000
1000
0100
,
0010
0001
0100
0010
,
1000
0000
0010
1000
,
0100
1000
0001
0010
,
0100
0000
0022
0000
,
0033
0000
1000
0010
,
0010
1000
0001
0100
,
0010
1000
0100
0001
,
0100
0000
1000
0010
,
0001
0010
1000
0001
,
1000
0000
0100
0001
,
0100
1000
0100
0001
,
0100
0000
2200
0000
,
3300
0000
0001
0010
,
0100
0000
1000
0100
,
0010
0100
0000
0000
0000
0000
0000
0000
;

//---------------dance-single - ----------------
#NOTES:
     dance-single:
     :
     Medium:
     12:
     0.590793,0.576801,0.192546,0.167431,0.100459,494.000000,471.000000,23.000000,20.000000,0.000000,0.000000,0.590793,0.576801,0.192546,0.167431,0.100459,494.000000,471.000000,23.000000,20.000000,0.000000,0.000000:
0000
0000
0000
0000
,
0000
0000
0000
0000
,
0000
0000
0000
0000
,
0000
0000
0000
0000
,
0001
0000
0010
0000
0001
0000
1000
0000
0010
0000
0000
0010
0000
0000
0010
0000
,
0100
0010
1000
0000
0001
1000
0100
0010
,
0001
0000
1000
0000
0100
0000
1000
0000
0001
0000
0000
0001
0000
0000
0001
0000
,
0100
0010
1000
0000
0001
1000
0010
0100
,
0001
0000
0010
0000
0100
0000
0000
0000
1000
0000
0000
1000
0000
0000
1000
0000
,
0010
0000
0000
0010
0000
0000
0010
0000
0100
0000
0001
0000
1000
0000
0100
0000
,
0020
0000
0000
0000
0030
0001
0001
0000
,
1000
0000
0010
0000
0100
0000
0010
0000
1000
0000
0000
0001
0000
0000
1000
0000
,
0010
0100
0001
0000
1000
0100
0010
0000
,
0001
0010
1000
0010
0001
0000
1001
0000
,
0100
0010
1000
0000
0001
0010
0100
0000
,
1000
0100
0001
0100
1000
0000
1001
0000
,
0010
1000
0001
0000
0100
0010
1000
0000
,
0001
0010
0100
1000
0002
0000
0103
0000
,
0010
0020
0000
0000
0030
1000
1000
0000
,
0001
0100
0010
1000
0000
0001
0010
0000
,
0200
0000
1300
0010
1000
0000
0001
0000
,
0100
0010
1000
0001
0000
0001
0010
0000
,
1100
0000
0000
0001
1000
0010
0100
0010
,
0000
1000
0001
0020
0000
0000
0031
0000
,
1000
0100
0010
0001
1000
0000
0010
0100
,
0000
0010
0100
0000
0001
1000
0001
0000
,
0010
0000
0010
0001
0010
0000
0100
1000
,
0100
0000
1000
0010
0100
0010
1000
0000
,
0001
0010
0001
0010
0100
1000
0100
0000
,
1000
0010
1000
0010
0100
0001
0010
0000
,
0001
0010
0100
1000
0010
0100
0001
0000
,
1000
0010
0100
0010
1000
0000
0011
0000
,
0001
0000
0000
0001
0000
0000
1000
0000
1000
0000
0000
0001
0000
0000
1000
0000
,
0010
0000
0000
0010
0000
0000
0220
0000
0000
0000
0000
0000
0330
0000
0000
0000
,
1000
0001
0010
0100
0010
0000
0001
0000
,
0100
0010
1000
0000
0001
1000
0100
0000
,
0010
0100
1000
0001
0010
0100
1000
0000
,
0202
0000
0303
0000
0010
1000
0001
0010
,
0100
1000
0001
0000
1000
0010
0100
0000
,
0010
1000
0001
0010
0200
0000
0000
0000
,
0300
1000
1000
0000
0100
0010
0001
1000
,
0001
0000
0000
0100
0000
0000
0000
0000
0010
0000
1000
0000
0001
0000
0000
0000
,
0100
0001
1000
0000
0010
1000
0100
0010
,
0001
0000
0101
0000
1000
0100
0010
0000
,
0001
1000
0010
0000
0100
0001
0100
1000
,
0100
0000
0110
0000
1000
0100
0010
0000
,
0100
0010
0001
0000
0001
0100
0010
1000
,
0100
0010
0100
0000
2000
0000
0000
0000
,
3000
0001
0001
0000
0010
0100
0010
0100
,
1000
0000
0000
0000
0000
0001
0000
0000
0100
0000
0000
0000
0100
0000
0000
0000
,
0100
0010
0100
0000
0001
0000
0001
0000
,
0001
0010
0001
0000
1000
0000
1000
0000
,
1000
0100
1000
0000
0010
0000
0010
0000
,
0010
0100
0010
0000
0101
0000
0010
0000
,
1000
0100
1000
0000
1010
0000
0100
0000
,
0001
0010
0001
0000
1010
0000
0101
0000
,
1100
0000
0011
0000
1000
0010
1000
0010
,
0100
0001
0100
0000
0002
0000
0013
0100
,
1000
0010
0100
0000
0020
0000
1030
0001
,
1000
0010
0100
0000
0002
0000
1003
0100
,
0010
0100
1000
0000
0002
0000
1003
0010
,
0100
0010
1000
0000
0001
1000
0100
0010
,
0001
1000
0001
0000
0100
0010
1000
0001
,
0010
0100
1000
0000
0001
1000
0010
0100
,
0001
0010
0100
1000
0010
0000
0110
0000
,
0100
0000
0000
0000
0110
0000
0000
0000
0001
0000
0000
0002
0000
0000
0000
0000
,
0000
0000
1000
0000
1003
0000
0000
0000
1000
0000
0000
2000
0000
0000
0000
0000
,
0000
0000
0001
0000
3001
0000
0000
0000
0100
0000
0000
0120
0000
0000
0000
0000
,
0000
0000
0100
0000
0130
0000
0000
0000
0001
0000
0000
1000
0000
0000
1001
0000
,
0000
0100
0010
0000
1000
0100
0010
0000
,
0001
0100
0010
0000
1000
0010
0001
0010
,
1000
0000
1001
0000
0001
0010
0100
0000
,
0010
0100
1000
0000
0001
0100
1000
0100
,
0001
0000
1001
0000
0100
0010
1000
0000
,
0010
0100
0001
0000
0010
0100
1000
0001
,
0100
0010
0001
0000
0020
0000
0000
0000
,
0000
0100
0130
0000
0001
1000
0100
0010
,
0100
0000
0000
1000
0000
0000
0000
0000
0001
0000
0000
0010
0000
0000
0100
0000
,
1000
0000
0000
0010
0000
0000
0100
0000
0001
0000
1000
0000
0100
0000
0010
0000
,
0100
0000
0000
0000
0110
0000
0000
0000
1000
0000
0000
0010
0000
0000
0100
0000
,
0001
0000
0000
0010
0000
0000
0100
0000
0010
0000
0001
0000
1000
0000
0100
0000
,
0010
0000
0000
0000
1001
0000
0000
0000
0010
0000
0000
0100
0000
0000
0100
0000
,
0001
0000
0000
0010
0000
0000
0100
0000
1000
0000
0010
0000
0100
0000
0001
0000
,
0010
0100
1000
0000
0020
0000
0000
0000
,
0030
0000
0100
0000
0100
0000
0000
0000
0001
0000
0010
0000
0001
0000
0000
1000
,
0000
0000
0010
0000
0100
0000
0010
0000
0000
1000
0000
0000
0000
0001
0000
0000
,
0000
0110
0000
0000
0000
0000
0000
0000
;

//---------------dance-single - ----------------
#NOTES:
     dance-single:
     :
     Hard:
     17:
     0.876622,0.905175,0.192546,0.083716,0.774370,733.000000,710.000000,23.000000,10.000000,0.000000,0.000000,0.876622,0.905175,0.192546,0.083716,0.774370,733.000000,710.000000,23.000000,10.000000,0.000000,0.000000:
// measure 0
0000
0000
0000
0000
,  // measure 1
0000
0000
0000
0000
,  // measure 2
0000
0000
0000
0000
,  // measure 3
0000
0000
0000
0000
,  // measure 4
1000
0010
0100
0000
0010
0000
0100
0000
0001
0000
0010
0100
0000
0100
0010
0000
,  // measure 5
0001
0000
0010
0000
0100
1000
0000
0001
0000
0000
0100
0000
0010
0000
1000
0000
,  // measure 6
0010
0100
0001
0000
1000
0000
0100
0000
0010
0000
0100
1000
0000
1000
0001
0000
,  // measure 7
0100
0000
0010
0000
1000
0001
0000
0010
0000
0000
0100
0000
1000
0000
0001
0000
,  // measure 8
0100
0010
1000
0000
0001
0000
0010
0000
0100
0000
1000
0001
0000
0001
1000
0000
,  // measure 9
0010
0000
0100
0000
0001
0010
0000
0100
1000
0000
0010
0000
0100
0000
0001
0000
,  // measure 10
2000
0000
0000
0000
3010
0100
0010
0100
0000
0000
0001
0000
1000
0000
0000
0000
,  // measure 11
0001
0010
0000
0100
0000
1000
0000
0100
0010
0000
0000
1100
0000
0000
0000
0000
,  // measure 12
0001
0100
0010
0000
1000
0000
0001
0000
1000
0000
0100
0010
0000
0010
0100
0000
,  // measure 13
1000
0000
0010
0000
0100
0001
0000
1000
0000
0000
0010
0000
0100
0000
0001
0000
,  // measure 14
1000
0100
0010
0000
0001
0000
1000
0000
0010
0000
0100
0001
0000
0001
1000
0000
,  // measure 15
0100
0000
0010
0000
0001
1000
0000
0001
0000
0000
0010
0000
0100
0000
1000
0000
,  // measure 16
0010
0100
0001
0000
1000
0000
0100
0000
0010
0000
0100
1000
0000
1000
0001
0000
,  // measure 17
0100
0000
0010
0000
1000
0001
0000
1000
0000
0100
0010
0000
0001
0000
0010
0000
,  // measure 18
0011
0000
0000
0000
1000
0100
1000
0100
0000
0000
0010
0000
0010
0000
0000
0000
,  // measure 19
0001
0000
1000
0000
0010
0000
1000
0001
0000
0100
0001
0000
0010
0000
0100
0000
,  // measure 20
1000
0010
1000
0002
0000
0013
0100
1000
,  // measure 21
0010
0100
0010
1000
0001
0010
1000
0010
,  // measure 22
0002
0000
1003
0100
0010
0100
1000
0020
,  // measure 23
0000
0130
0100
0001
1000
0100
0001
0100
,  // measure 24
1000
0000
0010
0100
0010
0000
1000
0000
0001
0000
0010
0000
0100
0000
1000
0000
,  // measure 25
0010
0100
0010
1000
0001
0010
1000
0001
,  // measure 26
0100
1000
0001
1000
0010
0001
1000
0100
,  // measure 27
0010
0100
0010
0100
0010
0000
1000
0000
0001
0000
0010
0000
0110
0000
0000
0000
,  // measure 28
1000
0000
0100
1000
0010
0000
0100
0000
0001
0000
0010
0000
0100
0000
0010
0000
,  // measure 29
0001
0000
1000
0010
0100
0000
0001
0000
1000
0000
0010
0000
0001
0000
0010
0000
,  // measure 30
0100
0010
1000
0001
0010
0100
0001
1000
,  // measure 31
0100
1000
0010
0001
0010
0001
1000
0100
,  // measure 32
0110
0000
0000
1001
0000
0000
0010
0000
1010
0000
0000
0011
0000
0000
0100
0000
,  // measure 33
1100
0000
0000
0011
0000
0000
0101
0000
0000
0000
0010
0000
0100
0000
0010
0000
,  // measure 34
1000
0001
0100
0000
0010
0000
1000
0000
0100
0000
0010
0001
0000
0001
1000
0000
,  // measure 35
0010
0000
0100
0000
0001
0010
0000
0100
0000
0000
1000
0000
0010
0000
0100
0000
,  // measure 36
0001
1000
0010
0000
0100
0000
0001
0000
1000
0000
0100
0010
0000
0010
0100
0000
,  // measure 37
1000
0000
0001
0000
0010
0100
0000
0110
0000
0000
1000
0000
0001
0000
1000
0000
0010
0000
0100
0000
0010
0000
0000
0000
1000
0000
0000
0000
0100
0000
0000
0000
,  // measure 38
0010
0000
0100
1000
0000
1000
0001
0000
0100
0000
0010
0000
1000
0001
0000
0010
,  // measure 39
0000
0000
0100
0000
1000
0000
0001
0000
1000
0000
0010
0000
0100
0010
0100
0010
,  // measure 40
0000
0000
1000
0000
0001
0000
0000
0000
0010
0001
0000
1000
0000
0100
0000
1000
,  // measure 41
0010
0000
0000
0110
0000
0000
0000
0000
0001
0010
0100
0000
1000
0000
0010
0000
,  // measure 42
0100
0000
0001
1000
0000
1000
0010
0000
0100
0000
0001
0000
0010
0100
0000
1000
,  // measure 43
0000
0000
0001
0000
1000
0000
0100
0000
0010
0100
1000
0000
0001
0000
0100
0000
,  // measure 44
0010
0000
1000
0100
0000
0100
0010
0000
0001
0000
1000
0000
0010
0100
0000
0001
,  // measure 45
0000
0000
0100
0000
0010
0000
0100
0000
0001
1000
0010
0000
1000
0000
0100
0000
,  // measure 46
0010
0000
0001
1000
0000
1000
0010
0000
0100
0000
0001
0000
1000
0100
0000
0010
,  // measure 47
0000
0001
1000
0000
0010
0000
0100
0000
0002
0000
0000
0000
0013
0100
1000
0100
,  // measure 48
0000
0000
1000
0000
1000
0000
0000
0000
0010
0000
0100
0000
0001
1000
0000
0001
,  // measure 49
0000
0100
0010
0000
0010
0200
0000
0000
0301
0000
0010
0000
0001
0000
1000
0000
,  // measure 50
0010
0000
0100
0010
0000
0100
0010
0000
1000
0000
0100
0000
1000
0000
0010
0000
,  // measure 51
0100
0000
0001
1000
0000
0001
0100
0000
0010
0000
1000
0000
0001
0000
0010
0000
,  // measure 52
0100
0000
1000
0001
0000
1000
0100
0000
0010
0000
0001
0000
1000
0000
0100
0000
,  // measure 53
1000
0000
0001
0010
0000
0001
1000
0000
0010
0000
0100
0000
0001
0000
0100
0000
,  // measure 54
0010
0000
1000
0100
0000
1000
0001
0000
0010
0000
0100
0000
0010
0000
0001
0000
,  // measure 55
1000
0000
0010
0100
0000
0001
1000
0000
0010
0000
0100
0000
0010
0000
0100
0000
,  // measure 56
0001
0000
0010
0100
0000
1000
0001
0000
1000
0000
0010
0000
0010
0100
0010
0000
,  // measure 57
1000
0000
0000
0101
0000
0000
0011
0000
0020
0000
0000
0000
0031
0000
1000
0000
,  // measure 58
0100
0000
1000
0010
0000
0100
0001
0000
1000
0000
0001
0000
0010
0000
0100
0000
,  // measure 59
0010
0000
0001
1000
0000
0001
1000
0000
0010
0000
0100
0000
0001
0000
1000
0000
,  // measure 60
0100
0000
0010
0100
0000
1000
0100
0000
0010
0000
0001
0000
1000
0000
0100
0000
,  // measure 61
0010
0000
0001
0100
0000
0010
0100
0000
0001
0000
1000
0000
0100
0000
1000
0000
,  // measure 62
0010
0000
0100
0001
0000
1000
0100
0000
0010
0000
0100
0000
1000
0000
0001
0000
,  // measure 63
1000
0000
0010
0100
0000
0001
0010
0000
0001
0000
0010
0000
0100
0000
1000
0000
,  // measure 64
0010
0000
0100
0000
0001
0000
1000
0000
0001
0010
0001
0010
0100
0000
1000
0000
,  // measure 65
0010
1000
0010
1000
0001
0000
0100
0000
0010
0000
0000
1010
0000
0000
0001
0000
,  // measure 66
0010
0000
1000
0000
0010
0000
0000
0000
0101
0000
0000
1001
0000
0000
1000
0000
,  // measure 67
0100
0000
0001
0000
0100
0000
1000
0000
0010
0000
0000
0110
0000
0000
1000
0000
,  // measure 68
0001
0000
0010
0000
0100
0000
0010
0000
0001
0000
0000
1100
0000
0000
0101
0000
,  // measure 69
0000
0000
0010
0000
0100
0000
0010
0000
1000
0100
0010
0000
0100
0000
1000
0000
,  // measure 70
0010
0000
0100
0001
0000
0001
1000
0000
0010
0000
0100
0000
0001
0010
0000
0100
,  // measure 71
0000
0000
1000
0000
0001
0000
0100
0000
0010
0100
0001
0000
1000
0000
0100
0000
,  // measure 72
0010
0000
0100
1000
0000
1000
0001
0000
0100
0000
0010
0000
1000
0001
0000
1000
,  // measure 73
0000
0100
0010
0000
0001
0000
1000
0000
0001
0010
0100
0000
0010
0000
0100
0000
,  // measure 74
1000
0000
0001
0100
0000
0100
0010
0000
1000
0000
0100
0000
0010
0100
0000
1000
,  // measure 75
0000
0001
0100
0000
0110
0000
0000
0000
1000
0000
0001
0000
1000
0100
0010
0001
,  // measure 76
0000
0000
0010
0000
0010
0000
0000
0000
0001
0010
0000
0100
0000
1000
0000
0010
,  // measure 77
0100
0000
0000
1001
0000
0000
0000
0000
0010
0100
0001
0000
1000
0000
0100
0000
,  // measure 78
0010
0000
0001
0100
0000
0100
0010
0000
1000
0000
0100
0000
1000
0001
0000
0010
,  // measure 79
0000
0100
1000
0000
0010
0000
0010
0000
0100
0001
1000
0000
0010
0000
0100
0000
,  // measure 80
0001
0000
0010
0100
0000
0100
0010
0000
0001
0000
1000
0000
0010
1000
0000
0001
,  // measure 81
0000
0010
0100
0000
1000
0000
1000
0000
0010
0100
0001
0000
0010
0000
0100
0000
,  // measure 82
1000
0000
0001
0100
0000
0100
0010
0000
1000
0000
0001
0000
0010
0100
0000
1000
,  // measure 83
0000
0010
0100
0000
0010
0000
1000
0000
0001
0000
0010
0000
0001
1000
0100
0010
,  // measure 84
0000
0000
0001
0000
0002
0000
0000
0000
1003
0000
0010
0000
0100
0010
0000
1000
,  // measure 85
0000
0001
0100
0010
1000
0000
0001
0000
1000
0100
0000
0001
0000
0100
0000
1000
,  // measure 86
0000
0022
0000
0000
0033
0000
0000
0000
;
