#TITLE:IN THE NAME OF LOVE;
#SUBTITLE:;
#ARTIST:Y&Co. feat. Erica;
#TITLETRANSLIT:;
#SUBTITLETRANSLIT:;
#ARTISTTRANSLIT:;
#GENRE:EUROBEAT;
#CREDIT:;
#BANNER:IN_THE_NAME_OF_LOVE_banner.png;
#BACKGROUND:IN_THE_NAME_OF_LOVE.png;
#LYRICSPATH:;
#CDTITLE:;
#MUSIC:IN THE NAME OF LOVE.ogg;
#OFFSET:-0.550000;
#SAMPLESTART:49.700001;
#SAMPLELENGTH:12.300000;
#LASTBEATHINT:264.000000;
#SELECTABLE:YES;
#BPMS:0.000000=155.000000
;
#STOPS:
;
#BGCHANGES:;
#KEYSOUNDS:;
#ATTACKS:;

//---------------dance-single - ----------------
#NOTES:
     dance-single:
     :
     Easy:
     5:
     0.253220,0.273537,0.148485,0.055682,0.000000,191.000000,175.000000,16.000000,6.000000,0.000000,0.000000,0.253220,0.273537,0.148485,0.055682,0.000000,191.000000,175.000000,16.000000,6.000000,0.000000,0.000000:
0000
0000
0000
0000
,
0000
0000
0000
0000
,
0000
0000
0000
0000
,
0000
0000
0000
0000
,
0010
0000
0010
0000
,
0100
0000
0100
0000
,
0001
0010
0100
1000
,
2002
0000
3003
0000
,
0010
1000
0010
0000
,
0100
0001
0100
0000
,
0001
0010
0001
0000
,
1000
0010
1010
0000
,
0100
0010
0100
0000
,
0001
0010
0001
0000
,
1000
0010
1000
0000
,
0010
0000
0000
0010
0000
0000
0010
0000
,
1000
0100
0010
0000
,
0100
0000
0011
0000
,
0100
0010
1000
0000
,
0001
0000
1100
0000
,
0001
0100
0100
0000
,
1000
0010
0010
0000
,
0100
0000
0010
0000
0220
0000
0000
0330
,
0000
0001
0000
1000
,
1000
0100
1000
0000
,
0001
0010
0001
0000
,
0100
0010
0110
0000
,
1000
0000
0000
0001
0000
0000
1000
0000
,
0010
0100
0010
0000
,
1000
0001
1000
0000
,
1000
0000
0000
0000
0100
0000
0000
0010
,
0000
0000
0000
0000
,
0001
0010
0100
0000
,
1000
0001
1001
0000
,
1000
0010
0100
0000
,
0001
0100
0110
0000
,
0001
0010
0010
0000
,
1000
0010
0010
0000
,
0100
0001
1000
0010
,
2000
0000
3001
0000
,
0001
0010
0100
0000
,
0010
0100
1100
0000
,
1000
0010
0100
0000
,
0010
0100
0101
0000
,
1000
0100
0100
0000
,
0001
0100
0100
0000
,
0020
0130
0110
0000
,
0001
0000
0000
1000
0000
0000
0000
0000
,
1000
0001
0100
0000
,
0001
1000
0010
0000
,
0100
0001
0100
0000
,
0010
1000
0010
0000
,
1000
0100
0010
0000
,
0100
0010
0001
0000
,
0100
0001
1000
0010
,
0110
0000
1001
0000
,
0010
0100
0010
0000
,
1000
1000
1000
0000
,
0001
0010
0100
0000
,
0001
0001
0001
0000
,
0100
0100
0100
0100
,
0010
1000
0001
0000
,
1001
0000
1001
0000
,
0100
0100
0100
0100
,
0010
0000
0100
0000
,
0010
0000
1001
0000
;

//---------------dance-single - ----------------
#NOTES:
     dance-single:
     :
     Medium:
     10:
     0.452084,0.458505,0.222727,0.306250,0.013920,341.000000,317.000000,24.000000,33.000000,0.000000,0.000000,0.452084,0.458505,0.222727,0.306250,0.013920,341.000000,317.000000,24.000000,33.000000,0.000000,0.000000:
0000
0000
0000
0000
,
0000
0000
0000
0000
,
0000
0000
0000
0000
,
0000
0000
0000
0000
,
1000
0000
0001
0100
0010
0100
0000
0110
,
0000
0010
1000
0100
0010
0001
0100
0000
,
0001
0000
0010
0000
0010
0000
0000
0000
0001
0000
0000
1000
0000
0000
0001
0000
,
2002
0000
0000
3003
0000
0000
0110
0000
,
0100
0001
0100
0010
0000
1000
0100
0010
,
0100
0000
1000
0001
0000
1000
0010
1000
,
0001
0000
0010
0001
0000
0100
0010
0100
,
0001
1000
0010
1000
0000
1000
0100
0000
,
1010
0000
0100
0001
0000
0001
0010
0001
,
1000
0010
1000
0100
0000
0100
0010
0000
,
0100
1000
0001
0100
0000
0100
0010
0000
,
0010
1000
0001
0010
0000
0010
0110
0000
,
0001
0000
1000
0000
0010
0100
0000
0100
,
0000
0001
0010
0100
1000
0001
1000
0000
,
0010
0000
1010
0000
0100
0001
0000
0001
,
0000
0010
0001
1000
0010
0100
0010
0000
,
1000
0100
0000
0010
0000
0001
0000
0100
,
0000
0010
0000
1000
0000
0001
0000
0010
,
0000
0100
0000
2002
0000
3003
0000
0010
,
0000
0100
0010
0000
1000
0001
0000
1000
,
0010
0100
0010
0000
2200
0000
3300
0000
,
0001
0000
0000
0000
0100
0000
0010
0000
0100
0000
0000
0001
0000
0000
0010
0000
,
0001
0100
0202
0303
,
0010
0000
1000
0001
0000
1010
0000
0000
,
0100
0000
0001
0000
0010
0001
1000
0000
,
0010
1000
0001
0100
0000
0100
0010
0000
,
1000
0000
1100
0000
0001
0010
0000
0022
,
0000
0000
0033
1000
,
0010
0100
0010
0100
0000
0001
0010
0001
,
0000
1000
0010
0000
0220
0000
0330
0000
,
0001
0010
0001
0010
0000
0100
1000
0100
,
0000
1000
0010
0000
0220
0000
0330
0000
,
1000
0010
0100
0001
0000
0001
0010
0000
,
0001
0100
0010
2000
0000
0000
3000
0000
,
0001
0100
0001
0100
0000
0010
0010
0000
,
1000
0100
0000
2200
0000
3300
0000
0000
,
0001
1000
0100
1000
0000
0001
0010
0001
,
0000
0010
0100
0000
2002
0000
3003
0000
,
0100
0010
1000
0010
0000
0100
0001
1000
,
0000
0100
0010
0000
2002
0000
3003
0000
,
0010
1000
0010
1000
0000
0001
0010
0000
,
0001
0010
0100
2000
0000
0000
3000
0000
,
0110
0000
0001
1000
0001
0000
0010
0000
,
0100
0010
0000
0220
0000
0330
0000
0000
,
0001
0010
0100
1000
0000
1000
0010
0000
,
0100
0001
0100
0010
0000
0010
1000
0000
,
0100
1000
0010
0100
0000
0100
0001
0000
,
0010
0001
0100
0010
0000
0010
1000
0000
,
0001
1000
0100
0010
0000
0001
1000
0000
,
0010
0100
0001
1000
0000
0100
0010
0000
,
0001
0010
0100
1000
0000
0010
0100
0000
,
0001
1000
0001
0100
0000
0100
0010
0000
,
1010
0000
0000
0000
0100
0000
0000
0010
0000
0000
0100
0000
0100
0000
0000
0000
,
0001
0001
0002
0000
0000
0000
0013
0000
,
0100
1000
0010
0100
0000
0010
0100
0000
,
0001
1000
0100
0000
0100
1000
0001
0000
,
0110
1001
0220
0330
,
1000
0001
0010
0100
0000
0100
0010
0000
,
0002
2003
3020
0230
,
0310
1000
0001
0010
0000
0010
0100
0000
,
1000
0100
0000
0010
0100
1000
0000
0001
,
0100
0010
0000
1000
0000
0202
0000
0303
;

//---------------dance-single - ----------------
#NOTES:
     dance-single:
     :
     Hard:
     15:
     0.764963,0.764176,0.464016,0.139205,0.654262,577.000000,527.000000,50.000000,15.000000,0.000000,0.000000,0.764963,0.764176,0.464016,0.139205,0.654262,577.000000,527.000000,50.000000,15.000000,0.000000,0.000000:
// measure 0
0000
0000
0000
0000
,  // measure 1
0000
0000
0000
0000
,  // measure 2
1001
0000
0000
0000
0000
0000
0000
0100
,  // measure 3
0000
0000
0110
0000
0000
0000
0100
0000
0000
0000
0100
0000
0001
0010
0100
0000
,  // measure 4
1000
0010
0100
0010
1000
0100
0010
0100
,  // measure 5
1000
0001
0010
0100
0010
0001
0100
0010
,  // measure 6
0100
0000
0001
0000
0001
0000
1000
0000
0010
0000
0100
0010
0000
0100
0010
1000
,  // measure 7
0002
0000
0003
1001
,  // measure 8
0100
0000
0010
0000
1000
0000
0100
1000
0000
0010
0100
0010
1000
0000
0001
0000
,  // measure 9
0010
0001
0010
0000
0001
0000
1000
0100
0000
1000
0000
0010
0000
1000
0000
0001
,  // measure 10
0010
0000
0100
0000
1000
0000
0010
0100
0000
0000
0010
0100
0010
0000
1000
0000
,  // measure 11
0001
0000
1000
0000
0100
0000
0010
0100
0000
1000
0000
0001
0000
0100
0000
0001
,  // measure 12
0010
0000
0100
0000
1000
0000
0010
0100
0000
0001
0010
0001
0100
0000
0010
0000
,  // measure 13
1000
0100
1000
0000
0001
0000
0010
0001
0000
0100
0000
0001
0000
1000
0000
0010
,  // measure 14
0100
0000
0010
0000
1000
0000
0100
0010
0000
0100
0010
0100
1000
0000
0001
0000
,  // measure 15
0100
0010
0100
0000
0001
0000
0010
0001
0000
1000
0000
0010
0000
0100
0010
0000
,  // measure 16
1000
0100
1000
0001
0100
0010
0000
0210
,  // measure 17
0000
0301
0010
0100
2000
0010
3010
0000
,  // measure 18
0101
0000
0010
1000
0001
0010
0100
0210
,  // measure 19
0000
0310
0001
1000
0020
0100
0130
0000
,  // measure 20
0001
0100
0000
0110
0000
0101
0000
1100
,  // measure 21
0000
1010
0000
1001
0000
0001
1000
0110
,  // measure 22
0000
0000
0010
0000
1000
0000
0001
0000
0010
0000
0100
1000
0001
0000
0200
0000
,  // measure 23
0000
0310
0110
0000
1000
1010
0000
0001
,  // measure 24
0010
0000
0001
0000
1000
0000
0010
0000
0100
0000
0001
0010
0001
0000
1000
0000
,  // measure 25
0100
0000
1000
0000
0010
0000
0100
0000
0001
0000
0010
0001
0000
1000
0001
1000
,  // measure 26
0010
0100
0110
0000
2100
0000
3001
0000
,  // measure 27
0011
0000
1001
1010
0000
0102
0000
0013
,  // measure 28
0100
0000
1000
0000
0010
0000
0100
0000
0001
0000
1000
0010
1000
0000
0001
0000
,  // measure 29
0010
0000
0100
0000
0010
0000
0001
1000
0000
0010
0100
0010
0100
0000
0001
0000
,  // measure 30
0011
0010
0110
0000
1100
1100
0000
1000
,  // measure 31
0001
1000
0000
1000
0010
0000
0010
0100
0000
0100
0001
0000
0001
0010
0001
0010
,  // measure 32
0100
1000
0010
0100
0000
0100
0010
1000
,  // measure 33
0001
1000
1100
0000
0201
0010
0310
0000
,  // measure 34
1010
1000
0001
0010
0001
1000
0010
0100
,  // measure 35
0010
1000
1001
0000
0210
0001
0301
0000
,  // measure 36
0001
0000
0010
0000
0100
0000
1000
0010
0000
0010
1000
0000
0001
0000
0100
0000
,  // measure 37
0010
0000
1000
0000
0100
0000
1000
0001
0000
0001
0010
0000
0100
0000
1000
0000
,  // measure 38
0001
1001
0100
0210
0000
0310
1000
0100
,  // measure 39
0010
0000
0110
0000
0000
0000
1001
0000
0000
0000
0100
0010
0100
0010
0100
0000
,  // measure 40
0001
0000
0010
0000
0100
0000
1000
0001
0000
0001
0010
0000
0001
0000
1000
0000
,  // measure 41
0010
0100
0101
0000
2010
0001
3001
0000
,  // measure 42
0011
0000
1000
0000
0100
0000
1000
0010
0000
0010
0100
0000
0001
0000
0010
0000
,  // measure 43
0100
1000
0101
0000
1020
0100
0130
0000
,  // measure 44
1000
0000
0001
0000
0010
0000
0001
1000
0000
0001
1000
0000
0010
0000
0100
0000
,  // measure 45
0001
0000
0010
0000
0001
0000
1000
0010
0000
0100
0001
0000
0010
0100
1000
0000
,  // measure 46
0001
0000
1001
0110
1001
0000
0110
0000
,  // measure 47
1100
0000
0101
0000
0000
0000
0011
0000
0000
0000
1000
0010
1000
0000
0001
0000
,  // measure 48
0010
0000
0001
0000
1000
0000
0100
1000
0000
0010
1000
0000
0001
0000
0010
0000
,  // measure 49
0001
0100
0001
0000
1000
0000
0010
1000
0000
0100
0000
1000
0000
0001
0000
0010
,  // measure 50
0001
0000
0100
0000
0010
0000
0100
0001
0000
0000
1000
0010
1000
0000
0001
0000
,  // measure 51
0010
0100
0010
0000
0001
0000
1000
0010
0000
1000
0000
0001
0000
0010
0000
0001
,  // measure 52
0100
0000
0010
0000
0100
0000
0001
0010
0000
0001
1000
0001
1000
0000
0010
0000
,  // measure 53
1000
0100
1000
0000
0001
0000
0010
0001
0000
0100
0000
0001
0000
0010
0000
0100
,  // measure 54
1000
0000
0010
1000
0010
0000
0100
0001
0000
0001
0010
0000
0001
1000
0001
0000
,  // measure 55
0100
0010
0100
0010
0100
0000
0001
0100
0000
0010
0000
1000
0000
0100
1000
0010
,  // measure 56
0100
0000
0001
0000
1000
0000
0010
0100
0000
0001
0010
0001
0010
0001
0010
0000
,  // measure 57
0001
1000
0001
0000
1000
0000
0010
0100
0000
0001
0000
0010
0000
0100
0000
1000
,  // measure 58
0010
0000
1000
0001
1000
0000
0010
0100
0000
0000
0010
1000
0010
1000
0010
0000
,  // measure 59
0100
0000
0001
0010
0001
0000
1000
0010
1000
0000
0001
0000
0101
0000
0000
0000
,  // measure 60
1000
0000
0010
0100
0010
0000
1000
0001
1000
0000
0001
0010
0001
1000
0010
0000
,  // measure 61
0100
0000
0001
0000
1000
0100
0000
1000
0000
0010
0000
0100
0000
0001
0000
0010
,  // measure 62
0001
0000
1000
0100
1000
0000
0001
0010
0001
0000
0100
0010
0100
0010
0100
0000
,  // measure 63
0001
1000
0010
1000
0001
0000
0100
0010
0000
1000
0000
0100
0000
0010
0001
0010
,  // measure 64
0100
1000
0000
1100
0001
0100
0000
0101
,  // measure 65
0010
1000
0000
1001
0000
0022
0000
0033
;
