#TITLE:Howling;
#SUBTITLE:;
#ARTIST:PON;
#TITLETRANSLIT:;
#SUBTITLETRANSLIT:;
#ARTISTTRANSLIT:;
#GENRE:NU RAVE;
#CREDIT:;
#BANNER:Howling_banner.png;
#BACKGROUND:Howling.png;
#LYRICSPATH:;
#CDTITLE:;
#MUSIC:Howling.ogg;
#OFFSET:-0.520000;
#SAMPLESTART:17.559999;
#SAMPLELENGTH:12.300000;
#LASTBEATHINT:277.495605;
#SELECTABLE:YES;
#BPMS:0.000000=155.000000
;
#STOPS:178.750000=0.387000,
191.000000=0.097000,
191.250000=0.097000,
191.500000=0.097000,
191.750000=0.097000,
208.000000=0.194000,
208.250000=0.194000
;
#BGCHANGES:;
#KEYSOUNDS:;
#ATTACKS:;

//---------------dance-single - ----------------
#NOTES:
     dance-single:
     :
     Easy:
     6:
     0.277967,0.306237,0.141510,0.150355,0.000000,220.000000,204.000000,16.000000,17.000000,0.000000,0.000000,0.277967,0.306237,0.141510,0.150355,0.000000,220.000000,204.000000,16.000000,17.000000,0.000000,0.000000:
0000
0000
0000
0000
,
0000
0000
0000
0000
,
0000
0000
0000
0000
,
0000
0000
0000
0000
,
0010
0001
1000
0100
,
1000
0001
0100
0000
,
0010
1000
0001
0010
,
2002
0000
0000
0000
,
0000
0000
0000
0000
,
3003
0000
0000
0000
,
0000
0000
0000
0000
,
0100
0010
1000
0001
,
0010
0100
1000
0000
,
0010
1000
0001
0010
,
0100
0100
0110
0000
,
1000
0100
0010
0001
,
1000
0010
0100
0000
,
0001
0100
0010
1000
,
0001
0001
0011
0000
,
2000
3010
2000
3010
,
2000
3010
1010
0000
,
0002
0013
0002
0013
,
0002
0013
0011
0000
,
1000
0001
0100
0010
,
0001
0010
0100
0001
,
1000
0100
0010
0100
,
1000
0001
1001
0000
,
0010
0010
0010
0010
,
0100
0001
1000
0100
,
1000
1000
1000
1000
,
0010
0100
0110
0000
,
0001
0100
0010
0100
,
0001
0010
0001
0000
,
1000
0100
0001
0100
,
1000
0010
0010
0000
,
0100
0000
0001
0000
,
1000
0000
1001
0000
,
0001
0000
0010
0000
,
0100
0000
1100
0000
,
1000
0010
1000
0000
,
0001
0010
0001
0000
,
1000
0001
0100
0010
,
1000
0001
0100
0010
,
1000
0100
0010
0001
,
1000
0000
0100
0000
0020
0030
0001
0000
,
0000
0011
0000
1001
,
0000
1100
0000
1000
,
0001
0010
0000
0002
,
0003
0000
0100
0010
,
0100
0001
1000
0100
,
0010
0000
0001
1000
,
0010
0100
0001
0010
,
0110
2000
0000
3010
,
1000
0002
0000
0013
,
0001
0100
0010
0100
,
0000
0001
1000
1001
,
0000
0020
0000
0130
,
0010
0200
0000
0310
,
0100
0001
1000
0100
,
0010
0001
0100
0110
,
0000
0001
0001
0010
,
0010
0100
0100
1000
,
1000
2000
0000
3000
,
0000
0010
0100
0010
,
0100
0010
0010
1000
,
1000
0001
0001
0100
,
0100
0001
0010
0100
,
1000
0001
1000
0100
,
0010
2002
0000
0000
,
0000
3003
0000
0000
;

//---------------dance-single - ----------------
#NOTES:
     dance-single:
     :
     Medium:
     10:
     0.499076,0.551227,0.300709,0.291865,0.044222,395.000000,361.000000,34.000000,33.000000,0.000000,0.000000,0.499076,0.551227,0.300709,0.291865,0.044222,395.000000,361.000000,34.000000,33.000000,0.000000,0.000000:
0000
0000
0000
0000
,
0000
0000
0000
0000
,
0000
0000
0000
0000
,
0000
0000
0000
0000
,
2000
0000
3010
0100
0020
0000
1030
0001
,
0020
0000
0130
1000
0002
0000
1003
0010
,
0100
0010
1000
0010
0100
0001
0010
0000
,
2002
0000
0000
0000
,
0000
0000
0000
0000
,
0000
0000
0000
0000
,
3003
0000
0000
0000
0100
0010
0100
0000
,
0012
0000
1003
0100
0020
0000
0031
1000
,
0020
0000
0130
0001
2000
0000
3010
0100
,
0002
0000
0013
0100
1000
0000
0010
0000
,
1000
0001
0100
0010
1000
0000
0110
0000
,
2010
0000
3001
0010
0200
0000
0310
0001
,
2000
0000
3010
0100
0002
0000
1003
0100
,
0010
0000
0001
1000
0010
1000
0001
0000
,
0100
0010
1000
0010
0100
0000
0101
0000
,
1010
1010
0101
0101
,
0011
0011
1100
1100
,
0001
0100
0001
1000
0100
0010
0001
0000
,
1000
0100
0010
0100
1000
0000
0001
0000
,
0110
0110
1100
1100
,
0101
0101
0011
0011
,
1000
0001
1000
0000
0001
0010
0100
0000
,
0010
0100
1000
0010
0100
0001
1000
0000
,
0010
0000
0100
0000
0010
0000
0000
0000
1000
0000
0000
0100
0000
0000
1000
0000
,
0001
0000
0010
0000
0001
0000
0000
0000
1000
0000
0000
0010
0000
0000
0100
0000
,
0001
0000
1000
0000
0001
0000
0000
0000
0010
0000
0000
0001
0000
0000
1000
0000
,
0100
0000
0010
0000
0100
0000
0000
0000
1000
0000
0000
0001
0000
0000
0100
0000
,
0010
0000
1000
0000
0010
0000
0000
0000
1000
0000
0000
0100
0000
0000
0010
0000
,
0001
0000
0100
0000
0010
0000
0000
0000
1000
0000
0000
0001
0000
0000
0010
0000
,
0100
0000
1000
0000
0001
0000
0000
0000
0010
0000
0000
0100
0000
0000
0010
0000
,
0001
1000
0010
0100
0010
1000
0001
0000
,
1001
0000
0100
0010
0100
0000
0001
0010
,
0001
0000
1000
0100
1000
0000
0001
0010
,
0100
0000
0100
0010
0001
0000
1000
0010
,
0100
0000
0100
0010
1000
0000
0101
0000
,
0010
1000
0100
0000
1000
0100
0010
0000
,
0100
0010
0001
0000
0001
1000
0100
0000
,
1000
0100
0001
0000
0001
0100
1000
0000
,
1000
0010
0001
0000
0001
0010
1000
0000
,
0001
0100
0001
1000
0100
1000
0001
0000
,
0100
0010
0100
0010
0100
0000
1001
0000
,
0000
0110
0000
0011
,
0000
1100
0000
0001
,
1000
0000
0000
0000
0010
0000
0000
0000
0100
0000
0000
0000
0001
0010
0100
1000
,
0010
0000
0110
0000
2100
0000
3001
0010
,
0002
0000
1003
0100
0020
0000
0130
1000
,
0002
0000
0103
0010
2000
0000
3010
0100
,
0002
0000
1003
0000
1000
0001
0010
0100
,
1000
0001
1000
0000
0020
0000
0000
0000
1030
0000
0100
0000
0020
0000
0000
0000
,
0031
0100
0020
0000
1030
0100
0020
0000
,
0031
1000
0020
0000
1030
0001
0100
0000
,
1001
0000
0010
0100
0001
0100
0010
0000
,
1001
0000
0200
0000
0310
1000
0200
0000
,
1300
0001
0200
0000
0310
1000
0200
0000
,
0310
0001
0020
0000
0031
1000
0010
0100
,
0001
0000
1000
0010
0100
0001
0010
0000
,
1100
0000
0001
0010
0001
1000
0001
0010
,
0001
0000
1000
0010
1000
0001
1000
0010
,
1000
0000
0010
0100
0010
1000
0001
1000
,
0100
0000
0010
0001
0010
0100
1000
0001
,
1000
0000
1001
0000
0010
0100
0010
1000
,
0001
0000
0010
0100
1000
0010
0100
0001
,
1000
0000
0010
0100
0001
1000
0100
0010
,
0100
0000
1000
0010
0100
0001
1000
0001
,
0010
0220
0000
0000
,
0000
0330
0000
0000
;

//---------------dance-single - ----------------
#NOTES:
     dance-single:
     :
     Hard:
     13:
     0.636796,0.643098,0.203421,0.442220,0.296287,504.000000,481.000000,23.000000,50.000000,0.000000,0.000000,0.636796,0.643098,0.203421,0.442220,0.296287,504.000000,481.000000,23.000000,50.000000,0.000000,0.000000:
// measure 0
0000
0000
0000
0000
,  // measure 1
0000
0000
0000
0000
,  // measure 2
1001
0000
0110
0000
,  // measure 3
0001
0010
0100
1000
0001
0000
1001
0000
,  // measure 4
0120
0000
1030
0100
0020
0000
0031
0100
,  // measure 5
0020
0000
1030
0100
2000
0000
3001
0010
,  // measure 6
0001
0000
1000
0000
0010
0000
0100
0000
0010
0000
1000
0001
1000
0000
0100
0000
,  // measure 7
0020
0001
0001
0001
,  // measure 8
0100
0100
0100
0100
,  // measure 9
1000
1000
0100
0100
,  // measure 10
0001
0000
0001
0000
0031
1000
0010
0100
,  // measure 11
0120
0000
1030
0100
0020
0000
0130
1000
,  // measure 12
0002
0000
1003
0010
0200
0000
1300
0100
,  // measure 13
0020
0000
1030
0100
0002
0000
0103
1000
,  // measure 14
0010
0100
0001
0010
0001
0000
1100
0000
,  // measure 15
2010
0000
3001
0010
0200
0000
0310
0001
,  // measure 16
2000
0000
3010
0001
0020
0000
0130
1000
,  // measure 17
0200
0000
0301
1000
0100
0001
0100
1000
,  // measure 18
0010
0000
0100
0000
0001
0000
1000
0000
0100
0000
0010
0100
0010
0000
0001
0000
,  // measure 19
1000
0000
0100
0000
1000
0010
0000
0010
0100
0000
0001
0000
0010
0100
0000
0100
,  // measure 20
0010
0000
0001
0000
1000
0010
0000
0010
0100
0000
0001
0000
1000
0100
0000
0100
,  // measure 21
1000
0000
0010
0000
0100
0001
0000
0001
0010
0000
0100
0000
1000
0010
0000
0010
,  // measure 22
1000
0001
1000
0010
0100
0000
1001
0000
,  // measure 23
0010
0000
0100
0000
0010
1000
0000
1000
0001
0000
0010
0000
0100
0010
0000
0010
,  // measure 24
0001
0000
1000
0000
0010
0100
0000
0100
0001
0000
1000
0000
0010
1000
0000
1000
,  // measure 25
0001
0000
0100
0000
0010
0100
0000
0100
0001
0000
1000
0000
0100
0010
0000
0010
,  // measure 26
0001
1000
0010
0100
0001
0010
1000
0010
,  // measure 27
0001
0000
0100
0000
0001
1000
0000
0000
0010
0000
0000
0110
0000
0000
1000
0001
,  // measure 28
0010
0000
0100
0000
0010
0000
0000
0000
0001
0000
0000
1100
0000
0000
0010
0100
,  // measure 29
0010
0000
1000
0000
0100
0000
0000
0000
1000
0000
0000
0101
0000
0000
0010
0100
,  // measure 30
0001
0000
0010
0000
0001
0000
0000
0000
1000
0000
0010
1000
0000
0010
1000
0000
,  // measure 31
0001
0000
0010
0000
0100
0000
1000
0000
0010
0000
0100
0001
0000
0100
0010
0000
,  // measure 32
1000
0000
0100
0000
0010
0000
0100
0000
1000
0000
0001
0010
0000
0001
0100
0000
,  // measure 33
0010
0000
1000
0000
0001
0000
1000
0000
0100
0000
0010
0001
0000
1000
0100
0000
,  // measure 34
1000
0000
0010
0000
0100
0000
0010
1000
0001
0000
0100
0000
0020
0000
0000
0000
,  // measure 35
2030
0000
3100
0100
0200
0000
0310
0010
,  // measure 36
0020
0000
0031
0001
0002
0000
0103
0100
,  // measure 37
0200
0000
0010
0010
0320
0000
0001
0001
,  // measure 38
0032
0000
0010
0010
0023
0000
1030
0000
,  // measure 39
1002
0000
0010
0010
0023
0000
0100
0100
,  // measure 40
0230
0000
1000
1000
2300
0000
3001
0000
,  // measure 41
0010
0100
0001
0100
1000
0100
0010
0001
,  // measure 42
0100
1000
0100
0010
1000
0001
0010
0100
,  // measure 43
1000
0010
0100
0001
0010
0001
1000
0010
,  // measure 44
0100
0000
0001
0000
1000
0000
0010
0000
1000
0001
1000
0001
0110
0000
0000
0000
,  // measure 45
1000
0000
0000
1000
0000
0000
2000
0000
0000
0000
0000
0000
3001
0000
0000
0010
0000
0000
0001
0000
0100
0000
0001
0000
,  // measure 46
1000
0010
0100
0001
0000
0000
1001
0000
0000
1200
0000
0000
,  // measure 47
0310
0000
0001
0000
0200
0000
0000
0000
0301
0000
0000
0000
2000
3020
0032
0203
,  // measure 48
0310
0000
0110
0000
1002
0000
0013
0100
,  // measure 49
2000
0000
3010
0001
0020
0000
0130
0001
,  // measure 50
2000
0000
3100
0010
0100
0001
1000
0010
,  // measure 51
0001
1000
0100
0001
0100
1000
0010
0001
,  // measure 52
0010
1100
0001
0000
0020
0000
0000
0000
0031
0000
0100
0000
2000
0000
0000
0000
,  // measure 53
3100
0010
2000
0000
3001
0010
2000
0000
,  // measure 54
3010
0000
0001
0000
1000
0000
0100
0000
1000
0000
0001
0000
0100
0000
0010
1000
,  // measure 55
0010
1000
0001
0010
0100
1000
0010
0000
,  // measure 56
0101
0000
2010
0000
3100
0001
0200
0000
,  // measure 57
1300
0010
0002
0000
0013
1000
0002
0000
,  // measure 58
0013
0000
1000
0000
0010
0000
0001
0000
1000
0000
0100
0000
1000
0000
0010
0100
,  // measure 59
0010
1000
0001
0010
0100
1000
0010
0100
,  // measure 60
0110
0000
0000
0000
0001
0000
0010
0000
0001
1000
0000
1000
0010
0000
0100
0000
,  // measure 61
0001
0000
0010
0000
0100
0000
1000
0000
0010
0100
0000
0100
0010
0000
1000
0000
,  // measure 62
0100
0000
0010
0000
0100
0000
1000
0000
0001
0010
0000
0010
0001
0000
1000
0000
,  // measure 63
0010
0100
0010
1000
0001
0010
0100
0000
,  // measure 64
1100
0000
0000
0000
1000
0000
0010
0000
0100
0001
0000
0001
0010
0000
0100
0000
,  // measure 65
1000
0000
0010
0000
0100
0000
0001
0000
1000
0010
0000
0010
0100
0000
1000
0000
,  // measure 66
0100
0000
0001
0000
0010
0000
0001
0000
1000
0100
0000
0100
1000
0000
0001
0000
,  // measure 67
0010
0000
1000
0000
0010
0000
0001
0000
1000
0010
0000
0010
0100
0000
0001
0000
,  // measure 68
1000
0010
0220
0000
0000
0000
0000
0000
,  // measure 69
0000
0330
0000
0000
;
