#TITLE:卑弥呼;
#SUBTITLE:;
#ARTIST:朱雀 VS 玄武;
#TITLETRANSLIT:Himiko;
#SUBTITLETRANSLIT:;
#ARTISTTRANSLIT:Suzaku VS Genbu;
#GENRE:ESOTERIC SPEEDCORE;
#CREDIT:;
#BANNER:Himiko_banner.png;
#BACKGROUND:Himiko.png;
#LYRICSPATH:;
#CDTITLE:;
#MUSIC:Himiko.ogg;
#OFFSET:-0.260000;
#SAMPLESTART:91.699997;
#SAMPLELENGTH:12.000000;
#LASTBEATHINT:406.502411;
#SELECTABLE:YES;
#DISPLAYBPM:82.500000:370.000000;
#BPMS:0.000000=185.000000
,103.000000=92.500000
,103.500000=185.000000
,120.500000=92.500000
,121.000000=185.000000
,140.000000=92.500000
,172.000000=185.000000
,247.000000=740.000000
,255.500000=93.000000
,256.000000=370.000000
,384.000000=88.000000
,392.000000=85.000000
,398.000000=82.500000
;
#STOPS:
;
#BGCHANGES:;
#KEYSOUNDS:;
#ATTACKS:;

//---------------dance-single - ----------------
#NOTES:
     dance-single:
     :
     Easy:
     11:
     0.423064,0.567860,0.074596,0.141732,0.007460,397.000000,387.000000,10.000000,19.000000,0.000000,0.000000,0.423064,0.567860,0.074596,0.141732,0.007460,397.000000,387.000000,10.000000,19.000000,0.000000,0.000000:
// measure 0
0000
0000
0000
0000
,  // measure 1
0000
0000
0000
0000
,  // measure 2
0000
0000
0000
0000
,  // measure 3
0000
0000
0000
0000
,  // measure 4
0000
0000
0000
0000
,  // measure 5
0000
0000
0000
0000
,  // measure 6
0001
0000
0010
0000
0100
1000
0100
0000
,  // measure 7
0010
0000
0100
0000
1000
0001
0100
0000
,  // measure 8
0010
0000
1000
0000
0001
1000
0010
0000
,  // measure 9
1000
0000
0001
0000
0100
0001
1000
0001
,  // measure 10
0010
0000
0001
0000
1000
0100
0010
0000
,  // measure 11
0010
0000
0100
0000
1000
0001
0010
0000
,  // measure 12
0100
0000
0010
0000
0100
1000
0001
1000
,  // measure 13
0001
0200
0000
0000
0310
0000
1000
0010
,  // measure 14
0100
0000
0001
0000
0100
0010
0100
0000
,  // measure 15
0001
0000
1000
0000
0001
1000
0010
0000
,  // measure 16
1000
0000
0100
0000
0010
0001
0100
0000
,  // measure 17
0010
0000
1000
0000
0010
1000
0001
1000
,  // measure 18
0010
0000
1000
0001
1000
0000
0100
0000
,  // measure 19
0010
0000
0001
1000
0001
0000
0100
0000
,  // measure 20
0010
1000
0010
0000
0100
0001
0100
0000
,  // measure 21
0001
0010
0100
1000
0010
0100
0001
0000
,  // measure 22
2000
0010
0000
0010
,  // measure 23
3002
0010
0000
0010
,  // measure 24
0203
0010
0000
0010
,  // measure 25
0320
0000
1000
0000
0000
0000
2030
3001
,  // measure 26
0000
1000
0000
0001
1000
0100
1000
0010
,  // measure 27
0000
0100
0000
0001
1000
0010
1000
0100
,  // measure 28
0000
0010
0000
0100
0010
0100
1000
0001
,  // measure 29
0000
0010
0000
0100
0000
1000
0001
1000
,  // measure 30
0010
2000
3001
0000
0010
0000
0100
0000
,  // measure 31
1000
0010
0100
0001
,  // measure 32
0010
0001
1000
0000
0010
0000
0100
0000
,  // measure 33
0010
0000
1000
0100
0010
0000
0001
0100
,  // measure 34
0010
0000
1000
0001
1000
0010
1000
0001
,  // measure 35
0200
0310
0002
1003
,  // measure 36
2000
0000
3010
0100
0010
0000
0100
0000
,  // measure 37
0001
0000
0010
0000
0100
0000
1000
0001
,  // measure 38
1000
0000
0010
0100
0010
0100
0010
0000
,  // measure 39
1001
0010
0001
0100
,  // measure 40
0010
0000
1000
0100
0010
0000
0011
0000
,  // measure 41
1000
0000
0010
0000
0110
0000
1000
0001
,  // measure 42
0010
0001
1000
1001
,  // measure 43
0010
0100
0010
0100
,  // measure 44
0001
1000
0001
1000
,  // measure 45
0001
0100
0010
1000
,  // measure 46
0001
0100
0010
1000
,  // measure 47
0100
0000
1000
0000
0010
0100
0010
0000
,  // measure 48
0100
0000
0001
0000
0100
0001
0010
0000
,  // measure 49
0001
0000
1000
0000
0010
0100
0010
0000
,  // measure 50
1000
0000
0010
0000
0100
0000
0001
0100
,  // measure 51
0010
0000
1000
0000
0001
1000
0001
0000
,  // measure 52
1000
0000
0010
0000
1000
0001
1000
0000
,  // measure 53
0010
0100
0010
0000
1000
0001
1000
0000
,  // measure 54
0011
0000
0001
0000
1000
0100
1000
0000
,  // measure 55
1010
0000
0001
0000
0100
0001
0100
0000
,  // measure 56
1010
0000
0010
0000
0010
1000
0010
0000
,  // measure 57
0101
0000
0100
0000
0100
0001
0100
0000
,  // measure 58
0001
0010
0001
0000
1000
0010
1000
0000
,  // measure 59
0001
0100
0001
0000
1000
0100
1000
0000
,  // measure 60
0001
0010
0100
1000
0100
0010
0100
0000
,  // measure 61
1000
0100
0001
0100
0010
0000
2002
0000
,  // measure 62
0000
0000
0000
0000
,  // measure 63
0000
0000
3003
0000
,  // measure 64
0010
0000
0100
0000
,  // measure 65
0001
1000
0010
0000
,  // measure 66
0100
0000
0001
0000
,  // measure 67
1000
0010
0100
0000
,  // measure 68
1000
0000
0001
0000
,  // measure 69
0100
0010
1000
0000
,  // measure 70
0010
0000
0100
0000
,  // measure 71
0002
0000
0000
0003
,  // measure 72
0010
0000
0001
0000
,  // measure 73
1000
0010
0100
0000
,  // measure 74
0010
0000
0100
0000
,  // measure 75
0001
1000
0100
0000
,  // measure 76
0010
0000
0100
0000
,  // measure 77
1000
0001
1000
0000
,  // measure 78
2002
0000
3003
0000
,  // measure 79
0010
0000
0010
0100
,  // measure 80
0010
0000
0100
0000
,  // measure 81
0001
1000
0100
0000
,  // measure 82
0010
0000
0001
0000
,  // measure 83
1000
0100
0010
0000
,  // measure 84
0001
0000
1000
0000
,  // measure 85
0100
1000
0001
0000
,  // measure 86
0100
0000
0010
0000
,  // measure 87
0100
0010
0100
0010
,  // measure 88
1000
1000
0000
0000
,  // measure 89
0001
0010
0001
0010
,  // measure 90
0001
0001
0000
0000
,  // measure 91
0100
0010
0100
0010
,  // measure 92
0100
0001
0100
0000
,  // measure 93
0010
1000
0010
0000
,  // measure 94
1000
0001
0010
0100
,  // measure 95
0010
0001
0100
0000
,  // measure 96
0001
1000
0100
0010
,  // measure 97
0002
0013
2000
3010
,  // measure 98
0100
0000
0000
0010
0100
0000
0000
0000
0001
0000
0000
1000
0100
0000
0000
0000
,  // measure 99
0010
0001
0010
0100
2000
0000
0000
0000
,  // measure 100
0020
0000
0000
0000
,  // measure 101
0000
0000
3030
0000
;

//---------------dance-single - ----------------
#NOTES:
     dance-single:
     :
     Beginner:
     9:
     0.321827,0.410276,0.052217,0.164111,0.000000,302.000000,295.000000,7.000000,22.000000,0.000000,0.000000,0.321827,0.410276,0.052217,0.164111,0.000000,302.000000,295.000000,7.000000,22.000000,0.000000,0.000000:
0000
0000
0000
0000
,
0000
0000
0000
0000
,
0000
0000
0000
0000
,
0000
0000
0000
0000
,
0000
0000
0000
0000
,
0000
0000
0000
0000
,
0001
0010
0100
1000
,
0010
0100
0001
1000
,
0100
0010
0001
0100
,
0010
1000
0100
1000
,
0001
0010
1000
0010
,
0100
0010
1000
0001
,
0100
0010
0100
0001
,
1000
0200
0000
0000
0310
0000
1000
0000
,
0010
0001
0100
0010
,
1000
0010
0001
0100
,
1000
0100
0010
0100
,
1000
0001
0010
0100
,
0010
0001
1000
0100
,
0010
1000
0001
0100
,
0010
0010
0001
0001
,
1000
1000
0100
0100
,
2000
0010
0000
0010
,
3002
0010
0000
0010
,
0203
0010
0000
0010
,
0320
0000
1000
0000
0000
0000
2030
3001
,
0000
1000
0000
0001
0000
0100
0000
0010
,
0000
0100
0000
1000
0000
0010
0000
0100
,
0000
0001
0000
0010
0000
0001
0000
1000
,
0000
0010
0000
0100
0000
0001
0000
1000
,
0000
2000
3001
0000
0010
0000
0100
0000
,
1000
0010
0100
0001
,
0010
0001
1000
0100
,
0010
0001
0100
0010
,
0001
0010
1000
0010
,
0200
0310
0002
1003
,
2000
3010
0010
0100
,
0001
0010
0100
1000
,
0001
0010
0110
0100
,
1001
0010
0001
0100
,
0010
1000
0010
0001
,
1000
0010
0110
1000
,
0001
0010
1000
1001
,
0010
0100
0010
0100
,
0001
1000
0001
1000
,
0001
0100
0010
1000
,
0001
0100
0010
1000
,
0100
1000
0010
0100
,
0010
1000
0100
1000
,
0001
0100
0010
0100
,
0001
0010
0001
0100
,
0010
1000
0001
1000
,
1000
0010
1000
0001
,
0010
0010
0100
0100
,
1000
1000
0001
0001
,
1000
0001
0100
0001
,
0010
0010
1000
1000
,
0100
0100
0001
0001
,
1000
0001
0100
0010
,
1000
0010
0100
0001
,
0001
1000
0100
0010
,
0100
1000
0001
2002
,
0000
0000
0000
0000
,
0000
0000
3003
0000
,
0010
0000
0100
0000
,
0001
0000
1000
0000
,
0100
0000
0010
0000
,
0002
0000
0000
0003
,
1000
0000
0010
0000
,
0100
0000
0010
0000
,
1000
0000
0001
0000
,
0002
0000
0000
0003
,
0010
0000
0001
0000
,
1000
0000
0100
0000
,
0010
0000
0100
0000
,
2000
0000
0000
3000
,
0010
0000
0100
0000
,
0001
0000
1000
0000
,
2002
0000
3003
0000
,
0010
0000
0010
0000
,
0110
0000
0100
0000
,
0001
0000
0100
0000
,
0010
0000
1000
0000
,
0010
0000
0001
0000
,
0010
0000
1000
0000
,
0100
0000
0001
0000
,
0100
0000
1000
0000
,
0010
0000
0010
0000
,
2000
0000
3000
0000
,
0001
0000
0001
0000
,
0020
0000
0030
0000
,
0100
0000
0100
0000
,
0010
0000
0010
0000
,
0001
0000
0001
0000
,
1000
0000
1000
0000
,
0010
0000
0100
0000
,
0001
1000
0100
0010
,
0002
0013
2000
3010
,
0100
0010
0001
1000
,
0010
0100
0002
0000
,
1003
0000
0000
0000
;

//---------------dance-single - ----------------
#NOTES:
     dance-single:
     :
     Medium:
     14:
     0.638326,1.097862,0.208868,0.193949,0.104434,599.000000,571.000000,28.000000,26.000000,0.000000,0.000000,0.638326,1.097862,0.208868,0.193949,0.104434,599.000000,571.000000,28.000000,26.000000,0.000000,0.000000:
0000
0000
0000
0000
,
0000
0000
0000
0000
,
0000
0000
0000
0000
,
0000
0000
0000
0000
,
0000
0000
0000
0000
,
0000
0000
0000
0000
,
0001
1000
0001
1000
0010
0100
0010
0100
,
0001
0010
0001
0100
0010
1000
0100
0000
,
1000
0010
1000
0010
0100
0001
0100
0001
,
0010
0001
0100
0010
1000
0100
0010
0000
,
0100
1000
0010
0100
0001
0010
0001
0100
,
0010
1000
0010
0001
0010
1000
0100
0000
,
1000
0100
0010
0001
0100
0010
1000
0100
,
0010
0020
0000
0000
0031
0000
1100
1000
,
0010
0100
0001
0100
0010
1000
0100
0000
,
1000
0010
0001
0010
0100
0010
1000
0000
,
0001
0100
1000
0100
0001
0010
0001
0000
,
1000
0010
1000
0001
0100
0010
0001
0000
,
0010
1000
0100
0001
0100
1000
0001
0000
,
0100
0010
1000
0100
0010
0001
1000
0000
,
0001
0010
0100
1000
0010
0100
0001
0000
,
1000
0000
0010
0000
0100
0000
0001
0000
1000
0001
1000
0000
0010
0000
0100
0000
,
0020
1000
1000
0000
1000
0000
1030
0000
,
0200
0001
0001
0000
0001
0000
0310
0000
,
0012
0010
0010
0000
0100
0000
0103
0000
,
0210
0000
0010
0000
0010
0000
0000
0000
0001
0000
0000
0000
0301
1000
0100
0000
,
1000
0010
0100
0001
0010
0100
0000
1000
,
0010
0100
0001
1000
0100
0010
0000
0100
,
1000
0010
0100
0001
0010
0001
1000
0100
,
0010
0001
0010
0100
1000
0001
1000
0010
,
0100
0000
0010
0100
0001
0000
1000
0000
0001
0000
1000
0000
0100
0000
1000
0000
,
0100
0010
0100
0010
0001
0010
0001
0010
,
0100
1000
0100
1000
0001
0010
0001
0010
,
0001
1000
0001
1000
0010
0100
0010
0100
,
0010
0000
0100
0000
0001
1000
0001
1000
0001
0000
0100
0000
0010
0000
1000
0000
,
0001
0021
0130
2100
,
3001
0000
0210
0010
0301
0000
1020
0000
,
0130
0000
2001
0000
3010
0000
0011
0001
,
2000
0000
0000
0000
3010
0000
0100
0000
0001
0000
0010
0100
1000
0000
0001
0000
,
1002
0103
0120
1030
,
2001
0000
3100
0010
0100
0010
0110
0000
,
0011
0000
1100
0000
1001
0100
0010
1000
,
0002
0000
0000
0000
0013
0000
0100
0000
1000
0000
0001
0000
0100
0010
0100
0010
,
1000
0001
1000
0001
0100
0010
0100
0010
,
1000
0100
1000
0100
0010
0001
0010
0001
,
1000
0100
0001
0100
1000
0100
0001
0100
,
1000
0010
0001
0010
1000
0010
0001
0010
,
0100
0001
0010
0001
0100
0001
0010
0001
,
1000
0100
0010
0100
1000
0100
0010
0100
,
1000
0001
1000
0010
1000
0001
1000
0010
,
0100
0010
1000
0010
0100
0010
1000
0010
,
0100
0001
1000
0010
0100
0001
1000
0010
,
1000
0100
0010
0001
1000
0100
0010
0100
,
1000
0100
1000
0100
0010
0001
0020
0000
,
0130
0010
0100
0010
0001
1000
0001
1000
,
0010
0100
0010
0100
0001
1000
0001
1000
,
0010
1000
0100
0010
0001
0100
0010
1000
,
0001
0100
1000
0100
0001
0010
1000
0010
,
0001
0100
0010
1000
0001
0100
0010
1000
,
0100
1000
0010
0100
0001
1000
0010
0100
,
0001
0010
0100
1000
0001
0010
0100
1000
,
0001
1000
0001
0000
1000
0000
0010
0000
0100
0000
0000
0000
0220
0000
0000
0000
,
0000
0000
0000
0000
,
0000
0000
0330
0000
,
0001
1000
0100
0010
,
0100
1000
0010
0100
,
0001
1000
0100
0001
,
0100
0010
0001
0010
,
0001
0100
1000
0100
,
0010
0100
0001
0010
,
0001
1000
0010
0100
,
0010
1000
0002
0000
,
0013
0100
1000
0010
,
0100
0001
0010
0001
,
1000
0100
0001
0100
,
1000
0010
0100
0000
,
0101
0000
0010
0000
,
1100
0000
0010
0000
,
1001
2002
3003
0000
,
0010
0000
0100
0010
,
0100
0001
1000
0010
,
0100
0001
0010
1000
,
0010
0001
1000
0100
,
0001
0100
1000
0010
,
0100
0001
0100
1000
,
0100
0001
0100
1000
,
0010
1000
0010
0001
,
0010
1000
0020
0000
,
0031
0011
0000
0000
,
1000
0000
0100
1000
0100
0000
1000
0000
,
1000
1100
0000
0000
,
0001
0000
0010
0001
0010
0000
0001
0000
,
1000
0001
1001
0000
,
0100
0010
0110
0000
,
1000
0010
0100
0001
,
0010
0000
0100
0000
1000
0001
1000
0000
,
0010
0010
0000
0100
0100
0000
0001
0001
1000
1000
0000
0010
0010
0000
0100
0100
,
0002
0010
0000
0010
0010
0000
1003
0000
2000
0100
0000
0100
0100
0000
3001
0000
,
0100
0010
1000
0010
0100
0000
1001
0000
0010
0100
0001
0100
0010
0000
1001
0000
,
1000
0000
0000
0010
0000
0000
0100
0000
0000
0010
0000
0000
1000
0000
0000
0001
0000
0000
0010
0000
0000
0000
0000
0000
0001
0000
0000
0000
0000
0000
0100
0000
0010
0000
1000
0000
0100
0000
0000
0000
0000
0000
0010
0000
0000
0000
0000
0000
,
2002
0000
0000
0000
,
0000
0000
3003
0000
;

//---------------dance-single - ----------------
#NOTES:
     dance-single:
     :
     Hard:
     17:
     0.871704,1.392671,0.268544,0.171570,0.630334,818.000000,782.000000,36.000000,23.000000,0.000000,0.000000,0.871704,1.392671,0.268544,0.171570,0.630334,818.000000,782.000000,36.000000,23.000000,0.000000,0.000000:
0000
0000
0000
0000
,
0000
0000
0000
0000
,
0000
0000
0000
0000
,
0000
0000
0000
0000
,
0000
0000
0000
0000
,
0000
0000
0000
0000
,
1000
0000
0010
0000
0100
0000
0010
0000
1000
0001
1000
0000
0010
0000
0100
0000
,
0001
0000
0010
0000
0100
0000
0010
0000
0001
1000
0001
0000
0100
0000
0010
0000
,
1000
0000
0001
0000
0010
0000
0001
0000
0100
0010
0100
0000
0010
0000
1000
0000
,
0001
0000
1000
0000
0010
0000
0100
0000
0001
1000
0001
1000
0010
0000
0100
0000
,
0001
0000
0100
0000
0010
0000
1000
0000
0001
0010
0100
0000
1000
0000
0010
0000
,
0100
0000
0010
0000
1000
0000
0001
0000
1000
0100
0010
0000
0001
0000
1000
0000
,
0010
0000
0100
0000
0001
0000
0010
0000
0100
1000
0010
0000
0100
0000
0001
0000
,
0010
0000
0220
0000
0330
0000
0000
0000
1001
0000
0000
0000
0001
0000
1000
0010
,
0100
0000
0001
0000
0010
0000
0100
1000
0010
1000
0100
0000
1000
0000
0000
0000
,
1001
0000
0001
0000
0010
0000
0100
1000
0010
1000
0100
0000
1000
0000
0000
0000
,
1001
0000
0001
0000
0010
0000
0001
0010
0100
0010
0001
0000
1000
0000
0000
0000
,
0110
0000
0010
0000
1000
0000
0001
0100
0010
0100
0001
0000
0010
0000
0100
0000
,
0010
0000
0100
0000
1000
0000
0010
0100
0001
0100
0010
0000
1000
0000
0001
0000
,
0010
0000
0001
0000
1000
0000
0010
1000
0100
1000
0010
0000
0100
0000
0001
0000
,
0010
0000
0010
0000
0100
0000
0100
1000
0010
0100
0010
0000
1000
0000
0001
0000
,
1001
0000
2002
0000
3003
0000
0010
0000
1000
0000
0001
0100
0010
0000
0100
0010
,
1000
0000
0100
0000
1000
0000
0001
1000
0000
0001
1000
0000
0001
0000
1000
0000
,
0001
0010
0001
0000
0010
0000
0001
0010
0000
0010
0001
0000
0010
0000
0001
0000
,
0100
0000
0010
0000
0100
0000
0010
1000
0000
0010
1000
0000
0100
0000
1000
0000
,
0001
0000
0010
0000
0100
0000
0000
0000
1000
0000
0000
0000
0010
0000
0100
0000
0000
0000
0010
0000
0000
0000
1000
0000
0100
0010
0001
0000
0010
0000
0000
0000
,
0001
0000
1000
0000
0010
0100
0000
0100
0010
0000
1000
0000
0001
0010
0100
0000
,
1000
0000
0010
0100
0000
0010
0100
0001
0010
0000
0001
0000
1000
0010
0100
0000
,
0010
0000
1000
0001
0000
0001
0010
0100
1000
0000
0010
0100
0000
0001
1000
0000
,
0100
0000
0010
0000
0001
1000
0000
0010
0100
0000
0001
0000
1000
0000
0010
0000
,
1000
0000
0000
0000
0001
1000
0001
0000
0100
0000
0000
0000
0010
0000
0000
0000
1000
0000
0000
0000
0001
0000
0010
0000
0000
0000
0100
0000
1000
0000
0000
0000
,
0010
0000
0010
0000
0100
0000
0001
0000
1000
0100
0000
1000
0010
0000
0100
0000
,
0001
0010
0000
0001
1000
0000
0100
0000
1000
0010
0000
0100
0001
0000
0010
0000
,
0001
1000
0000
0010
2000
0000
3100
0000
0100
0010
0100
0000
0020
0000
0031
0000
,
0001
0010
0001
0000
1000
0000
0010
0000
0010
0100
0000
0001
0010
0100
1000
0010
,
1000
0001
1200
0000
0301
1000
0021
0000
,
1030
0100
0011
0110
1100
0000
1001
0000
,
0110
0000
1100
0000
0101
0000
0011
1001
,
1100
0000
0000
0000
0010
0000
0100
0000
1000
0000
0001
1000
0001
0000
0100
0000
,
0010
1000
0100
1000
0010
1000
0100
1000
0001
0010
0001
0100
0001
0010
0100
0000
,
1000
0001
0010
0001
1000
0001
0010
0001
0100
0010
0100
0000
0120
0000
0000
0000
,
1030
0100
1000
0001
0100
0001
1000
0100
1000
0010
0100
0001
0100
0000
0110
0000
,
0020
0000
0000
0000
1030
0000
0100
0000
0021
0000
0100
0000
0130
1000
0001
1000
,
0010
0000
0100
0000
0010
1000
0001
0000
1000
0000
0010
0000
0100
0010
1000
0000
,
0100
0000
1000
0000
0001
1000
0100
0000
0010
0000
0100
0000
1000
0001
0100
0000
,
0010
0000
0100
0000
0001
0010
0100
0000
1000
0000
0100
0000
0010
0001
0100
0000
,
0010
0000
1000
0000
0010
0100
0010
0000
1000
0000
0001
0000
0100
0010
0100
0000
,
0001
0000
1000
0000
0010
0100
0001
0000
1000
0000
0010
0000
0100
0001
0010
0000
,
0100
0000
1000
0000
0010
0100
0001
0000
0010
0000
0100
0000
1000
0001
0010
0000
,
0001
0000
0010
0000
0100
1000
0100
0000
1000
0000
0010
0000
0100
0001
0100
0000
,
0010
0000
1000
0000
0010
0100
0001
0000
0010
0000
0100
0000
1000
0010
0100
0000
,
0001
0000
0100
0000
0010
1000
0100
0000
0010
0000
0001
0000
0010
0100
1000
0000
,
0001
0000
1000
0000
0100
0010
0001
0010
0100
0000
1000
0000
0110
0000
0000
0000
,
0001
0000
0010
0000
0100
0010
0001
1000
0010
0000
0100
0000
0010
0100
0010
0100
,
0010
0000
1000
0000
0010
0000
1000
0000
0001
0010
0100
0000
1000
0000
0010
0000
,
0100
0000
0010
0000
0100
0000
0010
0000
1000
0100
0010
0000
0001
0000
0010
0000
,
0001
0000
0100
0000
0001
0000
1000
0000
0100
1000
0010
0000
1000
0000
0001
0000
,
0100
0000
0010
0000
1000
0000
0001
0000
0010
0001
0100
0000
0010
0000
1000
0000
,
0001
0000
0001
0000
1000
0000
1000
0000
0100
0000
0100
0000
0010
0001
0010
0000
,
0001
0000
0001
0000
0100
0000
0100
0000
0010
0000
0010
0000
1000
0001
1000
0000
,
0010
0100
0001
0100
0010
0000
0100
0000
0001
1000
0100
1000
0001
0000
0100
0000
,
0010
0100
0010
0100
0001
0010
0100
0010
0001
0000
1000
0000
2002
0000
0000
0000
,
0000
0000
0000
0000
,
0000
0000
0000
0000
0000
0000
0000
0000
3003
0000
0000
0000
0000
0000
0000
0000
0000
0000
0000
0000
0000
0000
0000
0000
0000
0000
0000
0000
0010
0100
0010
0000
,
1000
0100
1000
0001
,
0010
0001
1000
0001
0100
0000
0010
0000
,
1000
0001
0100
0000
0001
0000
1000
0000
,
0100
1000
0001
1000
0010
0000
0100
0000
,
0001
0010
0100
0000
1000
0000
0010
0000
,
1000
0100
0010
0001
0100
0000
0010
0000
,
1000
0001
0010
0000
0001
0000
0010
0001
,
1000
0010
0100
0010
2000
0000
0000
0000
,
3001
0100
0010
0000
0100
0000
0001
0010
,
0001
1000
0001
0000
0010
0000
0100
0000
,
1000
0010
0100
0000
0010
0000
1000
0010
,
1000
0001
1000
0000
0001
0000
0100
0000
,
0110
0001
1000
0000
,
0110
1000
0001
0010
,
0110
2002
3003
0100
,
0110
0000
0000
0000
0001
1000
0001
0000
,
0100
0010
1000
0000
0010
0000
0100
0010
,
1000
0010
0100
0000
0001
0000
0010
0000
,
0001
0010
0100
0000
1000
0000
0010
1000
,
0001
1000
0010
0000
0100
0000
0001
0000
,
0010
0100
1000
0000
0010
0000
0100
0001
,
0100
0010
1000
0000
0001
0000
0010
0001
,
0100
0000
0010
1000
0100
0000
1000
0010
,
0100
0001
0010
0100
1000
0010
0100
0001
,
0010
0000
0220
0000
0000
0300
0000
0000
,
0130
0000
1000
0010
0100
0000
0001
1000
,
0010
0000
0220
0000
0000
0030
0000
0000
,
0301
0000
0010
1000
0100
0000
0010
0001
,
1000
0001
0010
0000
0100
0000
1000
0010
,
0100
0000
0001
0000
0010
0100
1000
0000
,
0010
0100
0001
0100
0010
1000
0010
1000
,
0100
0010
0001
0100
0020
0000
0000
0000
,
0130
0100
0000
0010
1000
0100
0000
0001
0100
1000
0000
0010
0001
0000
0110
0100
,
0001
0010
0000
0010
0001
0000
1000
0100
0010
0010
0000
0001
1000
0000
0110
0010
,
1000
1000
0000
0001
0100
0000
0101
0001
0010
0010
0000
0100
0100
0000
1100
1000
,
0001
0000
0000
0100
0000
0000
0010
0000
0000
0100
0000
0000
0001
0000
0000
1000
0000
0000
0100
0000
0000
0010
0000
0000
0011
0000
0000
0000
0000
0000
0100
0000
1000
0000
0001
0000
1000
0000
0000
0001
0000
0000
0100
0000
0000
0020
0000
0000
,
2000
0000
0000
0030
0000
0000
3001
0100
0010
1000
0100
0010
0001
0010
1000
0010
0001
0100
0010
1000
0100
0010
0001
0000
;

//---------------dance-single - ----------------
#NOTES:
     dance-single:
     :
     Challenge:
     135:
     1.092294,1.430901,0.492332,0.216328,1.040610,1025.000000,959.000000,66.000000,29.000000,0.000000,0.000000,1.092294,1.430901,0.492332,0.216328,1.040610,1025.000000,959.000000,66.000000,29.000000,0.000000,0.000000:
0000
0000
0000
0000
,
0000
0000
0000
0000
,
0000
0000
0000
0000
,
0000
0000
0000
0000
,
0000
0000
0000
0000
,
0000
0000
0000
0000
,
1000
0010
0100
0000
0010
0000
1000
0000
0001
0010
0100
0000
1000
0000
0001
0000
,
0100
0010
1000
0000
0001
0000
0010
0000
0001
0100
0010
0000
1000
0000
0100
0000
,
1000
0001
0100
0000
0010
0000
1000
0000
0001
1000
0100
0000
1000
0000
0010
0000
,
0100
0001
1000
0000
0010
0000
1000
0000
0001
1000
0010
1000
0001
0000
0100
0000
,
0010
0100
0001
0000
1000
0000
0100
0000
1000
0010
0100
0000
0001
0000
1000
0000
,
0001
0010
0100
0000
1000
0000
0001
0000
0100
0010
0100
0000
0001
0000
1000
0000
,
0010
0100
0001
0000
1000
0000
0100
0000
1000
0001
0010
0000
0100
0000
1000
0000
,
0001
0000
2002
0000
0000
0000
3003
0000
0110
0000
0000
0000
0100
0010
0100
0010
,
1000
0100
1000
0001
1000
0010
1000
0001
0100
0000
0010
0000
0110
0000
0000
0000
,
0001
0010
0001
1000
0001
0100
0001
1000
0010
0000
0100
0000
0110
0000
0000
0000
,
0100
0001
0100
0010
0100
0001
0100
0010
1000
0000
0100
0000
1100
0000
0000
0000
,
1000
0010
1000
0001
1000
0100
1000
0001
0010
0000
0001
0000
0011
0000
0000
0000
,
0010
0001
0010
0100
0010
0001
0010
0100
0010
0000
0100
0000
1100
0000
0000
0000
,
1000
0010
0100
0010
1000
0010
0100
0010
1000
0000
0001
0000
0011
0000
0000
0000
,
1000
0001
1000
0001
0100
0010
0100
0010
1000
0100
1000
0100
0010
0001
0010
0001
,
1000
0000
1000
0000
0001
0000
0001
0000
0100
0010
0100
0010
1000
0001
0100
0010
,
1000
0100
1000
0000
0100
0000
1000
0100
0000
1000
0100
0000
0100
1000
0100
0000
,
0001
0010
0001
0000
0010
0000
0001
0010
0000
0001
0010
0000
0010
0001
0010
0100
,
1000
0001
1000
0000
0010
0100
0010
0000
0100
0000
0001
0010
0000
0100
1000
0000
,
0001
0000
0100
0000
0010
0000
0000
0000
1000
0000
0000
0000
0001
0000
0100
0000
0010
0000
1000
0000
0100
0000
1000
0000
0001
0010
0100
1000
0010
0000
0100
0000
,
0010
0000
1000
0000
0100
1000
0000
0001
0010
0000
0001
0000
1000
0000
0010
0100
,
0001
0000
1000
0000
0100
0010
0000
1000
0010
0000
0001
0000
1000
0100
0010
0000
,
0001
0000
1000
0010
0000
0100
0001
0010
0100
1000
0001
0010
0100
1000
0010
0100
,
0010
0100
0001
1000
0001
1000
0100
0000
1000
0000
0010
0100
0000
0100
0001
1000
,
0001
0000
0010
0000
0001
0010
0100
1000
0010
0000
0100
0000
0010
0000
0000
0000
1000
0000
0000
0000
0100
0000
0010
0000
0000
0000
0001
0000
1000
0000
0000
0000
,
0010
0000
1000
0100
1000
0000
0001
0000
0010
0001
0000
0100
0010
0000
1000
0000
,
0010
0000
1000
0001
0000
1000
0100
0000
0010
0000
0100
0000
1000
0001
1000
0001
,
0100
0010
0000
0010
1000
0001
1000
0001
1000
0001
1000
0001
0100
0010
0100
0010
,
0100
0010
0100
0010
1000
0100
1000
0100
0010
0001
0010
0001
1000
0010
0100
0001
,
2001
3010
0210
0301
0021
0130
2100
3001
,
0021
0000
0000
0000
1030
0000
0000
0000
0011
0000
0000
0000
0110
0000
0000
0000
1100
0000
0000
0000
1000
0000
0001
0000
1000
0000
0010
0100
0010
0000
1000
0000
,
1002
0013
0021
0130
2100
3001
1001
0110
,
2001
0000
0000
0000
3010
0000
0000
0000
0110
0000
0000
0000
0101
0000
0000
0000
1000
0000
0000
0000
0010
0000
0100
0000
0010
0000
1000
0001
1000
0000
0010
0000
,
0100
0001
0010
0001
1000
0100
0001
0100
1000
0010
0100
0001
0010
0001
1000
0100
,
0010
0100
1000
0001
0010
1000
0001
0100
1000
0001
1001
1000
0010
0100
0110
0000
,
2001
0001
0001
3001
0200
0010
0010
0310
1020
1000
1000
1030
0101
0010
1100
0000
,
2001
0000
0000
0000
0000
0000
0000
0000
3010
0000
0000
0000
0001
0000
0000
0000
1000
0000
0000
0000
0100
0000
0000
0000
0010
0000
0010
0000
0100
0010
0100
0010
,
1000
0100
0010
0100
1000
0100
0010
0100
1000
0100
0010
0100
1000
0100
0010
0100
,
1000
0001
0010
0001
1000
0001
0010
0001
1000
0001
0010
0001
1000
0001
0010
0001
,
0100
0010
0100
1000
0100
0010
0100
1000
0100
0010
0100
1000
0100
0010
0100
1000
,
0100
0001
0010
0001
0100
0001
0010
0001
0100
0001
0010
0001
0100
0001
0010
0001
,
1000
0001
1000
0001
1000
0001
1000
0001
0100
0010
0100
0010
0100
0010
0100
0010
,
1000
0010
1000
0010
1000
0010
1000
0010
0100
0001
0100
0001
0100
0001
0100
0001
,
1000
1010
0010
0110
0100
0101
0001
1001
,
1000
1100
0100
0110
0010
0011
0001
1001
,
0110
0010
0010
0010
0010
0010
0010
0010
,
1010
1000
1000
1000
1000
1000
1000
1000
,
1100
0000
0100
0000
0100
0000
0100
0000
0100
0000
0100
0000
0100
1000
0100
0001
,
0100
0010
0100
1000
0100
0000
0010
0000
0001
0000
1000
0000
0100
0000
1000
0000
,
0001
1000
0001
0010
1000
0000
0010
0000
0001
0010
0001
0000
1000
0000
0100
0000
,
1000
0010
0100
0010
1000
0000
0001
0000
0100
0000
0010
0000
1000
0000
0001
0000
,
0010
0001
1000
0001
0010
0000
0001
0000
1000
0000
0010
0000
0100
0000
0010
0000
,
1000
0001
0100
0001
1000
0000
0010
0000
0100
0010
0100
0000
0001
0000
1000
0000
,
0001
0010
0001
0000
1000
0000
0100
0000
1000
0010
1000
0000
0001
0000
0100
0000
,
0001
0010
0001
0010
0001
0000
0100
0000
0010
1000
0010
1000
0010
0000
0100
0000
,
0001
1000
0100
0010
0100
1000
0001
0010
0100
1000
0001
0000
2002
0000
0000
0000
,
0000
0000
0000
0000
,
0000
0000
0000
0000
0000
0000
0000
0000
3003
0000
0000
0000
0000
0000
0000
0000
0000
0000
0000
0000
0000
0000
0000
0000
0000
0000
0000
0000
0010
0100
0001
1000
,
0001
0010
0001
0010
0100
1000
0001
1000
,
0100
1000
0010
0100
0001
0010
0100
1000
,
0010
0100
1000
0100
0010
0001
0010
0100
,
0001
1000
0100
1000
0001
1000
0100
1000
,
0010
1000
0001
0010
0100
0001
0100
1000
,
0010
1000
0100
1000
0001
0100
0010
0100
,
0001
1000
0100
0010
0100
1000
0001
0010
,
0100
1000
0001
0010
0100
1000
0001
1000
,
0010
0100
0001
0100
0010
0100
0001
0100
,
0001
1000
0100
1000
0001
1000
0100
1000
,
0010
0100
0001
0010
0100
0010
0100
1000
,
0010
1000
0010
0100
0001
0010
0001
1000
,
1001
0001
1001
0000
,
0110
0100
0110
0000
,
1010
0202
0303
1010
,
0011
0000
1100
0101
,
1000
0010
0100
0010
1000
0001
0010
0100
,
0001
0100
0010
1000
0010
0001
1000
0010
,
0100
0001
1000
0010
0100
0001
1000
0001
,
0100
0010
1000
0001
0100
0010
1000
0100
,
0010
0001
0010
0001
1000
0100
1000
0100
,
1000
0001
1000
0001
0100
0010
0100
0010
,
1000
0100
0010
0100
1000
0001
1000
0100
,
0010
0001
0010
0100
0010
0001
1000
0100
,
1001
0220
0330
1001
,
0110
0000
0000
0000
1000
0001
1000
0001
0100
0000
0000
0000
0100
0000
0010
0000
,
0100
2002
3003
1010
,
0101
0000
0000
0000
0001
1000
0001
1000
0010
0000
0000
0000
0100
0000
0000
0000
,
0001
0100
0001
0100
0020
0000
1030
0000
,
1000
0100
1000
0100
0020
0000
0031
0000
,
1000
0010
0100
0010
1000
0001
0010
0100
,
1000
0010
0100
0001
1000
0100
0010
0001
,
0010
0001
0100
0010
1000
0001
1000
0100
0010
0100
1000
0100
0010
0001
0100
0010
,
0100
0001
0001
1000
1010
0010
0010
0100
1000
0100
0001
0010
0001
1000
0010
0100
,
1002
1000
0000
0100
0100
0000
0103
0010
0120
0100
0000
1000
1000
0000
1030
0100
,
2100
0000
0000
0100
0000
0000
0000
0000
0000
0001
0000
0000
3001
0000
0000
0010
0000
0000
0100
0000
0000
0010
0000
0000
1001
0000
0000
0000
0000
0000
0100
0000
0010
0000
0100
0000
0010
0000
0000
1000
0000
0000
0100
0000
0000
0010
0000
0000
,
0012
0000
0000
0000
0000
0000
1003
0010
0100
0001
1000
0100
0001
0100
1000
0010
0100
0001
0010
0001
0100
1000
0100
0010
;
