#TITLE:火影;
#SUBTITLE:;
#ARTIST:RoughSkreamZ feat.楽天斎;
#TITLETRANSLIT:Hikage;
#SUBTITLETRANSLIT:;
#ARTISTTRANSLIT:RoughSkreamZ feat.Rakutensai;
#GENRE:HIP HOP;
#CREDIT:;
#BANNER:Hikage_banner.png;
#BACKGROUND:Hikage.png;
#LYRICSPATH:;
#CDTITLE:;
#MUSIC:Hikage.ogg;
#OFFSET:-0.366000;
#SAMPLESTART:32.130001;
#SAMPLELENGTH:14.100000;
#SELECTABLE:YES;
#BPMS:0.000000=136.000000
;
#STOPS:
;
#BGCHANGES:;
#KEYSOUNDS:;
#ATTACKS:;

//---------------dance-single - ----------------
#NOTES:
     dance-single:
     :
     Easy:
     6:
     0.249875,0.275955,0.220764,0.118873,0.000000,206.000000,180.000000,26.000000,14.000000,0.000000,0.000000,0.249875,0.275955,0.220764,0.118873,0.000000,206.000000,180.000000,26.000000,14.000000,0.000000,0.000000:
0000
0000
0000
0000
,
0000
0000
0000
0000
,
0001
0000
0010
0001
,
1000
0000
0010
0000
,
1000
0000
0100
0010
,
0001
0000
1001
0000
,
0100
0000
0010
1000
,
0100
0000
0010
0000
,
0100
0000
1000
0001
,
0100
0000
0011
0000
,
1000
0100
0010
0000
,
0001
0100
0010
0000
,
1000
0010
0100
0000
,
0001
0010
0100
0000
,
1100
0000
0001
0100
,
0001
0000
0010
0001
,
0010
0000
0100
1000
,
2002
0000
3003
0000
,
0100
0100
0110
0000
,
1000
1000
1100
0000
,
0001
0001
0011
0000
,
0100
0100
0100
0100
,
0010
0010
1010
0000
,
1000
1000
1100
0000
,
0001
0001
0011
0000
,
0100
0001
1000
0010
,
0220
0000
0330
0000
,
0001
0000
0001
1000
,
0100
0000
1000
0000
,
0010
0000
0100
0010
,
0100
0000
0001
0010
,
0100
0000
1000
0010
,
0100
0000
0011
0000
,
1000
0001
0010
0100
,
2002
0000
3000
0000
,
0103
0000
0010
0000
,
2020
0000
0030
0000
,
3002
0000
0013
0000
,
0001
0000
0010
0100
,
1000
0000
0010
1000
,
0100
0000
1001
0000
,
0220
0000
0330
0000
,
0002
0000
0013
0100
,
1000
0010
1000
0000
,
0001
0100
1000
0100
,
0001
0000
0110
0000
,
1000
0100
1000
0010
,
1000
0001
1000
0000
,
0001
0010
0001
1000
,
0001
0100
0110
0000
,
0001
0000
0001
1000
,
0100
0000
1000
0010
,
0100
0000
0001
0000
,
0010
0100
0220
0330
,
1000
1000
1010
0000
,
0001
0001
0011
0000
,
0100
0100
0110
0000
,
1000
0010
0001
0010
,
1000
0010
1100
0000
,
0001
0010
0101
0000
,
0010
0010
0110
0000
,
1000
0001
0010
0100
,
1000
0010
1000
0001
,
0010
0001
1000
0100
,
0001
0100
0010
0100
,
1001
0000
0000
0000
;

//---------------dance-single - ----------------
#NOTES:
     dance-single:
     :
     Medium:
     12:
     0.498538,0.496718,0.288691,0.178309,0.076418,411.000000,377.000000,34.000000,21.000000,0.000000,0.000000,0.498538,0.496718,0.288691,0.178309,0.076418,411.000000,377.000000,34.000000,21.000000,0.000000,0.000000:
// measure 0
0000
0000
0000
0000
,  // measure 1
0000
0000
0000
0000
,  // measure 2
0100
0000
0000
0010
0000
0000
1000
0000
0000
0000
0001
0000
0010
0000
0000
0000
,  // measure 3
0001
0000
0000
1000
0000
0000
0100
0000
0000
0000
0010
0000
0001
0000
0000
0000
,  // measure 4
0100
0000
0000
0001
0000
0000
1000
0000
0000
0000
0100
0000
0010
0000
0100
0000
,  // measure 5
1000
0000
0000
0010
0000
0000
0100
0000
0001
0000
0000
0000
1001
0000
0000
0000
,  // measure 6
0010
0000
0000
0001
0000
0000
1000
0000
0000
0000
0010
0000
1000
0000
0000
0000
,  // measure 7
0001
0000
0000
0100
0000
0000
0010
0000
0000
0000
1000
0000
0100
0000
0000
0000
,  // measure 8
1000
0000
0000
0010
0000
0000
1000
0000
0000
0000
0001
0000
0010
0000
0000
0000
,  // measure 9
0001
0000
0000
0100
0000
0000
0001
0000
0010
0000
0000
0000
0110
0000
0000
0000
,  // measure 10
1000
0010
1000
0100
0010
0100
1000
0000
,  // measure 11
0001
0100
0010
0100
0002
0000
0023
0000
,  // measure 12
0130
1000
0001
1000
0010
0100
0001
0000
,  // measure 13
1000
0010
0100
0010
1000
0000
1001
0000
,  // measure 14
0010
0001
0100
0001
0010
0100
1000
0000
,  // measure 15
0010
1000
0100
1000
0002
0000
0203
0000
,  // measure 16
0310
1000
0010
0000
1000
0100
0010
0000
,  // measure 17
0001
1000
0001
1000
0010
0000
0110
0000
,  // measure 18
1010
0000
1001
0000
0010
0100
1000
0100
,  // measure 19
0010
0000
0101
0000
0010
1000
0001
1000
,  // measure 20
0100
0100
0100
0000
0010
0001
1000
0001
,  // measure 21
0010
0100
1000
0100
0010
0000
0011
0000
,  // measure 22
1010
0000
1100
0000
0010
1000
0100
1000
,  // measure 23
0001
0000
0101
0000
0010
1000
0001
1000
,  // measure 24
0010
0010
0010
0000
1000
0100
0010
0001
,  // measure 25
0100
0010
0100
0001
0010
0000
1100
0000
,  // measure 26
0202
0000
0000
0000
0303
0000
0000
0000
1000
0000
0000
0010
0000
0000
1000
0000
,  // measure 27
0001
0000
0010
0000
0001
0100
0001
0000
,  // measure 28
0011
0000
1000
0000
0010
1000
0100
0000
,  // measure 29
0010
0000
0001
0000
0100
0000
0010
0000
1000
0000
0000
1001
0000
0000
0001
0000
,  // measure 30
0010
0001
1000
0010
1000
0001
0010
0000
,  // measure 31
0001
0100
0001
1000
0100
1000
0001
0000
,  // measure 32
1000
1000
1000
0000
0001
0001
0001
0000
,  // measure 33
0010
0100
1000
0001
0100
0000
1001
0000
,  // measure 34
2020
0030
3002
0013
,  // measure 35
0220
0000
0030
0000
2300
0000
3010
0100
,  // measure 36
0002
0000
2003
3100
,  // measure 37
0201
0000
0000
0000
0000
0000
0000
0000
0310
0000
0000
0110
0000
0000
0001
0000
,  // measure 38
1000
0000
0010
0000
0100
0000
0010
0000
1000
0000
0000
0100
0000
0000
0010
0000
,  // measure 39
0001
0000
1000
0000
0001
0000
0010
0000
0100
0000
0000
1000
0000
0000
0001
0000
,  // measure 40
0100
0010
0110
0000
1000
0100
1100
0000
,  // measure 41
0022
0000
0033
0000
,  // measure 42
0100
0010
0200
0000
0302
0000
0013
0100
,  // measure 43
1000
0100
0001
0100
0000
1000
0010
1000
,  // measure 44
0001
0000
0000
0010
0000
0000
0100
0000
1000
0000
0000
0010
0000
0000
0100
0000
,  // measure 45
0010
0000
0000
1000
0000
0000
0001
0000
0010
0000
0001
0000
2000
0000
0000
0000
,  // measure 46
3010
0100
0010
1000
0010
0100
0001
0010
,  // measure 47
0001
1000
0001
0010
0100
1000
0020
0000
,  // measure 48
1030
0100
0010
0100
1000
0001
0010
0001
,  // measure 49
1000
0010
0100
0001
0010
0000
1001
0000
,  // measure 50
0010
0000
0000
0100
0000
0000
0001
0000
1000
0000
0001
0000
0010
0000
0000
0000
,  // measure 51
0100
0000
0000
1000
0000
0000
0010
0000
1000
0000
0001
0000
0100
0000
0000
0000
,  // measure 52
0001
0010
1000
0000
1000
0010
0001
0000
,  // measure 53
1000
0100
0001
0100
1000
0000
1001
0000
,  // measure 54
0110
0000
0011
0000
1000
0010
0100
0010
,  // measure 55
1000
0000
0101
0000
0010
0100
0001
0010
,  // measure 56
0100
0100
1100
0000
1000
0001
0010
0001
,  // measure 57
1000
0010
0100
0010
1000
0100
0010
0000
,  // measure 58
0011
0000
1100
0000
0001
0010
0100
0010
,  // measure 59
0001
0000
1010
0000
0100
0001
0010
0001
,  // measure 60
1000
1000
1001
0000
0010
0100
0010
1000
,  // measure 61
0001
1000
0100
0010
0001
0100
0110
0000
,  // measure 62
1000
0010
0100
0010
1000
0100
0001
0000
,  // measure 63
0100
1000
0001
1000
0010
0100
0001
0000
,  // measure 64
0010
1000
0010
0001
0100
1000
0100
0001
,  // measure 65
0010
0000
0000
0000
;

//---------------dance-single - ----------------
#NOTES:
     dance-single:
     :
     Hard:
     16:
     0.796933,0.747943,0.551909,0.458509,0.781164,657.000000,592.000000,65.000000,54.000000,0.000000,0.000000,0.796933,0.747943,0.551909,0.458509,0.781164,657.000000,592.000000,65.000000,54.000000,0.000000,0.000000:
// measure 0
0000
0000
0000
0000
,  // measure 1
0000
0000
0000
0000
,  // measure 2
1001
0000
0000
0100
0010
0000
1000
0000
0001
0000
0010
0000
0100
0010
0001
0000
,  // measure 3
1000
0000
0000
0010
0100
0000
0001
0000
1000
0000
0010
0000
1000
0100
0010
0000
,  // measure 4
0001
0000
0000
1000
0010
0000
0100
0000
0001
0000
1000
0000
0001
0010
0100
0000
,  // measure 5
1000
0000
0001
1000
0000
0001
1000
0000
0010
0100
0010
0100
0002
0000
0000
0000
,  // measure 6
0013
0000
0000
0100
1000
0000
0010
0000
1000
0000
0001
0000
0010
0100
1000
0000
,  // measure 7
0010
0000
0000
1000
0001
0000
0010
0000
0100
0000
0010
0000
1001
0000
0000
0000
,  // measure 8
0100
0000
0000
0010
1000
0000
0100
0000
1000
0000
0001
0000
0010
0001
1000
0000
,  // measure 9
0010
0000
0100
0010
0000
0100
0010
0000
1000
0001
1000
0001
2000
0000
0000
0000
,  // measure 10
3010
0000
0100
0010
1000
0000
0001
0000
1000
0100
0010
0000
0100
0010
0001
0000
,  // measure 11
0010
0000
0001
1000
0000
0001
1000
0000
0010
0100
0001
0000
0010
0100
1000
0000
,  // measure 12
0001
0100
0000
0001
1000
0000
0100
0000
1000
0010
0100
0000
0010
0100
0001
0000
,  // measure 13
0010
0001
1000
0001
0010
0000
0100
0000
1000
0010
0100
0010
1000
0000
0001
0000
,  // measure 14
0010
0000
0010
0000
0100
1000
0100
1000
0010
0000
0100
0010
0000
0100
0001
0000
,  // measure 15
1000
0000
0100
0010
0001
0000
1000
0001
0100
0000
0010
0100
0010
0000
0000
0000
,  // measure 16
1000
0001
0010
0001
1000
0000
0010
0000
1000
0100
0010
0100
1000
0000
0001
0000
,  // measure 17
0010
0000
0001
0010
0100
0000
1000
0010
0100
0000
0010
0000
0110
0000
0000
0000
,  // measure 18
2002
0000
3003
0000
0220
0000
0330
0000
0010
0001
0100
0010
1000
0100
0010
0000
,  // measure 19
0220
0000
0330
0000
2200
0000
3300
0000
0010
0100
0001
0010
0100
1000
0001
0000
,  // measure 20
0101
0000
0101
0000
0202
0000
0303
0000
1000
0001
0010
0100
0010
0001
1000
0000
,  // measure 21
0010
0000
1000
0001
0000
0010
0100
1000
0001
0000
0110
0000
1001
0000
0000
0000
,  // measure 22
0022
0000
0033
0000
2020
0000
3030
0000
0100
0001
1000
0010
1000
0100
0010
0000
,  // measure 23
0220
0000
0330
0000
0022
0000
0033
0000
0100
0010
1000
0001
1000
0010
0100
0000
,  // measure 24
1010
0000
1010
0000
2020
0000
3030
0000
0001
0100
0010
1000
0001
1000
0100
0000
,  // measure 25
1000
0001
0000
0001
0010
0000
0100
1000
0000
0001
0010
0100
1000
0000
0110
0000
,  // measure 26
0001
0000
0010
0000
0001
0100
1000
0000
1000
0100
0001
0010
0100
0000
0000
0000
,  // measure 27
1000
0000
0100
0001
0100
0000
1000
0010
1000
0000
0001
0010
1000
0000
0000
0000
,  // measure 28
1000
0000
0010
0001
0100
0000
0010
1000
0100
0000
1000
0010
0100
0000
0000
0000
,  // measure 29
0011
0000
0000
1100
0000
0000
1001
0000
0100
0010
0100
0001
0000
0000
1001
0000
,  // measure 30
0100
0010
1000
0010
0100
0000
0001
0010
0100
1000
0001
1000
0100
0000
0000
0000
,  // measure 31
1100
0000
0000
0101
0000
0000
0010
0001
1000
0010
0100
0001
0010
0000
0000
0000
,  // measure 32
0011
0000
0000
1100
0000
0000
0110
0000
1010
0000
0000
0011
0000
0000
0110
0000
,  // measure 33
1000
0001
0100
0010
1000
0001
0000
1001
0000
0001
0010
0100
1000
0000
0000
0000
,  // measure 34
0120
0000
1000
1000
1000
1000
1030
0000
,  // measure 35
0210
0000
0001
0001
0001
0001
0301
0010
,  // measure 36
0012
0000
1000
1000
1000
1000
1003
0000
,  // measure 37
1020
0000
0000
0000
0100
0000
0130
0000
0110
0000
0000
0101
0000
0000
1100
0000
,  // measure 38
1000
0000
0010
0100
0010
0000
1000
0100
1000
0000
0010
0100
0010
0000
1000
0000
,  // measure 39
0001
0000
0010
0100
0010
0000
0001
0100
0001
0000
0010
0100
0010
0000
0001
0000
,  // measure 40
1000
0010
0100
0010
1000
0000
1000
0000
0001
0010
0100
0010
0001
0000
0001
0000
,  // measure 41
2002
0000
3003
0110
,  // measure 42
1000
0010
0002
0000
0013
1000
0001
0010
,  // measure 43
0001
0000
0100
0000
1000
0000
0002
0000
0000
0000
0013
0000
1000
0100
0010
0000
,  // measure 44
0001
0000
0010
1000
0000
0000
0010
0001
1000
0000
0010
0100
0000
0000
0001
0000
,  // measure 45
1000
0000
0010
0001
0000
0000
0010
1000
0001
0000
0010
0000
0110
0000
0000
0000
,  // measure 46
1000
0100
0010
0000
0001
0000
1000
0000
0001
0010
0100
0000
1000
0000
0010
0000
,  // measure 47
1000
0001
0010
0000
0001
0000
1000
0000
0100
1000
0001
0000
0100
0000
0010
0000
,  // measure 48
1000
0100
1000
0100
1000
0010
1000
0010
0100
0001
0100
0001
0010
0000
0001
0000
,  // measure 49
2002
0000
3003
0110
,  // measure 50
0011
0000
0000
1010
0000
0000
0100
0000
0001
0010
0100
0000
0010
0100
1000
0000
,  // measure 51
0010
0000
1000
0100
0000
1000
0001
0000
0010
0001
1000
0001
0020
0000
0000
0000
,  // measure 52
0031
0000
0100
0010
0000
1000
0010
0000
1000
0001
0100
0001
1000
0000
0010
0000
,  // measure 53
0110
0000
0000
0000
0001
0100
0010
0000
1000
0100
0010
0001
0100
0000
0000
0000
,  // measure 54
2020
0000
3030
0000
0022
0000
0033
0000
0100
0001
0010
0100
1000
0010
0100
0000
,  // measure 55
0220
0000
0330
0000
2002
0000
3003
0000
0010
0100
1000
0001
1000
0100
0010
0000
,  // measure 56
0011
0000
1001
0000
0022
0000
0033
0000
1000
0010
0100
0010
1000
0000
0001
0000
,  // measure 57
0010
0100
0000
0100
0010
0001
0000
1001
0000
0100
0010
1000
0010
0000
1000
0000
,  // measure 58
2200
0000
3300
0000
0202
0000
0303
0000
0010
0100
0001
1000
0010
1000
0100
0000
,  // measure 59
0220
0000
0330
0000
0022
0000
0033
0000
1000
0001
0010
0001
1000
0010
0100
0000
,  // measure 60
1010
0000
1001
0000
2020
0000
3030
0000
0100
0010
1000
0010
0100
0000
0001
0000
,  // measure 61
0010
0100
0000
0100
1000
0010
0000
0110
0000
0001
0010
0100
0010
0000
0011
0000
,  // measure 62
1000
0000
0010
0100
0010
0000
1000
0100
1000
0000
0001
0010
0100
0000
1000
0000
,  // measure 63
0001
0100
0010
0100
0001
0000
1000
0000
0010
1000
0100
1000
0010
0000
0100
0000
,  // measure 64
0001
0000
0010
0000
0001
0000
0100
0000
0001
0000
0000
0000
0010
0000
0000
0000
0100
1000
0100
0000
0000
0000
0000
0000
0100
0000
0001
0000
0010
0000
0100
0000
,  // measure 65
2000
3000
0000
0000
;
