#TITLE:Help me, ERINNNNNN!! 小林幸子さん ver.;
#SUBTITLE:「くーくり博麗お祭りえーりん!」;
#ARTIST:ビートまりおと小林幸子;
#TITLETRANSLIT:Help me, ERINNNNNN!! Sachiko Kobayashi san ver;
#SUBTITLETRANSLIT:"COOL&CREATE hakurei omatsuri Erin!";
#ARTISTTRANSLIT:beatMARIO to Sachiko Kobayashi;
#GENRE:;
#CREDIT:;
#BANNER:Help me, ERINNNNNN!! Sachiko Kobayashi san ver_banner.png;
#BACKGROUND:Help_me,_ERINNNNNN!! Sachiko Kobayashi san ver.png;
#LYRICSPATH:;
#CDTITLE:;
#MUSIC:Help me, ERINNNNNN!! Sachiko Kobayashi san ver.ogg;
#OFFSET:0.500000;
#SAMPLESTART:23.650000;
#SAMPLELENGTH:12.000000;
#LASTBEATHINT:382.000000;
#SELECTABLE:YES;
#DISPLAYBPM:170.000000;
#BPMS:0.000000=168.000000
,36.000000=169.940002
;
#STOPS:
;
#BGCHANGES:;
#KEYSOUNDS:;
#ATTACKS:;

//---------------dance-single - ----------------
#NOTES:
     dance-single:
     :
     Easy:
     5:
     0.184505,0.313711,0.080721,0.220148,0.000000,176.000000,165.000000,11.000000,30.000000,0.000000,0.000000,0.184505,0.313711,0.080721,0.220148,0.000000,176.000000,165.000000,11.000000,30.000000,0.000000,0.000000:
0000
0000
0000
0000
,
0000
0000
0000
0000
,
0000
0000
0000
0000
,
0000
0000
0000
0000
,
0000
0000
0000
0000
,
1000
0000
0001
0000
,
1000
0000
0001
0000
,
0010
0000
0100
0000
,
0220
0000
0330
0000
,
0001
0100
0001
0000
,
0100
0001
0100
0000
,
1000
0100
1000
0000
,
0100
1000
0100
0000
,
0001
0100
0001
0100
,
0001
0100
0001
0000
,
0110
0000
0010
0000
,
2002
0000
3003
0000
,
1000
0000
0010
0000
,
0100
0010
0100
0000
,
0001
0000
0010
0000
,
0100
0010
0100
0000
,
2000
0000
3100
0000
,
1000
0010
1000
0000
,
0001
0000
0100
0000
,
0220
0000
0330
0000
,
0001
0000
0010
0000
,
0001
1000
0100
0000
,
1000
0000
0010
0000
,
1000
0001
0100
0000
,
0001
0000
0010
0000
,
0100
0000
1000
0000
,
0010
0000
0100
0000
,
2002
0000
0000
0000
0000
3003
0000
0000
,
0010
0000
0010
0000
,
0010
0000
0010
0000
,
0100
0000
0100
0000
,
0100
0000
0100
0000
,
0001
0000
0001
0000
,
1000
0000
1000
0000
,
0001
0000
1000
0000
,
2002
0000
3003
0000
,
0001
0010
0001
0000
,
1000
0010
1000
0000
,
0001
0100
0010
0000
,
1000
0100
0010
0000
,
0001
0010
0001
0000
,
1000
0010
1000
0000
,
0001
0100
1000
0010
,
0220
0000
0330
0000
,
1000
0100
1000
0000
,
0001
0100
0001
0000
,
1000
0010
1000
0000
,
0001
0010
0001
0000
,
1000
0010
1000
0000
,
0001
0010
0001
0000
,
0100
0001
0100
0001
,
2020
0000
3030
0000
,
2000
0000
3000
0000
,
0200
0000
0300
0000
,
0020
0000
0030
0000
,
0002
0000
0003
0000
,
0100
0000
0010
0000
,
1000
0000
0001
0000
,
0010
0000
0100
0000
,
2002
0000
3003
0000
,
0100
0000
0001
0000
,
1000
0010
1000
0000
,
0001
0000
0010
0000
,
0100
1000
0100
0000
,
2000
0000
3001
0000
,
0020
0000
0130
0000
,
0002
0000
0013
0000
,
2000
0000
3100
0000
,
0220
0000
0000
0330
,
0000
0000
0000
0000
,
0001
0000
1000
0000
,
0001
0000
0100
0000
,
0010
0000
1000
0000
,
0100
0000
0010
0000
,
0002
0000
0000
0000
,
0000
0000
0000
0000
,
0003
0000
0000
0000
,
0000
0000
0000
0000
,
0000
0000
0000
0000
,
0000
0000
0000
0000
,
0000
0000
0000
0000
,
0000
0000
0000
0000
,
0000
0000
0000
0000
,
0000
0000
0000
0000
,
0000
0000
0000
0000
,
0000
0000
0000
0000
,
0000
0000
0000
0000
,
0220
0000
0000
0000
,
0000
0000
0000
0000
,
0000
0000
0000
0000
,
0330
0000
0000
0000
;

//---------------dance-single - ----------------
#NOTES:
     dance-single:
     :
     Medium:
     11:
     0.383686,0.592565,0.484325,0.388928,0.135758,366.000000,300.000000,66.000000,53.000000,0.000000,0.000000,0.383686,0.592565,0.484325,0.388928,0.135758,366.000000,300.000000,66.000000,53.000000,0.000000,0.000000:
0000
0000
0000
0000
,
0000
0000
0000
0000
,
0000
0000
0000
0000
,
0000
0000
0000
0000
,
0000
0000
0000
0000
,
0001
0100
0001
0000
,
1000
0010
1000
0000
,
0001
1000
0100
0010
,
2002
0000
0000
3003
,
0100
0001
0100
0101
,
1000
0010
1000
1010
,
0001
0010
0001
0011
,
1000
0100
1000
1100
,
0001
0101
1000
1100
,
0001
0101
1000
1100
,
0010
0100
0010
0100
,
2002
0000
0000
0000
0000
3003
0000
0000
,
0011
0000
0000
1000
0000
0100
1000
0000
0000
0010
0000
0100
,
0001
1000
2200
3300
,
0010
0000
0000
0100
0000
0010
1000
0000
0000
0001
0000
0000
,
0011
1000
2020
3030
,
0001
0000
0000
0010
0000
0001
1000
0000
0000
0100
0000
1000
,
0010
0100
0202
0303
,
0010
0000
0000
0100
0000
0001
1000
0000
0000
0100
0000
0000
,
1000
0001
0202
0303
,
0010
0000
0000
0001
0000
1000
0010
0000
0000
0100
0000
0000
,
0110
1001
0220
0330
,
1000
0000
0000
0100
0000
1000
0001
0000
0000
0100
0000
0000
,
0001
1000
0202
0303
,
1000
0000
0000
0010
0000
0100
0001
0000
0000
0010
0000
0100
,
1000
0001
0100
0001
,
0010
0000
0000
0001
0000
1000
0010
0000
0000
0100
0000
0000
,
0001
1000
2200
3300
,
0010
0000
0000
0110
0000
0000
1000
0000
0001
0010
0000
0000
,
0001
0000
0000
1000
0000
0000
0010
0000
0100
0001
0000
0000
,
0010
0000
0000
0001
0000
0000
1000
0000
0100
0010
0000
0000
,
0001
0000
0000
1000
0000
0001
0200
0000
0000
0300
0000
0000
,
0110
0000
0000
0001
0000
0010
0100
0000
0000
1000
0000
0000
,
0010
0000
0000
1000
0000
0001
0100
0000
0000
0010
0000
0000
,
0100
0000
0000
0001
0000
0010
0100
0000
0000
1000
0000
0000
,
0001
1000
2002
3003
,
1010
0001
1010
0001
,
0100
1001
0100
1001
,
0010
0000
0100
1000
0000
0000
0001
0000
0000
0101
0000
0000
,
0010
0000
1000
0100
0000
0000
0010
0000
0000
0011
0000
0000
,
1001
0100
1001
0010
,
1010
0001
1010
0001
,
0010
0000
0001
1000
0000
0000
0100
0000
0000
1000
0000
0010
,
0100
0001
2002
3003
,
0101
1000
0101
1000
,
0011
1000
0011
1000
,
1010
0001
1010
0001
,
1100
0001
1100
0001
,
0110
1000
0110
0001
,
0011
1000
1010
0001
,
0101
0010
1100
0010
,
0220
0000
0000
0330
,
2000
0000
3002
0000
,
0103
0010
0100
0001
,
0020
0000
0230
0000
,
1300
0001
1000
0010
,
0200
0000
0302
0000
,
0013
0100
1000
0010
,
2000
0000
3001
0000
,
0202
0000
0000
0303
,
0010
0000
0000
1000
0000
0001
1000
0000
0000
0100
0000
0000
,
0110
1001
0220
0330
,
0001
0000
0000
1000
0000
0001
0010
0000
0000
0100
0000
0000
,
1000
0110
2000
3000
,
0010
0000
0000
1000
0000
0100
0010
0000
0000
0001
0000
0000
,
1000
0000
0000
0001
0000
0010
0100
0000
0000
1000
0000
0000
,
2002
0000
3003
0100
,
0220
0330
0001
1000
,
1100
0000
0000
0000
0000
0001
0010
0000
0000
0100
0000
0000
,
1010
0000
0000
0000
0000
0100
0001
0000
0000
0010
0000
0000
,
0011
0000
0000
1000
0000
0100
0010
0000
0000
0001
0000
0000
,
1000
0000
0000
0001
0000
0010
0100
0000
0000
1000
0000
0000
,
0001
0000
0001
0100
0000
0100
0010
0000
0010
1000
0000
1000
,
0001
0000
0001
1000
0000
1000
0100
0000
0100
0010
0000
0000
,
2002
0000
0000
0000
,
0000
0000
3003
0000
,
0220
0000
0330
0000
,
2002
3003
0220
0330
,
2002
0000
0000
0000
,
0000
0000
0000
0000
,
0000
0000
0000
0000
,
0000
0000
0000
0000
,
3003
0000
0000
0000
,
0000
0000
0000
0000
,
0000
0000
0000
0000
,
0000
0000
0000
0000
,
0000
0000
0000
0000
,
2002
0000
0000
0000
,
0000
0000
0000
0000
,
0000
0000
0000
0000
,
3003
0000
0000
0000
;

//---------------dance-single - ----------------
#NOTES:
     dance-single:
     :
     Hard:
     13:
     0.550370,0.627422,0.565046,0.249501,0.598069,525.000000,448.000000,77.000000,34.000000,0.000000,0.000000,0.550370,0.627422,0.565046,0.249501,0.598069,525.000000,448.000000,77.000000,34.000000,0.000000,0.000000:
// measure 0
0000
0000
0000
0000
,  // measure 1
0000
0000
0000
0000
,  // measure 2
0000
0000
0000
0000
,  // measure 3
0000
0000
0000
0000
,  // measure 4
0000
0000
0000
0000
,  // measure 5
0011
0000
0010
0100
0000
1000
0001
0000
1000
0100
0000
0000
,  // measure 6
1000
0000
1000
0010
0000
0100
0010
0000
1000
0001
0000
0000
,  // measure 7
0010
0000
0010
0001
0000
0001
0100
0000
0010
0100
0000
0001
,  // measure 8
1000
0000
0100
0010
0000
0100
1000
0000
0001
0010
0000
0000
,  // measure 9
0101
0000
0000
1000
0000
0000
0101
0000
0010
1000
0000
0000
,  // measure 10
1100
0000
0000
0001
0000
0000
1100
0000
0010
0001
0000
0000
,  // measure 11
0011
0000
0000
1000
0000
0000
0011
0000
0100
1000
0000
0000
,  // measure 12
1010
0000
0000
0001
0000
0000
1010
0000
0001
0010
0000
0000
,  // measure 13
0101
0000
0100
0010
0000
0000
1010
0000
1000
0100
0000
0000
,  // measure 14
0110
0000
0010
0001
0000
0000
1001
0000
1000
0010
0000
0000
,  // measure 15
0110
0011
1100
0110
,  // measure 16
2002
0000
0000
3003
,  // measure 17
0101
0000
0000
0010
0000
1000
0100
0000
0000
0010
0000
0001
,  // measure 18
0010
0000
0100
0010
0000
0001
0020
0000
0000
0130
0000
0100
,  // measure 19
1000
0000
0000
0010
0000
0100
0010
0000
1000
0001
0000
0010
,  // measure 20
0001
0000
0000
1100
0000
0000
0101
0000
0000
0010
0000
1000
,  // measure 21
0002
0000
0000
0013
0000
0100
2000
0000
0000
3010
0000
0100
,  // measure 22
0001
0000
1000
0001
0000
0010
0001
0000
0000
1100
0000
0000
,  // measure 23
1010
0000
0100
0010
0000
0000
1001
0000
0010
1000
0000
0000
,  // measure 24
0001
0000
0001
0010
0000
0010
0100
0000
0000
1001
0000
0000
,  // measure 25
0200
0000
0000
0310
0000
1000
0010
0000
0100
0001
0000
0010
,  // measure 26
0100
0000
1000
0100
0000
0001
0100
0000
0000
1100
0000
0000
,  // measure 27
0011
0000
1000
0100
0000
0000
1010
0000
0100
0001
0000
1000
,  // measure 28
0010
0000
0000
1100
0000
0000
0101
0000
0000
0010
0000
0100
,  // measure 29
0020
0000
0000
1030
0000
0100
0010
0000
0000
0001
0000
1000
,  // measure 30
0010
0000
0100
0001
0000
0010
0100
0000
0000
0110
0000
0000
,  // measure 31
2100
0000
0000
3001
0000
0000
0012
0000
0000
1003
0000
0010
,  // measure 32
0100
0000
0100
0001
0000
0001
0010
0000
0000
0110
0000
0000
,  // measure 33
1000
0000
0100
1000
0000
0100
1000
0000
0100
0010
0000
0001
,  // measure 34
0100
0000
0001
0100
0000
0001
0100
0000
0001
0010
0000
0100
,  // measure 35
1000
0000
0010
1000
0000
0010
1000
0000
0010
0100
0000
0001
,  // measure 36
0010
0000
0001
0010
0000
0001
1000
0001
0010
0100
0000
0000
,  // measure 37
0011
0000
0001
0100
0000
0100
0010
0000
1000
0100
0000
0000
,  // measure 38
1100
0000
1000
0010
0000
0010
0100
0000
0001
0010
0000
0000
,  // measure 39
2002
3003
0220
0330
,  // measure 40
0001
0000
0001
0010
0000
0010
0100
0000
0100
1000
0000
0000
,  // measure 41
1010
0000
1000
0010
0000
0100
0001
0000
0010
0100
0000
0000
,  // measure 42
0110
0000
0100
1000
0000
0010
0100
0000
0001
0010
0000
0000
,  // measure 43
0011
0000
0010
0100
0000
0100
1000
0000
0001
1000
0000
0000
,  // measure 44
1010
0000
0010
0100
0000
0100
0001
0000
1000
0001
0000
0000
,  // measure 45
0011
0000
0100
1000
0000
0001
0010
0000
0100
1000
0000
0000
,  // measure 46
1010
0000
0100
0001
0000
1000
0010
0000
0100
0001
0000
0000
,  // measure 47
0011
0000
0100
1000
0000
1000
0010
0000
0100
0001
0000
0000
,  // measure 48
1010
0000
0100
0001
0000
1000
0010
0000
0100
0001
0000
0000
,  // measure 49
0101
0000
0010
1000
0000
0000
0101
0000
0010
1000
0000
0000
,  // measure 50
1100
0000
0010
0001
0000
0000
1100
0000
0010
0001
0000
0000
,  // measure 51
1001
0000
0000
0010
0000
0000
1001
0000
0100
0010
0000
0000
,  // measure 52
1010
0000
0000
0001
0000
0000
1010
0000
0100
0001
0000
0000
,  // measure 53
0011
0000
0001
0100
0000
0100
0010
0000
0010
1000
0000
1000
,  // measure 54
0001
0000
0001
0010
0000
0010
0100
0000
0100
1000
0000
1000
,  // measure 55
0010
0101
1000
0101
,  // measure 56
0010
0000
0010
1000
0000
1000
0100
0000
0000
0110
0000
0000
,  // measure 57
0002
0000
0000
0003
0000
0100
0001
0000
0000
0000
0000
0000
,  // measure 58
1000
0000
0010
0100
0000
0010
1000
0000
0000
0010
0000
0000
,  // measure 59
0020
0000
0000
0030
0000
0000
0100
0000
0001
1000
0000
0000
,  // measure 60
0001
0010
2200
3300
,  // measure 61
0020
0000
0000
0030
0000
0001
0100
0000
0000
0010
0000
1000
,  // measure 62
0100
0000
0010
0100
0000
1000
0001
0000
0000
0100
0000
0000
,  // measure 63
0220
0330
2002
3003
,  // measure 64
0220
0000
0000
0000
0000
0330
0000
0000
,  // measure 65
0011
0000
0000
1000
0000
0100
0010
0000
0000
0001
0000
0010
,  // measure 66
0100
0000
0100
0010
0000
0000
2002
0000
0000
3003
0000
0000
,  // measure 67
0100
0000
0010
1000
0000
0100
0010
0000
0001
0010
0000
0100
,  // measure 68
1000
0011
1010
0100
,  // measure 69
0001
0000
0010
0100
0000
0100
1000
0000
0000
0010
0000
0100
,  // measure 70
0001
0000
1000
0100
0000
1000
0001
0000
0000
0010
0000
0000
,  // measure 71
0022
0000
0000
0033
0000
0000
1000
0000
0001
0000
0000
0010
,  // measure 72
0100
0000
0100
1000
0000
1000
0010
0100
0001
1000
0000
0000
,  // measure 73
0110
0000
0000
0001
0000
1000
0001
0000
0000
0010
0000
0000
,  // measure 74
1100
0000
0000
0010
0000
0100
0001
0000
0000
0010
0000
0000
,  // measure 75
1100
0000
0000
0010
0000
0100
0001
0000
0000
1100
0000
0000
,  // measure 76
1010
0000
0001
0010
0000
0001
1000
0000
0100
0010
0000
0000
,  // measure 77
0001
0000
0001
0100
0000
0100
0010
0000
0010
1000
0000
1000
,  // measure 78
0001
0000
0001
0010
0000
0010
0100
1000
0001
0100
0000
0000
,  // measure 79
0220
0000
0000
0000
,  // measure 80
0000
0000
0330
0000
,  // measure 81
0101
0000
0000
0000
0000
0000
1000
0000
0001
0000
0010
0000
,  // measure 82
0110
0000
0000
0000
0000
0000
0100
0000
1000
0000
0001
0000
,  // measure 83
2002
0000
0000
0000
,  // measure 84
0000
0000
0000
0000
,  // measure 85
0000
0000
0000
0000
,  // measure 86
0000
0000
0000
0000
,  // measure 87
3003
0000
0000
0000
,  // measure 88
0000
0000
0000
0000
,  // measure 89
0000
0000
0000
0000
,  // measure 90
0000
0000
0000
0000
,  // measure 91
0000
0000
0000
0000
,  // measure 92
0220
0000
0000
0000
,  // measure 93
0000
0000
0000
0000
,  // measure 94
0000
0000
0000
0000
,  // measure 95
0330
0000
0000
0000
;
