#TITLE:Hello Happiness;
#SUBTITLE:;
#ARTIST:P*Light feat. mow*2;
#TITLETRANSLIT:;
#SUBTITLETRANSLIT:;
#ARTISTTRANSLIT:;
#GENRE:HAPPY HARDCORE;
#CREDIT:;
#BANNER:Hello_Happiness_banner.png;
#BACKGROUND:Hello_Happiness.png;
#LYRICSPATH:;
#CDTITLE:;
#MUSIC:Hello Happiness.ogg;
#OFFSET:-0.410000;
#SAMPLESTART:76.889999;
#SAMPLELENGTH:15.000000;
#LASTBEATHINT:300.000000;
#SELECTABLE:YES;
#BPMS:0.000000=182.000000
;
#STOPS:23.750000=0.330000,
25.000000=0.330000,
25.500000=0.165000,
26.000000=0.165000,
33.000000=0.989000,
158.000000=0.659000,
224.000000=0.989000,
225.000000=0.330000,
226.000000=0.330000
;
#BGCHANGES:;
#KEYSOUNDS:;
#ATTACKS:;

//---------------dance-single - ----------------
#NOTES:
     dance-single:
     :
     Easy:
     7:
     0.312817,0.349747,0.196513,0.131009,0.000000,234.000000,213.000000,21.000000,14.000000,0.000000,0.000000,0.312817,0.349747,0.196513,0.131009,0.000000,234.000000,213.000000,21.000000,14.000000,0.000000,0.000000:
0000
0000
0000
0000
,
0000
0000
0000
0000
,
0001
0100
0001
0010
,
0100
1000
0010
0000
,
1000
0001
0010
0100
,
0010
0001
1000
0000
,
0010
0000
0000
0100
,
0100
0002
0000
1003
,
0000
0110
0000
1000
,
0200
0000
1300
0001
,
0010
0000
1001
0000
,
0010
0001
1000
0000
,
0010
0010
0100
0001
,
0010
0001
1000
0010
,
1000
0000
0010
1000
,
0001
0100
0022
0000
,
0000
0033
0000
0000
1000
0000
0010
0000
,
1000
0100
1000
0001
,
0010
0000
0001
0100
,
0001
0010
0001
1000
,
0010
0000
0100
0001
,
0010
0100
1000
0001
,
0100
0000
0010
1000
,
0100
0010
0001
0000
,
1001
0000
0100
0010
,
1000
0001
1000
0100
,
0010
0000
0001
0100
,
0010
1000
0001
0010
,
0100
0000
0010
0001
,
1000
0010
0100
0001
,
1000
0000
1001
0000
,
0110
0000
2002
0000
,
0000
3003
0000
0000
0010
0000
0001
0000
,
0100
0001
0010
0100
,
1000
0000
0010
1000
,
0100
1000
0001
0010
,
0100
0000
2000
0010
,
0000
3010
0002
0010
,
0000
0013
0100
1000
,
0001
0100
0110
0000
,
0011
0000
1000
0000
,
0011
0000
1000
0000
,
1010
0000
0001
0000
,
1010
0000
0001
0000
,
0101
0000
1000
0000
,
0101
0000
1000
0000
,
1100
0000
0001
0000
,
2200
0000
3300
0000
,
0010
0100
0010
0000
,
1000
0100
1000
0000
,
0001
0010
0001
0000
,
0100
0010
0100
0000
,
0001
0010
1000
0010
,
0001
1000
0010
0000
,
0100
0001
0100
1000
,
0100
0001
0010
0100
,
1001
0010
0010
1000
,
0001
0010
0001
1000
,
0010
0100
0000
0001
,
0010
0100
0010
0001
,
1000
0010
0000
0100
,
0001
0100
0010
1000
,
0100
0010
0000
0001
,
0010
0100
1000
2002
,
0000
0000
0000
3003
0000
0000
0010
0000
,
0100
0010
0000
1000
,
0100
1000
0000
0011
,
0000
1000
0000
1001
,
0000
0100
0100
0001
,
0010
0001
0000
1000
,
0010
0100
0000
0010
,
1000
0100
0000
0010
,
0000
0100
0000
2002
,
0000
0000
0000
0000
,
0000
0000
0000
3003
;

//---------------dance-single - ----------------
#NOTES:
     dance-single:
     :
     Medium:
     12:
     0.541414,0.629544,0.308807,0.149724,0.028073,405.000000,372.000000,33.000000,16.000000,0.000000,0.000000,0.541414,0.629544,0.308807,0.149724,0.028073,405.000000,372.000000,33.000000,16.000000,0.000000,0.000000:
0000
0000
0000
0000
,
0000
0000
0000
0000
,
0010
0100
1000
0001
1000
0010
0100
0010
,
0000
0010
1000
0001
0010
0000
0011
0000
,
1000
0100
0010
0100
1000
0001
0100
0010
,
0000
0010
1000
0001
0100
0000
0110
0000
,
1010
0000
1010
0001
1001
1000
0001
1000
,
0200
0000
0310
0001
1000
0001
0100
0010
,
1000
0001
0010
0000
1001
0000
0100
0010
,
1000
0000
0020
0000
0000
0000
0000
0000
0130
0000
0000
0001
0000
0000
0010
0000
,
0000
0000
0001
0000
1001
0000
0010
0001
,
1000
0010
0000
0010
0000
0100
0000
0100
,
0001
1000
0001
0000
1000
0010
0100
0010
,
1000
0001
0010
0000
0001
0010
0100
1000
,
0010
1000
0001
0000
0010
0001
0100
0010
,
1000
0100
0001
0100
2000
0000
0000
0000
,
0000
3000
0001
0011
,
1000
0010
0100
0010
1000
0000
0001
0000
,
0010
0100
1000
0000
0010
0000
0110
0000
,
1000
0001
1000
0000
0001
0010
0100
0020
,
0000
0001
0031
0000
1000
0000
1100
0000
,
0001
0100
0010
0000
1000
0000
0010
0100
,
0000
0001
0010
0000
0001
0000
1001
0000
,
0010
0100
0010
0100
0002
0000
0003
0000
,
1001
0000
0000
0000
0010
0000
1000
0010
,
1000
0000
0010
0000
0000
0000
0100
0000
0001
0000
0000
0010
0000
0000
0100
0000
,
0000
1000
0001
0000
0010
0000
0001
0100
,
0000
0001
1000
0001
0000
0010
0100
1000
,
0000
0001
2000
0000
3010
0000
0100
0001
,
0010
0000
0001
0000
0000
0000
1000
0000
0100
0000
0000
1000
0000
0000
0001
0000
,
0000
0010
0100
0000
1000
0000
0001
0000
,
1001
0000
0100
0010
1000
0001
1000
0001
,
1000
0000
1001
0000
0010
0001
1000
0001
,
0010
0100
0000
1000
0000
0010
0000
1000
,
0001
1000
0100
0000
1000
0010
1000
0010
,
0100
0001
0000
0010
0000
0001
0000
1000
,
0001
0010
0200
0000
1300
0010
1000
0000
,
0001
0010
0001
0000
0100
0001
0100
0000
,
0010
1000
0010
0000
0100
0001
1000
0100
,
0010
0000
0001
0000
1000
0000
0010
0000
0200
0300
0000
0000
0000
0000
0000
0000
,
0011
0000
0000
1000
0000
0000
0010
0000
,
1010
0000
0000
0100
0000
0000
0001
0000
,
1100
0000
0000
0010
0000
0000
0100
0000
,
0001
0000
0000
1000
0000
0000
1001
0000
0000
0000
0000
0000
0010
0000
0000
0000
,
1010
0000
0000
0100
0000
0000
0001
0000
,
0011
0000
0000
1000
0000
0000
0100
0000
,
1000
0000
0000
0010
0000
1000
0000
2002
,
0000
0000
0000
3003
,
0010
0000
0001
0100
0001
1000
0000
0000
,
0010
0000
0000
0100
0000
0000
0002
0000
0000
0000
0000
0000
1003
0000
0000
0000
,
0010
0000
1000
0100
0000
1000
0000
0001
,
0000
0100
0000
0010
0100
0010
1000
0000
,
0100
1000
0001
1000
0100
1000
0010
0000
,
0100
0001
0010
0001
1000
0010
0100
0000
,
0001
0010
0100
0000
0010
0100
1000
0000
,
1000
0100
0001
0100
1000
0001
0010
1000
,
0010
0000
0110
0000
1001
0000
0010
0100
,
0001
0000
0001
0010
0100
1000
0010
0100
,
0010
0000
1000
0001
0100
0010
1000
0001
,
0010
0000
0001
0100
1000
0100
0010
0100
,
0001
0000
1000
0010
0001
0010
0000
0000
,
0110
0000
1000
0010
1000
0000
0001
0010
,
0100
0000
1000
0010
0100
0000
0001
0010
,
0100
1000
0001
0000
1001
0000
0100
0010
,
0100
0010
0200
0000
0300
0000
0011
0000
,
1000
0010
0000
0100
0010
0000
1100
0000
,
1000
0001
0000
0010
0001
0000
0100
0001
,
0000
0000
1001
0000
0000
0000
0000
0000
0100
0000
0000
0000
0010
0000
0000
1000
,
0000
0100
0000
1000
0001
0000
0011
0000
,
1000
0010
0000
0000
0100
0000
0001
0010
,
0000
0220
0000
0000
0330
0000
1000
0001
,
1000
0000
0001
0010
0100
0000
1100
0000
,
0000
0101
0000
0220
,
0000
0000
0000
0000
,
0000
0000
0000
0330
;

//---------------dance-single - ----------------
#NOTES:
     dance-single:
     :
     Hard:
     15:
     0.792737,0.944317,0.458531,0.112293,0.425779,593.000000,544.000000,49.000000,12.000000,0.000000,0.000000,0.792737,0.944317,0.458531,0.112293,0.425779,593.000000,544.000000,49.000000,12.000000,0.000000,0.000000:
// measure 0
0000
0000
0000
0000
,  // measure 1
0000
0000
0000
0000
,  // measure 2
0001
0000
1000
0100
1000
0000
0010
0000
0100
0000
0010
1000
0010
0000
0100
0000
,  // measure 3
0000
0000
0100
0010
0100
0000
0001
0000
0010
0000
0100
0000
1000
0000
0000
0000
,  // measure 4
1000
0000
0001
0010
0001
0000
0100
0000
0010
0100
0010
0000
0100
0000
0001
0000
,  // measure 5
0000
0000
0001
0000
0100
0000
0010
1000
0010
0000
0100
0000
0001
0000
0001
0000
,  // measure 6
0011
0000
0000
0000
1100
0000
1010
0000
0011
0000
0010
0100
1000
0000
0010
0000
,  // measure 7
0110
0000
0000
0000
1000
0000
0001
0000
0010
0000
0001
0000
1000
0010
1000
0010
,  // measure 8
0100
0001
0100
0001
0010
0000
0000
0000
0101
0000
0000
0000
0010
0000
1000
0000
,  // measure 9
0100
0000
0010
0000
0000
0000
0010
0000
0001
0000
0000
1000
0000
0000
1001
0000
,  // measure 10
0000
0010
0010
0000
1010
0000
0100
0001
,  // measure 11
0100
1000
0000
1000
0100
0010
1000
0001
,  // measure 12
0010
0000
0100
1000
0001
0000
0000
0000
0010
0000
0001
0000
0100
0000
0001
1000
,  // measure 13
0010
0000
0100
0000
0001
0000
1000
0100
0010
0000
0001
0000
1000
0000
0001
0010
,  // measure 14
0100
1000
0001
0010
0001
0100
1000
0100
,  // measure 15
0001
0010
0001
0010
0100
1000
0100
1000
0010
0000
0010
0000
0010
0000
0010
0000
,  // measure 16
0100
0000
1001
0000
0010
0001
0100
0001
,  // measure 17
0010
0100
1000
0100
0001
0100
1000
0010
,  // measure 18
0000
0100
0110
0000
1000
0001
0010
0001
,  // measure 19
1000
0100
0001
0100
1000
0001
0010
0200
,  // measure 20
0000
0310
0110
0000
0001
0010
0100
1000
,  // measure 21
0010
0100
1000
0100
0001
0010
0100
1000
,  // measure 22
0100
0100
0110
0000
0011
0000
1100
0000
,  // measure 23
1000
0000
0001
0000
0100
0000
0010
0100
0020
0000
0000
0000
0030
0000
0000
0000
,  // measure 24
1001
0000
0000
0000
0110
0000
0000
0000
1000
0000
0100
0000
0010
0000
0100
1000
,  // measure 25
0001
0000
0100
0000
0010
0000
1000
0001
0100
0000
0000
0010
0000
0000
0110
0000
,  // measure 26
0000
0000
1000
0000
0100
0000
1000
0000
0001
0000
0010
0000
0100
0000
1000
0010
,  // measure 27
0100
0000
0010
0000
1000
0000
0100
0010
0001
0000
1000
0000
0001
0000
0010
0000
,  // measure 28
0100
0000
1000
0000
1001
0000
0000
0000
0010
0000
1000
0000
0100
0000
0010
0001
,  // measure 29
1000
0000
0010
0000
0100
0000
0001
1000
0100
0000
0000
1000
0000
0000
0010
0000
,  // measure 30
0000
0010
0100
0001
0010
0001
1000
0100
,  // measure 31
1000
0010
1000
0000
0001
0010
0100
1000
0001
0000
0001
0000
0001
0000
0001
0000
,  // measure 32
1000
0000
0000
0000
0110
0000
0000
0000
0001
0000
0010
0001
0010
0000
0100
0000
,  // measure 33
1000
0010
1000
0000
0001
0000
0100
0000
0000
0000
0100
0000
0010
0000
0100
0010
,  // measure 34
0100
0000
0001
0000
0011
0000
0000
0000
1000
0000
0010
0100
0010
0000
1000
0000
,  // measure 35
0100
1000
0100
0000
0010
0000
0001
0000
0000
0000
0001
0000
1000
0000
0010
0100
,  // measure 36
0001
0000
1000
0000
1001
0000
0000
0000
0010
0000
0001
0000
1000
0000
0010
0100
,  // measure 37
0010
0000
1000
0000
0001
0000
0010
0000
0000
0000
0010
0000
0100
0000
1000
0010
,  // measure 38
1000
0001
0010
0100
1000
0001
0010
0001
,  // measure 39
0100
0010
0100
0010
1000
0001
1000
0001
0020
0030
0000
0000
0000
0000
0000
0000
,  // measure 40
1100
0000
0001
0011
0000
0000
0001
0000
,  // measure 41
0110
0000
1000
1010
0000
0000
0100
0000
,  // measure 42
0011
0000
0001
1001
0000
0000
0110
0000
,  // measure 43
1000
0000
0001
0000
0000
0000
1001
0000
0000
0000
0100
0010
0100
0000
0000
0000
,  // measure 44
0101
0000
0010
0011
0000
0000
1010
0000
,  // measure 45
1100
0000
0010
0110
0000
0000
1000
0000
,  // measure 46
0001
0100
1000
0001
0000
1010
0000
0022
,  // measure 47
0000
0000
0000
0033
,  // measure 48
1100
0000
0001
0010
0100
0020
0000
0031
,  // measure 49
1000
0000
0000
0010
0000
0000
1100
0000
0000
0000
0010
0000
0001
0000
0010
0000
,  // measure 50
0100
0000
1000
0001
0100
0010
0000
1010
,  // measure 51
0000
0011
0000
0001
0010
0100
1000
0000
,  // measure 52
0001
0100
0001
0100
0001
0100
0001
0100
0001
0100
0001
0100
0001
0000
0000
0000
,  // measure 53
1000
0100
1000
0100
1000
0100
1000
0100
1000
0100
1000
0100
1000
0000
0000
0000
,  // measure 54
0100
0010
0100
0000
0001
0010
0001
0000
1000
0100
1000
0000
0001
0100
0001
0000
,  // measure 55
1000
0000
0010
0000
0001
0000
0010
0000
0100
0001
0100
0000
0010
1000
0100
0010
,  // measure 56
0002
0003
0000
0000
1010
0000
0000
0000
0011
0000
0000
0000
1000
0001
0100
0000
,  // measure 57
0010
0000
1000
0000
0001
0000
0010
0000
0100
1000
0001
0000
0100
0010
1000
0000
,  // measure 58
0100
0000
1000
0000
0001
0000
0100
0000
0010
0000
0000
0000
0100
0001
1000
0000
,  // measure 59
0010
0000
1000
0000
0100
0010
0001
0000
1000
0000
0010
0000
0100
0000
0001
0000
,  // measure 60
0010
0100
1000
0000
0010
0000
0100
0000
0001
0000
0010
0001
0020
0000
0000
0000
,  // measure 61
0130
0000
1000
0000
0010
0000
0100
0000
0001
1000
0001
0000
0010
0000
0100
0000
,  // measure 62
1000
0000
0010
0000
0100
0000
0001
0000
1000
0001
0100
0000
0010
0000
0100
0001
,  // measure 63
0000
0001
0010
0000
0100
0000
1000
0000
0001
0000
1000
0010
0100
0000
0000
0000
,  // measure 64
0110
0000
1001
0000
0110
0000
0010
0001
,  // measure 65
1000
0000
0001
0010
0000
0001
0010
0000
0100
0000
1000
0000
0010
0000
0100
0000
,  // measure 66
0010
0000
1000
0001
0000
1000
0001
0000
0100
0000
0010
0000
1000
0000
0100
0000
,  // measure 67
1000
0000
0001
0010
0000
0100
1000
0000
0010
0000
0010
0000
1000
0000
0001
0010
,  // measure 68
0000
0001
1000
0000
0100
0000
1000
0000
1010
0000
0000
0000
0100
0000
0001
0000
,  // measure 69
0010
0000
0001
1000
0000
1000
0010
0000
0100
0000
0010
0000
1000
0000
0100
0000
,  // measure 70
0010
0000
0001
0100
0000
0100
0010
0000
0100
0010
0100
0000
0001
0000
0000
0000
,  // measure 71
0011
0000
0000
0000
0100
0000
0100
0000
0100
0000
1000
0001
2000
0000
0000
0000
,  // measure 72
3010
0012
0103
0220
,  // measure 73
0000
0000
0000
0000
,  // measure 74
0000
0000
0000
0330
;
