#TITLE:He is my only star;
#SUBTITLE:;
#ARTIST:SUPER HEROINE 彩香-AYAKA-;
#TITLETRANSLIT:;
#SUBTITLETRANSLIT:;
#ARTISTTRANSLIT:SUPER HEROINE AYAKA;
#GENRE:;
#CREDIT:;
#BANNER:He_is_my_only_star_banner.png;
#BACKGROUND:He_is_my_only_star.png;
#LYRICSPATH:;
#CDTITLE:;
#MUSIC:He is my only star.ogg;
#OFFSET:-0.620000;
#SAMPLESTART:63.049999;
#SAMPLELENGTH:12.000000;
#SELECTABLE:YES;
#BPMS:0.000000=160.000000
;
#STOPS:
;
#BGCHANGES:;
#KEYSOUNDS:;
#ATTACKS:;

//---------------dance-single - ----------------
#NOTES:
     dance-single:
     :
     Easy:
     6:
     0.235086,0.287745,0.094034,0.094034,0.000000,175.000000,165.000000,10.000000,10.000000,0.000000,0.000000,0.235086,0.287745,0.094034,0.094034,0.000000,175.000000,165.000000,10.000000,10.000000,0.000000,0.000000:
0000
0000
0000
0000
,
0000
0000
0000
0000
,
0000
0000
0000
0000
,
0000
0000
0000
0000
,
0000
0000
0000
0000
,
0000
0000
0000
0000
,
0000
0000
0000
0000
,
0000
0000
0000
0000
,
1000
0000
0010
0100
,
0010
0000
1000
0000
,
0010
0100
0001
0000
,
1000
0100
0010
0000
,
0001
0000
0100
0010
,
0100
0000
0001
0000
,
2000
0000
3001
0000
,
0100
0000
0000
0010
0000
0000
0100
0000
,
0001
0000
0010
0001
,
2000
0000
3100
0000
,
1000
0000
0010
0100
,
0002
0000
0013
0000
,
0001
0000
1001
0000
,
0100
0000
0110
0000
,
0001
0010
0100
0000
,
0010
0000
0000
0001
0000
0000
1000
0000
,
0100
1000
0001
0000
,
1000
0010
0100
0000
,
0001
1000
0010
0000
,
0100
0010
1000
0000
,
1001
0000
0010
0000
,
1001
0000
0100
0000
,
0010
1000
0100
0000
,
0020
0000
0030
0000
,
0001
0100
0010
0000
,
1000
0100
0010
0000
,
0001
0010
0001
0000
,
1000
0100
1000
0000
,
0110
0000
1000
0000
,
0100
0010
0100
0001
,
2000
0000
3001
0000
,
0001
0010
0100
1000
,
0001
0000
1000
0000
,
0001
0000
0000
0200
0000
0000
0300
0000
,
0010
0100
0010
0000
,
1000
0001
1000
0000
,
0101
0000
0010
1000
,
0100
0000
1100
0000
,
0001
0100
0010
0000
,
0100
0001
0010
0000
,
0001
1000
0010
1000
,
0220
0000
0000
0000
0000
0330
0000
0000
,
0001
0100
0010
0000
,
1000
0010
0100
0000
,
1001
0000
0100
0010
,
1000
0100
0010
0000
,
0001
0100
0010
1000
,
0001
0000
0000
0010
0000
0000
0100
0000
,
1000
0000
0000
0000
1001
0000
0000
0010
,
0000
0200
0000
0300
,
0000
0010
1000
0100
,
1000
0001
0100
0000
,
0010
1000
0100
0010
,
0100
0001
0100
0000
,
1000
0010
1000
0001
,
0100
0001
0010
0000
,
0001
0010
0100
1000
,
0001
0000
0000
1000
0000
0000
0001
0000
,
0100
0010
0000
0000
0000
0000
0000
0000
,
1000
0000
0000
0002
0000
0000
0000
0000
,
0003
0000
0000
0000
;

//---------------dance-single - ----------------
#NOTES:
     dance-single:
     :
     Medium:
     10:
     0.445992,0.447604,0.159859,0.131648,0.070526,332.000000,315.000000,17.000000,14.000000,0.000000,0.000000,0.445992,0.447604,0.159859,0.131648,0.070526,332.000000,315.000000,17.000000,14.000000,0.000000,0.000000:
0000
0000
0000
0000
,
0000
0000
0000
0000
,
0000
0000
0000
0000
,
0000
0000
0000
0000
,
1000
0010
0100
0000
0001
0000
0010
0000
,
0001
1000
0100
0000
0010
0000
0001
0000
,
1001
0000
0110
0000
,
0100
0001
1000
0000
0100
0000
0110
0000
,
0001
0000
1000
0000
0001
0000
0000
0000
1000
0000
0000
0010
0000
0000
0010
0000
,
0100
0000
0001
0000
1000
0000
0000
0000
0100
0000
0000
1000
0000
0000
1000
0000
,
0001
0000
0100
0000
0010
0000
0000
0000
0100
0000
0000
0001
0000
0000
0001
0000
,
1000
0000
0010
0000
0100
0000
0000
0000
0001
0000
0000
0010
0000
0000
0010
0000
,
0001
1000
0100
0000
1000
0001
0010
0000
,
0001
1000
0010
0000
1000
0001
0100
0000
,
0010
0100
0010
0000
1000
0001
1000
0000
,
0010
0000
0000
0010
0000
0000
0100
0000
0000
0100
0000
0000
0001
0000
1000
0000
,
0001
0000
0010
0000
0110
0000
0000
1000
,
0000
1000
0000
0010
0000
0100
0000
0100
,
0001
0000
0010
0000
0011
0000
0000
1000
,
0000
0010
0000
0100
0000
0010
0000
1000
,
0010
0000
0100
0000
0110
0000
0000
0001
,
0000
0010
0000
0100
0000
1000
0000
0001
,
0100
0000
0000
0010
0000
0000
0100
0000
0000
0000
0001
0000
1000
0000
0000
0000
,
0010
1000
0000
0001
0000
1000
0100
0010
,
0001
0000
1000
0000
1100
0000
0000
0010
,
0000
0100
0000
0001
0000
0010
0000
0001
,
0100
0000
0010
0000
1010
0000
0000
0100
,
0000
0001
0000
1000
0000
0010
0000
0100
,
0001
0000
0000
0010
0000
0000
0002
0000
0000
0000
0000
0000
1003
0000
0000
0000
,
2000
0000
3010
0010
,
0100
0001
1000
0020
0000
0000
0130
0000
,
0001
0010
0001
0010
0000
0100
1000
0000
,
0010
0000
0000
0000
1000
0000
0000
0000
0010
0000
0000
0100
0000
0000
0010
0000
,
0000
1000
0001
0000
0010
0100
0010
0001
,
0000
0001
2000
0000
0000
0000
3001
0000
,
0100
0000
0010
0100
0000
0010
0100
0000
,
1001
0000
0000
0010
0000
1000
0100
1000
,
0001
0000
0010
0001
0000
0100
0010
0000
,
0220
0000
0000
0330
0000
0001
1000
0001
,
0010
0000
0100
1000
0000
0001
1000
0000
,
0010
0000
0000
0010
0000
0000
0010
0000
0100
0000
0000
0100
0000
0000
0100
0000
,
0001
0000
0000
1000
0000
0000
0002
0000
0000
0000
0000
0000
1003
0000
0000
0000
,
0010
0000
1000
0100
0000
0010
0001
0100
,
0000
0010
0100
0010
0000
0000
0110
0000
,
2000
0000
0000
3001
0000
0100
0010
0100
,
0000
0001
0020
0000
0000
0000
0031
0000
,
1100
0000
1000
0010
0000
0100
0001
1000
,
0000
0010
0100
0001
0000
0000
0010
0000
,
0100
0000
0110
0000
1000
0001
1000
0010
,
0000
0010
0200
0000
0001
0000
0301
0000
,
0010
0000
0001
0000
1001
0000
0000
0100
,
0010
1000
0001
0010
0000
0001
1000
0000
,
0100
1000
0001
0000
0100
0010
0100
0000
,
0010
1000
0001
0100
0000
0001
0010
0000
,
1001
0100
1000
0010
,
0100
0010
1000
0001
0000
0010
0100
1000
,
0001
0000
1001
0000
0010
0100
0010
1000
,
0000
1000
0002
0000
0000
0000
0013
0000
,
0001
0000
1000
0100
1000
0000
0010
0000
,
0100
0010
1000
0100
1000
0000
0001
0000
,
0010
0001
0010
0000
0001
1000
0100
0000
,
1000
0010
0100
0001
0010
0000
0100
0000
,
0100
0010
0001
0000
1000
0010
0100
0000
,
0001
0010
1000
0000
1000
0010
0001
0000
,
1000
0100
0010
0100
1000
0000
0001
0000
,
0100
0000
0000
0100
0000
0000
0010
0000
0000
0010
0000
0000
1000
0000
0001
0000
,
0010
0100
0020
0000
0000
0000
0030
0000
,
0001
0000
0000
1000
0000
0000
2002
0000
0000
0000
0000
0000
0000
0000
0000
0000
,
3003
0000
0000
0000
;

//---------------dance-single - ----------------
#NOTES:
     dance-single:
     :
     Hard:
     15:
     0.734812,0.927180,0.554803,0.131648,0.441962,547.000000,488.000000,59.000000,14.000000,0.000000,0.000000,0.734812,0.927180,0.554803,0.131648,0.441962,547.000000,488.000000,59.000000,14.000000,0.000000,0.000000:
// measure 0
0000
0000
0000
0000
,  // measure 1
0000
0000
0000
0000
,  // measure 2
0000
0000
0000
0000
,  // measure 3
0000
0000
0000
0000
,  // measure 4
0100
0000
0010
0000
0010
0000
1000
0000
0001
0000
0000
0010
0000
0000
0001
0000
,  // measure 5
1000
0100
0100
0010
0002
0000
1003
0000
,  // measure 6
0110
0000
0010
1000
1100
0000
0001
0010
,  // measure 7
0001
0010
1000
0001
0100
1000
1001
0000
,  // measure 8
0010
0000
0100
0000
0010
1000
0000
0010
0100
0000
0001
0100
0000
0010
0100
0000
,  // measure 9
0001
0010
0000
0001
1000
0000
0010
1000
0000
0001
0010
0000
0100
1000
0000
0100
,  // measure 10
1000
0000
0010
0000
0100
0001
0000
1000
0010
0000
0100
0010
0000
1000
0100
0000
,  // measure 11
1000
0010
0000
0100
0001
0000
0010
0001
0000
1000
0010
0000
0100
0001
0000
0010
,  // measure 12
0002
0000
0013
0011
0000
1000
0020
0000
,  // measure 13
0130
0110
0000
0010
1000
0001
0010
0100
,  // measure 14
1000
0000
0010
0000
0100
0001
0000
1000
0100
0000
1000
0010
0000
0000
0100
0000
,  // measure 15
0101
0000
0000
1010
0000
0000
0011
0000
0000
1001
0000
0000
0110
0000
0010
0000
,  // measure 16
1000
0001
0010
0000
0011
0000
1000
0100
,  // measure 17
0000
0010
0001
1000
0100
1000
0010
0001
,  // measure 18
0010
0100
0010
0000
1010
0000
0100
0001
,  // measure 19
0000
0001
0010
1000
0001
0100
1000
0000
,  // measure 20
1001
0001
0100
0000
0110
0000
0010
1000
,  // measure 21
0000
1001
0001
0100
0010
1000
0100
0010
,  // measure 22
0001
0000
0000
1010
0000
0000
2100
0000
0000
0000
0001
0000
3001
0000
0001
0000
,  // measure 23
0100
0110
0000
0101
0000
0011
0010
1100
,  // measure 24
1000
0001
1001
0000
0120
0000
1030
0001
,  // measure 25
0000
0001
0010
1000
0010
0100
0001
1000
,  // measure 26
0010
0001
1001
0000
0210
0000
0301
1000
,  // measure 27
0010
0001
1000
0100
0001
0010
0100
0000
,  // measure 28
1100
0000
0000
0001
0000
0000
0012
0000
0000
0000
1003
0000
0010
0000
0100
0000
,  // measure 29
0010
1000
0100
0001
0100
1000
0010
0100
,  // measure 30
0001
0010
1000
0020
0000
0001
0031
0100
,  // measure 31
0010
0000
0010
0000
0100
0000
0110
0000
0000
0000
0001
0000
1000
0000
0001
1000
,  // measure 32
0001
0000
0100
0000
0010
0000
1000
0000
0100
0000
1000
0010
0000
1000
0100
0000
,  // measure 33
1000
0001
0010
0100
0001
0100
0000
1100
,  // measure 34
0000
1000
0020
0000
0100
0000
0130
0001
,  // measure 35
0010
0100
0010
1000
0010
0001
0010
0000
,  // measure 36
1001
0000
0100
0010
0000
0010
1000
0001
,  // measure 37
0010
0001
1000
0100
0000
1000
0010
0001
,  // measure 38
0010
0000
0100
0000
0010
0100
0010
0000
1000
0000
0001
0000
1000
0001
1000
0000
,  // measure 39
0010
0100
0010
0100
0010
0100
0010
0100
0001
1000
0001
1000
0001
1000
0001
0000
,  // measure 40
0011
0000
0000
1001
0000
0000
0101
0000
0110
0000
0000
1010
0000
0000
1001
0000
,  // measure 41
1010
0000
0000
0101
0000
0000
0012
0000
0000
0000
1000
0000
1003
0000
0000
0000
,  // measure 42
0010
0100
1000
0001
0000
0010
0100
0001
,  // measure 43
0000
1000
0100
0010
0100
0000
0011
0000
,  // measure 44
1000
0010
0100
0010
1000
0001
0010
0100
,  // measure 45
0000
0100
0010
1000
0010
0001
1001
0000
,  // measure 46
0100
0010
0100
0110
0000
0001
1000
1100
,  // measure 47
0000
1000
0001
0101
0000
0010
0110
0000
,  // measure 48
1000
0000
0000
1000
0001
0000
0000
0001
0100
0000
0010
0000
0100
0000
1000
0000
,  // measure 49
0000
1000
0100
0001
0100
0010
0110
0000
,  // measure 50
1000
0000
0100
0000
0010
0000
0100
0000
1000
0000
0001
0100
0010
0000
1000
0000
,  // measure 51
0010
0000
0100
0000
0001
0000
0010
0000
0001
0000
1000
0100
0010
0000
0100
0000
,  // measure 52
1000
0000
0010
0000
0100
0000
0001
0000
0010
0000
0100
1000
0001
0000
0100
0000
,  // measure 53
0010
1000
0001
0010
0000
0011
0000
1100
,  // measure 54
1000
0000
0100
0000
0001
0000
0100
0000
1000
0000
0010
0100
0010
0000
0100
0000
,  // measure 55
0001
0000
0100
0000
1000
0000
0100
0000
0001
0000
0100
0010
0100
0000
0010
0000
,  // measure 56
1000
0100
1000
0100
1000
0000
0001
0010
0001
0010
0001
0000
1000
0000
1001
0000
,  // measure 57
0000
0010
0220
0000
0000
0000
0330
0000
,  // measure 58
1000
0001
1000
0000
0010
0000
0100
0000
0001
0000
0010
0001
0000
1000
0100
0000
,  // measure 59
1000
0010
0000
0100
0001
0000
1000
0010
0000
0100
0010
0000
1000
0001
0000
1000
,  // measure 60
0010
0000
0100
0000
0010
1000
0000
0001
0100
0000
0001
0010
0000
0100
1000
0000
,  // measure 61
0001
0010
0000
0001
1000
0000
0010
0100
0000
0001
1000
0000
0100
1000
0000
0000
,  // measure 62
0100
0010
0000
0100
0010
0000
0100
0010
0000
0100
0010
0000
0100
0010
0100
0000
,  // measure 63
1000
0001
0000
1000
0001
0000
1000
0001
0000
1000
0001
0000
1000
0001
1000
0000
,  // measure 64
0010
0100
0000
0010
1000
0000
0001
0010
0000
0100
1000
0000
0010
0100
0010
0000
,  // measure 65
1100
0000
0000
0101
0000
0000
0011
0000
0000
1010
0000
0000
0110
0000
1001
0000
,  // measure 66
0010
0000
0100
0000
0001
0010
0100
1000
0001
0010
0100
1000
0010
0000
0000
0000
,  // measure 67
0011
0000
0000
1100
0000
0000
0202
0000
0000
0000
0000
0000
0000
0000
0000
0000
,  // measure 68
0303
0000
0000
0000
;
