#TITLE:Hastur;
#SUBTITLE:;
#ARTIST:USAO;
#TITLETRANSLIT:;
#SUBTITLETRANSLIT:;
#ARTISTTRANSLIT:;
#GENRE:;
#CREDIT:;
#BANNER:Hastur_banner.png;
#BACKGROUND:Hastur.png;
#LYRICSPATH:;
#CDTITLE:;
#MUSIC:Hastur.ogg;
#OFFSET:-0.800000;
#SAMPLESTART:82.139999;
#SAMPLELENGTH:12.000000;
#LASTBEATHINT:226.000000;
#SELECTABLE:YES;
#BPMS:0.000000=118.000000
;
#STOPS:
;
#BGCHANGES:;
#KEYSOUNDS:;
#ATTACKS:;

//---------------dance-single - ----------------
#NOTES:
     dance-single:
     :
     Easy:
     9:
     0.323647,0.330144,0.109487,0.126331,0.000000,269.000000,256.000000,13.000000,15.000000,0.000000,0.000000,0.323647,0.330144,0.109487,0.126331,0.000000,269.000000,256.000000,13.000000,15.000000,0.000000,0.000000:
0000
0000
0000
0000
,
0000
0000
0000
0000
,
0000
0000
0000
0000
,
0000
0000
0000
0000
,
0001
1000
0001
1000
,
0010
0100
0010
0100
,
0001
0010
0100
1000
,
0010
0100
0001
0010
,
0001
0000
1000
0010
1000
0000
0010
0000
,
0100
0000
0001
1000
0001
0000
0100
0000
,
0010
1000
0010
0000
0100
0001
0100
0000
,
0010
0110
1001
0020
,
0130
0000
0001
1000
0001
1000
0001
0000
,
1000
0000
0010
0100
0010
0100
0010
0000
,
0100
0000
0001
0010
0001
0010
0001
0000
,
1000
0000
0010
0100
0010
0000
0100
0000
,
0001
0000
1000
0010
1000
0010
1000
0000
,
0001
0000
0100
0001
0100
0001
0100
0000
,
0010
0000
1000
0001
1000
0001
1000
0000
,
0010
0000
1000
0000
0001
0000
0100
0001
,
2000
0010
0000
3010
,
0002
0010
0000
0013
,
2000
0100
0000
3100
,
0002
0000
0100
0000
0000
0000
0103
0001
,
1000
1010
0001
0101
,
1000
1100
0001
0011
,
0100
0000
0010
0100
0010
1000
0010
0000
,
0100
0000
0001
0010
0001
1000
0001
0000
,
2001
0000
3020
0000
,
0230
0000
0301
0001
,
0020
0001
0032
0100
,
0203
0010
0320
1000
,
1030
0000
0001
1000
0001
0000
1000
0000
,
0010
0000
0100
0010
0100
0000
0010
0000
,
1000
0000
0001
0100
0010
0000
0100
0000
,
0001
0000
1000
0100
0010
0000
0100
0000
,
0010
0000
0001
1000
0001
1000
0001
0000
,
0100
0000
0010
0100
0010
0100
0010
0000
,
1000
0100
1000
0000
0001
0100
0001
0000
,
0100
0110
1001
0020
,
0130
0000
0001
0010
0001
0100
0001
0000
,
1000
0000
0010
1000
0001
1000
0010
0000
,
0100
0000
0010
1000
0001
0000
0100
0000
,
0001
0000
0010
0100
1000
0000
0010
0000
,
0100
0000
0001
1000
0010
0000
1000
0000
,
0001
0000
0100
0010
1000
0000
0001
0000
,
0010
0000
0001
1000
0100
0010
0001
0000
,
1000
0010
1000
0000
0001
0100
0010
0000
,
2000
0010
0010
3010
,
0002
0010
0010
0013
,
0100
0000
0001
1000
0001
1000
0001
0000
,
0100
0010
0100
0000
0010
1000
0001
0000
,
0100
1001
0010
1001
,
0100
0110
0001
0110
,
1000
0010
0100
0000
0001
0010
0100
0000
,
1000
0001
0010
0000
0001
1000
0100
1000
,
0010
0000
0000
0000
;

//---------------dance-single - ----------------
#NOTES:
     dance-single:
     :
     Medium:
     12:
     0.507729,0.518798,0.176863,0.075798,0.252661,422.000000,401.000000,21.000000,9.000000,0.000000,0.000000,0.507729,0.518798,0.176863,0.075798,0.252661,422.000000,401.000000,21.000000,9.000000,0.000000,0.000000:
0000
0000
0000
0000
,
0000
0000
0000
0000
,
0000
0000
0000
0000
,
0000
0000
0000
0000
,
1001
0000
0100
0010
1000
0001
0010
0000
,
1100
0000
0001
0100
0010
0100
0001
0000
,
1010
0000
0100
0001
0010
1000
0010
0000
,
0101
0000
0001
1000
0010
0001
0010
0000
,
0100
0010
0010
0010
1000
0100
0001
0100
,
1000
0001
0001
0001
0010
0001
0010
1000
,
0010
0001
0100
0010
1000
0100
0010
1000
,
0010
0001
0100
1000
0100
0010
0110
0000
,
1001
0000
0100
0010
0100
0001
0010
0001
,
1000
0100
0001
0100
1000
0010
0001
0010
,
0100
0001
0010
0001
1000
0010
0100
0001
,
1000
0000
0100
0000
0010
0001
0000
0001
0100
0000
0010
0000
1000
0000
0100
0000
,
0010
0100
1000
0100
0010
0001
0100
0010
,
0100
0001
0010
0001
0100
0010
1000
0100
,
1000
0001
0010
0001
1000
0100
0010
0100
,
1000
0000
0001
0000
0100
0010
0000
0010
0100
0000
0001
0000
2002
0000
3003
0000
,
0010
0000
0100
0000
0010
1000
0000
0001
0000
1000
0000
0001
1000
0001
1000
0000
,
0010
0000
0100
0010
0000
0100
0010
0000
1000
0000
0010
0000
0100
0000
0001
0000
,
0010
0000
0001
0000
1000
0100
0000
0100
0000
0100
1000
0100
0000
1000
0001
0000
,
0010
0000
0001
0010
0000
0010
0000
0010
0000
0001
0010
0001
0000
1000
0100
0000
,
0010
0001
1001
0000
0100
0010
1010
0000
,
0001
0100
0101
0000
1000
0010
0110
0000
,
0001
0000
0010
0000
0001
1000
0000
0010
0000
1000
0000
0010
0000
0100
0001
0000
,
0010
0100
1000
0001
0100
0010
0110
0000
,
2000
0010
3002
0100
,
0203
0010
0302
0010
,
2003
0100
3020
0100
,
0230
0001
1000
0301
,
0110
0000
0001
1000
0100
0010
0100
0000
,
1000
0010
0100
0001
0010
0001
0100
0000
,
0010
1000
0100
0001
0100
1000
0010
0000
,
0100
0001
0100
1000
0100
0010
1000
0000
,
1001
0000
0001
0000
0010
0000
0100
0000
0010
0000
0001
0000
0000
1000
0100
0000
,
1000
0000
0010
0000
0100
0000
0001
0000
0010
0000
0001
0100
0000
0010
1000
0000
,
0100
1000
0001
0010
0100
1000
0001
0010
,
0100
1000
0010
0001
0010
1000
0110
0000
,
0101
0000
0001
0000
0010
0000
0001
1000
0010
0000
0100
0000
0001
0000
0100
0000
,
0010
0000
1000
0000
0100
0000
1000
0001
1000
0000
0010
0000
0100
0000
0001
0000
,
0010
0000
0100
1000
0100
0000
1000
0000
0001
0000
0010
0001
0010
0000
0001
0000
,
0100
0000
0010
0000
1000
0001
0000
1000
0000
0010
0100
0000
0001
0000
1000
0000
,
0100
0000
0010
0000
0001
0000
1000
0001
1000
0000
0100
0000
0010
0000
0001
0000
,
0100
0000
0010
0000
1000
0000
0001
0010
0001
0000
0100
0000
0010
0000
1000
0000
,
0100
0000
1000
0010
1000
0000
0001
0000
0100
0000
0001
0010
0001
0000
0100
0000
,
0010
0000
1000
0000
0001
1000
0000
0010
0000
0100
0000
0001
0000
1000
0100
0000
,
1000
0000
0010
0000
0100
0000
0001
0010
0001
0000
0100
0000
0010
0000
0010
0000
,
1000
0000
1000
0000
0001
0000
0001
0000
0100
0010
0100
0000
0010
0000
0100
0000
,
0001
0000
0010
0000
0100
1000
0000
1000
0000
1000
0000
1000
0000
0001
0100
0000
,
0010
0000
0100
0000
0001
0010
0000
0010
0000
0010
0000
0010
0000
0001
0100
0000
,
0010
1000
1100
0000
0001
0010
0011
0000
,
0100
0010
0101
0000
0100
0010
1010
0000
,
1000
0000
0001
0000
0010
0000
0001
1000
0001
0000
0100
0000
0010
0000
0100
0000
,
0001
0000
1000
0000
0100
0000
0010
0100
0010
0000
0001
0000
0100
0000
0000
0000
,
1010
0000
0000
0000
;

//---------------dance-single - ----------------
#NOTES:
     dance-single:
     :
     Hard:
     15:
     0.682186,0.707452,0.269505,0.033688,0.766406,567.000000,535.000000,32.000000,4.000000,0.000000,0.000000,0.682186,0.707452,0.269505,0.033688,0.766406,567.000000,535.000000,32.000000,4.000000,0.000000,0.000000:
// measure 0
0000
0000
0000
0000
,  // measure 1
0000
0000
0000
0000
,  // measure 2
0000
0000
0000
0000
,  // measure 3
0000
0000
0000
0000
0000
0000
0000
1001
,  // measure 4
0010
0000
0000
0010
0000
0100
0010
0000
0100
0000
0010
0000
0010
0000
0010
0000
,  // measure 5
1000
0000
0000
1000
0000
0001
1000
0000
0001
0000
1000
0000
1000
0000
1000
0000
,  // measure 6
0001
0000
0000
0001
0000
0010
0001
0000
0100
0000
0010
0000
1000
0000
0100
0000
,  // measure 7
1000
0000
0000
1000
0000
0010
1000
0000
0010
0000
0100
0000
0001
0000
0010
0000
,  // measure 8
0001
0000
1000
0010
0000
1000
0010
1000
0100
0000
1000
0010
1000
0010
1000
0000
,  // measure 9
0001
0000
0100
0001
0000
0100
0001
0100
0010
0000
0100
0001
0100
0001
0100
0000
,  // measure 10
0001
0000
1000
0001
1000
0001
1000
0001
0100
0000
0010
0100
0010
0100
0010
0100
,  // measure 11
0001
1000
0100
0010
0100
1000
0010
0100
0010
1000
0100
1000
0002
0000
0000
0000
,  // measure 12
0103
0000
0010
0000
0110
0000
0100
0010
0100
0010
0100
0010
0100
0001
0100
0000
,  // measure 13
0010
0000
1010
0000
1000
0000
0100
1000
0100
1000
0100
1000
0100
1000
0001
0000
,  // measure 14
0010
0000
0001
0000
0101
0000
0100
0010
1000
0010
0100
0010
1000
0010
0100
0000
,  // measure 15
0001
0000
1000
0100
0000
0010
0000
0011
0000
0000
0010
0000
0100
1000
0100
0000
,  // measure 16
1000
0000
0001
0010
0000
0001
0100
0001
0000
0001
0100
0001
0100
0010
1000
0000
,  // measure 17
0100
0000
1000
0100
0000
1000
0010
1000
0000
1000
0010
1000
0020
0000
0100
0000
,  // measure 18
0130
0000
0001
1000
0000
0010
0100
0010
0000
0100
0010
0100
0001
0000
1000
0000
,  // measure 19
0010
0000
1000
0100
0000
0001
0100
0000
1000
0000
0010
0100
0010
0000
0110
0000
,  // measure 20
0001
0000
1000
0000
0001
1000
0000
1001
0000
1000
0001
1000
0001
0100
0010
0000
,  // measure 21
0100
0000
0010
1000
0000
0001
0000
0101
0000
0010
0001
1000
0100
0000
0010
0100
,  // measure 22
1000
0000
0100
0000
0010
0001
0000
1001
0000
0100
0001
1000
0010
0100
0010
0100
,  // measure 23
0001
0000
0010
0100
0000
1100
0000
1000
0000
0010
0100
0001
1000
0100
0020
0000
,  // measure 24
0031
0100
0011
1000
0010
0100
1100
0010
,  // measure 25
0100
0001
1001
0100
0010
1000
0101
0010
,  // measure 26
1000
0000
0100
1000
0000
0001
0000
1000
0000
0010
0100
0010
0100
0010
0100
0000
,  // measure 27
0001
0000
1000
0000
0010
0100
0000
0001
0000
1000
0100
0000
0120
0000
0000
0000
,  // measure 28
1030
0100
1000
0100
0010
0001
0010
0001
,  // measure 29
0100
0010
0100
0010
1000
0001
1000
0001
,  // measure 30
1000
0000
0010
0000
0100
0010
0000
0100
0000
0001
1000
0000
0100
0000
0010
0000
,  // measure 31
0001
0000
0100
0000
0010
1000
0000
0100
0000
1000
0010
0000
0100
0000
0001
0000
,  // measure 32
0011
0000
0010
0000
0100
1000
0100
1000
0000
0001
0010
0000
0001
0000
0100
0000
,  // measure 33
0010
0000
1000
0000
0010
0100
0010
0100
0000
0001
0010
0000
0001
0000
1000
0000
,  // measure 34
0100
0000
1000
0000
0010
1000
0001
0100
0000
0010
0100
0000
0001
0000
0010
0000
,  // measure 35
0001
0000
0100
0000
0010
1000
0001
1000
0000
0100
1000
0000
0010
0000
0100
0000
,  // measure 36
0001
0000
0010
0001
0000
0001
0010
0001
0010
0100
1000
0100
1000
0100
1000
0000
,  // measure 37
1000
0000
0010
1000
0000
0010
1000
0010
0100
0001
0100
0001
0100
0001
0100
0000
,  // measure 38
1001
0000
0010
0100
0000
0100
0010
0000
1001
0000
0100
0010
0000
0010
0100
0000
,  // measure 39
1001
0010
1001
0100
1001
0010
0110
0000
,  // measure 40
1100
0000
1000
0000
0001
0000
0010
0100
0010
0000
0001
0100
0001
0000
1000
0000
,  // measure 41
0010
0000
0100
0000
0001
0000
1000
0010
1000
0000
0010
0100
0010
0000
0100
0000
,  // measure 42
0001
0000
1000
0010
1000
0000
0001
0000
0100
0000
0010
0100
0010
0000
1000
0000
,  // measure 43
0001
0000
1000
0100
0000
0010
0000
0001
0000
0010
0001
0000
1000
0010
0100
0000
,  // measure 44
0110
0000
0010
0000
1000
0000
0001
0100
0001
0000
1000
0010
1000
0010
0100
0000
,  // measure 45
0001
0000
0010
0000
0100
0000
1000
0010
1000
0000
0001
0100
0001
0100
0010
0000
,  // measure 46
1000
0000
0100
1000
0100
0000
1000
0000
0001
0000
0010
0001
0010
0000
0001
0000
,  // measure 47
1000
0010
0000
0100
0000
0001
0010
0001
0000
1000
0010
0100
0001
0100
0010
0000
,  // measure 48
1000
0000
0100
0000
1000
0001
0010
0001
0010
0000
0101
0000
0010
1000
0010
0000
,  // measure 49
1100
0000
1000
0000
0010
0100
0010
0100
0000
0001
1000
0001
0100
0000
0011
0000
,  // measure 50
0010
0000
0100
0000
1000
0100
0000
1000
0000
0010
0100
0010
0100
0001
1000
0000
,  // measure 51
0100
0000
0010
0001
0000
1000
0000
0010
0000
0010
0100
0010
0100
0001
1000
0000
,  // measure 52
0010
1000
0101
0010
1000
0100
0011
0100
,  // measure 53
0001
0010
1100
0010
0100
0001
1010
0100
,  // measure 54
0001
0000
0010
0000
0001
1000
0010
0100
0000
0010
0100
0000
1000
0000
0100
0000
,  // measure 55
0010
0000
0100
0000
0001
0010
0000
0001
0000
1000
0100
0010
0001
0000
0010
0000
,  // measure 56
0110
0000
0000
0000
;
