#TITLE:儚キ戀ノ幻想譚;
#SUBTITLE:;
#ARTIST:まろん feat. あやぽんず*(森羅万象);
#TITLETRANSLIT:Hakanaki koi no gensoutan;
#SUBTITLETRANSLIT:;
#ARTISTTRANSLIT:MARON feat. ayaponzu* (ShinRa-Bansho);
#GENRE:和風歌謡硬核音楽;
#CREDIT:;
#BANNER:Hakanaki koi no gensoutan_banner.png;
#BACKGROUND:Hakanaki koi no gensoutan_bg.png;
#LYRICSPATH:Hakanaki koi no gensoutan_lyrics.lrc;
#CDTITLE:;
#MUSIC:Hakanaki koi no gensoutan.ogg;
#OFFSET:-0.850000;
#SAMPLESTART:64.610001;
#SAMPLELENGTH:15.000000;
#LASTBEATHINT:333.500000;
#SELECTABLE:YES;
#BPMS:0.000000=175.000000
;
#STOPS:
;
#BGCHANGES:;
#KEYSOUNDS:;
#ATTACKS:;

//---------------dance-single - ----------------
#NOTES:
     dance-single:
     :
     Easy:
     7:
     0.291672,0.353044,0.144621,0.229691,0.000000,240.000000,223.000000,17.000000,27.000000,0.000000,0.000000,0.291672,0.353044,0.144621,0.229691,0.000000,240.000000,223.000000,17.000000,27.000000,0.000000,0.000000:
0000
0000
0000
0000
,
0000
0000
0000
0000
,
0000
0000
0000
0000
,
0000
0000
0000
0000
,
0000
0000
0000
0000
,
0200
1000
1300
0000
,
0020
0001
0031
0000
,
0001
0000
1000
0000
,
0220
0000
0330
0000
,
1000
0000
0010
0000
,
1000
0100
0010
0000
,
0001
0000
0100
0010
,
0220
0000
0000
0000
0000
0330
0000
0000
,
1000
0100
0010
0100
,
1000
0100
0010
0000
,
0001
0100
0010
0100
,
0001
0100
0010
0000
,
1000
0010
0100
0010
,
1000
0001
0010
0000
,
0001
0100
0010
0100
,
0001
1000
0100
0000
,
1000
0010
0010
0000
,
1000
0100
1100
0000
,
0001
0100
0100
0000
,
0001
0010
0011
0000
,
0001
0100
1000
0000
,
1000
0100
0001
0000
,
0010
0000
0110
0000
,
1000
0001
1001
0000
,
0100
0010
0100
0000
,
0001
0010
0001
0000
,
1000
0100
1000
0000
,
0001
0100
0001
0000
,
1000
0010
0100
0000
,
0001
0010
0100
0000
,
0020
0000
0031
0000
,
1000
0010
0100
0000
,
0001
0010
0010
0000
,
0001
0100
0100
0000
,
0020
0000
0130
0010
,
1000
0100
0100
0000
,
1000
0001
0001
0000
,
1000
0010
0010
0000
,
0200
0000
0310
0100
,
0001
0010
0100
0000
,
2000
0000
3001
0000
,
0220
0330
0000
0000
,
0100
0010
0100
0000
,
0001
0010
0001
0000
,
1000
0100
0010
0001
,
2002
3003
0000
0000
,
0100
0010
0100
0000
,
0010
1000
0010
0000
,
1000
0000
0001
0100
,
0220
0000
0000
0330
0000
0000
0000
0000
,
0001
0010
0100
0000
,
0010
0100
1000
0000
,
0001
1000
0100
0010
,
2002
0000
0000
3003
0000
0000
0000
0000
,
0010
0100
0100
0000
,
0001
0010
0010
0000
,
0002
0000
1003
0000
,
0220
0000
0330
0000
,
1000
0000
0100
0000
,
0010
0000
0001
0000
,
0100
0010
1000
0001
,
2002
0000
0000
0000
0000
3003
0000
0000
,
0001
0100
0010
0100
,
0001
0100
0010
0000
,
1000
0100
0010
0100
,
1000
0100
0010
0000
,
0001
0010
0100
1000
,
0001
1000
0010
0000
,
1000
0100
0010
0001
,
1000
0001
0220
0330
,
0100
0001
0010
0100
,
0010
0001
1000
0000
,
0010
0100
1000
0100
,
0010
1000
0100
0000
,
0020
0001
0031
0000
,
0200
1000
1300
0000
,
1010
0000
0101
0000
,
0010
0100
1001
0000
,
0110
0000
0000
0000
;

//---------------dance-single - ----------------
#NOTES:
     dance-single:
     :
     Medium:
     11:
     0.497057,0.529566,0.212677,0.229691,0.025521,409.000000,384.000000,25.000000,27.000000,0.000000,0.000000,0.497057,0.529566,0.212677,0.229691,0.025521,409.000000,384.000000,25.000000,27.000000,0.000000,0.000000:
0000
0000
0000
0000
,
0000
0000
0000
0000
,
0000
0000
0000
0000
,
0000
0000
0000
0000
,
0000
0000
0000
0000
,
0010
0000
0000
0000
0110
0000
0000
0000
1000
0000
0000
0100
0000
0000
1000
0000
,
0001
0000
0000
0000
0101
0000
0000
0000
0100
0000
0000
0010
0000
0000
0100
0000
,
0002
0000
0000
0000
0010
0000
0000
0000
1003
0000
0000
0010
0000
0000
1000
0000
,
0001
0000
0100
0000
0010
0000
0000
0000
1000
0000
0000
0100
0000
0000
0010
0000
,
0002
0103
2000
3100
,
0010
0000
0100
0010
1000
0001
0100
0000
,
0001
0010
0100
1000
,
2002
0000
0000
3003
,
0100
0010
1000
0000
0010
0100
0001
0000
,
0010
0001
0100
0001
0010
0000
0001
0000
,
1000
0010
0100
0000
0010
1000
0100
0000
,
1000
0010
0100
0001
0010
0000
0101
0000
,
0010
0100
0001
0000
0010
0001
0100
0000
,
0010
1000
0100
1000
0010
0000
1000
0000
,
0001
0100
0010
0000
0100
0010
1000
0000
,
0100
0010
0001
1000
0020
0000
0030
0000
,
0100
0001
0100
0000
0010
0100
0010
0000
,
1000
0100
0010
0001
0100
0000
0110
0000
,
0010
1000
0100
0000
1000
0001
0100
0000
,
0010
0100
0001
0010
0100
0000
1000
0000
,
0001
0100
0001
0000
0010
0001
0010
0000
,
0100
1000
0010
1000
0001
0000
0100
0000
,
0011
0000
1100
0000
,
0001
0010
0100
1000
0020
0000
0030
0000
,
1000
0010
0100
0010
1000
0000
0000
0000
,
0001
0010
0100
0010
0001
0000
0000
0000
,
1000
0000
1001
0000
0010
0100
0001
0000
,
0010
0100
1000
0001
0200
0000
0300
0000
,
0010
1000
0001
0100
0010
0000
0000
0000
,
1000
0001
0010
0100
1000
0000
0000
0000
,
0010
0000
0100
0010
0100
0000
0001
0010
,
0100
0000
1000
0010
1000
0000
0001
0000
,
0200
0010
0301
0000
,
0002
0010
2000
3003
,
1000
0000
0010
1000
0010
0000
1000
0000
,
0001
0100
0001
0100
0001
0000
0000
0000
,
2000
0010
3100
0000
,
0002
0100
2000
3003
,
0110
0000
0000
0000
0001
0100
0010
0000
,
1000
0000
0010
1000
0001
0000
0000
0000
,
2002
0000
0000
3003
,
0100
0110
2002
3003
,
0001
0100
0010
1000
0000
0000
0100
0000
,
1000
0010
0100
0001
0000
0000
0010
0000
,
0001
0100
0010
0000
1000
0100
0010
0001
,
0200
0000
0300
0000
0010
0100
0001
0100
,
0010
0000
1000
0000
1000
0100
0010
0100
,
1000
0001
0100
0010
,
1100
0000
0010
0001
1000
0000
0010
0000
,
0202
0303
0010
0010
,
1000
0001
0010
0100
0000
0000
1001
0000
,
0010
0100
0001
0010
0000
0000
0001
0000
,
1000
0010
1000
0000
0001
0100
0010
1000
,
0200
0000
0000
0000
0300
0010
0001
0010
,
0100
0000
0000
0000
1000
0000
0000
0000
0010
0000
0000
0100
0000
0000
0001
0000
,
0100
0001
1000
0000
0100
0000
0010
0000
,
0002
0100
2003
0100
,
0020
0000
3030
0001
,
0110
1000
0011
1000
,
0100
0000
1000
0010
1000
0001
0100
0000
,
0001
0010
0001
0000
1000
0100
0010
0001
,
0200
0000
0000
0300
,
0010
0100
0001
0000
0010
0100
1000
0000
,
0010
0100
0001
0100
0010
0000
0110
0000
,
1000
0100
0010
0000
0001
1000
0010
0000
,
0100
0010
1000
0010
0100
0000
0101
0000
,
0010
0100
0001
0000
0010
0100
1000
0000
,
0010
0100
0010
0100
0010
0000
1000
0000
,
1010
0000
0000
0000
0001
0000
0000
0000
0001
0000
0000
1000
0000
0000
0010
0000
,
1000
0100
0010
0001
0200
0000
0000
0000
,
0310
0110
1000
1100
,
0001
0010
0100
1000
0010
0000
1000
0000
,
0001
1000
0100
0000
1000
0001
0100
0000
,
0010
0100
0001
0010
0100
0000
0010
0000
,
0001
0100
0001
0000
1000
0100
1000
0000
,
0010
0100
0001
1000
0010
0000
1000
0000
,
0101
0000
1010
0000
,
0001
0010
1000
0001
0100
0000
0000
0000
,
1001
0000
0000
0000
;

//---------------dance-single - ----------------
#NOTES:
     dance-single:
     :
     Hard:
     16:
     0.834910,0.847306,0.484904,0.238199,0.438115,687.000000,630.000000,57.000000,28.000000,0.000000,0.000000,0.834910,0.847306,0.484904,0.238199,0.438115,687.000000,630.000000,57.000000,28.000000,0.000000,0.000000:
// measure 0
0000
0000
0000
0000
,  // measure 1
0000
0000
0000
0000
,  // measure 2
0000
0000
0000
0000
,  // measure 3
0000
0000
0000
0000
,  // measure 4
0000
0000
0000
0000
0000
0010
0100
0010
,  // measure 5
1000
0000
0100
0000
0100
0000
0000
0000
1000
0000
0000
1010
0000
0000
0001
0000
,  // measure 6
0010
0000
0100
0000
0100
0000
0000
0000
0011
0000
0000
1100
0000
0000
1000
0000
,  // measure 7
0020
0100
0130
0001
0020
0100
0130
1000
,  // measure 8
0001
0000
1000
0000
0110
0000
0000
0000
1001
0000
0000
0101
0000
0000
1010
0000
,  // measure 9
0001
1000
0100
0000
1000
0001
0100
0000
,  // measure 10
0010
0000
0100
0000
0001
0000
1000
0000
0010
0000
1000
0100
0010
0000
0001
0000
,  // measure 11
0100
0000
0010
0100
0010
0000
0100
0000
0001
0010
0100
1000
0010
0000
0100
0000
,  // measure 12
2002
0000
0000
3003
,  // measure 13
0010
0000
1000
0100
0010
0000
0100
1000
0010
0000
1000
0010
0100
0000
0010
0000
,  // measure 14
0100
0000
0001
0010
0100
0000
0010
0001
0100
0000
0010
0100
0001
0000
0010
0000
,  // measure 15
0001
0000
1000
0001
0100
0000
0001
1000
0100
0000
1000
0001
0100
0000
0010
0000
,  // measure 16
1000
0000
0010
1000
0001
0000
0010
0001
1000
0000
0010
1000
0001
0000
0100
0000
,  // measure 17
0001
0000
0010
0100
1000
0000
0010
0100
0001
0000
0010
0100
1000
0000
0001
0000
,  // measure 18
1000
0000
0010
0100
0001
0000
0010
0100
1000
0000
0010
0100
0001
0000
1000
0000
,  // measure 19
0010
0000
1000
0001
0100
0000
0010
1000
0001
0000
0100
0010
1000
0000
0001
0000
,  // measure 20
0010
0000
0001
0000
1000
0010
0100
0001
0010
0000
0100
0000
1001
0000
0000
0000
,  // measure 21
0010
1000
1001
0000
0010
0001
1001
0000
,  // measure 22
0001
0000
0100
0010
0100
0000
0001
0000
1000
0000
0010
0000
1010
0000
0000
0000
,  // measure 23
0002
0100
0103
0010
2000
0100
3100
0010
,  // measure 24
0001
0000
0100
0010
1000
0000
0100
0000
0010
0000
0001
1000
0001
0000
0000
0000
,  // measure 25
0200
0010
0310
1000
0002
0010
0013
0100
,  // measure 26
1000
0000
0010
0000
0001
0000
0010
0000
1000
0000
0001
0010
0100
0000
1000
0000
,  // measure 27
0002
0100
0103
0010
2000
0100
3100
0000
,  // measure 28
0011
1010
0220
0330
,  // measure 29
1000
0000
0100
0000
0001
0000
0100
0000
1000
0000
0000
0101
0000
0000
1000
0000
,  // measure 30
0001
0010
1000
0010
0001
1000
1001
0000
,  // measure 31
0010
0000
0100
0001
0100
0000
0010
0000
1000
0000
0100
0010
0100
0000
1000
0000
,  // measure 32
0001
0010
0100
0000
1000
0000
0010
0000
0100
0000
0001
0000
0101
0000
0000
0000
,  // measure 33
0010
0000
1000
0000
0001
0000
0010
0000
0110
0000
0000
1100
0000
0000
0101
0000
,  // measure 34
0100
0010
1000
0100
0010
0100
1100
0000
,  // measure 35
0010
0000
1000
0100
1000
0000
0010
0000
0100
0000
0001
0010
0001
0000
1000
0000
,  // measure 36
0001
0000
1000
0100
0010
0000
0001
0000
2002
0000
0000
0000
3003
0000
0000
0000
,  // measure 37
0210
0000
0001
0000
0010
0010
0310
0000
,  // measure 38
0120
0000
1000
1000
2000
0000
3030
0000
,  // measure 39
1100
0000
0001
0010
1000
0010
0001
1000
,  // measure 40
0001
0100
1000
0100
0001
0000
1001
0000
,  // measure 41
1200
0000
0010
0000
1000
1000
1300
0000
,  // measure 42
0201
0000
0010
0010
0020
0000
0330
0000
,  // measure 43
1000
0000
0001
0010
1000
0010
0001
0100
,  // measure 44
0001
0000
0010
0100
0010
0000
0001
0000
1000
0010
1000
0000
0001
0100
0001
0000
,  // measure 45
1000
0000
0010
0000
0100
0010
0000
0100
0010
0000
0100
0010
0000
0100
0010
0000
,  // measure 46
1000
1001
0220
0330
,  // measure 47
0001
0000
0010
0100
1000
0000
0010
0000
1000
0000
0100
0000
1000
0000
0010
0100
,  // measure 48
0001
0000
1000
0100
1000
0000
0010
0000
0000
0000
0010
0000
0100
0000
0001
0000
,  // measure 49
1000
0000
0001
0010
0001
0000
1000
0010
1000
0000
0001
0010
0001
0000
0100
0000
,  // measure 50
0010
0000
0000
0000
0110
0000
0000
0000
1000
0000
0100
0010
0001
0000
0100
0000
,  // measure 51
0010
0000
1000
0000
1010
0000
0000
0000
0001
0000
1000
0100
0010
0000
0001
0000
,  // measure 52
0100
0001
0011
0000
1100
0000
0010
0100
,  // measure 53
0001
0100
1000
0100
0010
1000
0100
0010
,  // measure 54
0001
0000
0100
0010
1000
0000
0010
0100
0001
0000
0000
0000
1001
0000
0000
0000
,  // measure 55
1000
0000
0010
0100
0001
0000
0010
0000
0100
0000
1000
0000
0010
0000
1000
0001
,  // measure 56
0100
0000
0010
0100
0001
0000
0010
0000
0000
0000
0010
0000
0110
0000
0000
0000
,  // measure 57
1000
0000
0001
0100
0001
0000
1000
0100
1000
0000
0001
0100
0001
0000
1000
0000
,  // measure 58
0010
0000
1001
0000
0100
0001
0010
0001
,  // measure 59
1000
0010
0110
0000
0100
0001
0010
0100
,  // measure 60
1000
0001
0011
0000
1100
0000
0010
1000
,  // measure 61
0200
1000
1300
0010
0200
0001
0301
0010
,  // measure 62
0001
0000
1000
0010
1000
0000
0001
0000
0010
0000
0001
0100
0001
0000
0000
0000
,  // measure 63
0110
0000
0000
0000
1000
0000
0100
0000
1000
0000
0010
0100
0010
0000
0000
0000
,  // measure 64
0110
0000
0000
0000
0001
0000
0010
0000
0100
0000
0010
0001
0100
0000
0000
0000
,  // measure 65
0001
0000
1000
0100
0010
0000
0001
0100
0010
0000
1000
0010
0100
0000
0010
2000
,  // measure 66
0002
0000
0000
3003
,  // measure 67
0100
0000
0010
0100
0001
0000
0010
0001
0100
0000
0010
0100
0001
0000
0010
0000
,  // measure 68
0100
0000
1000
0010
0100
0000
0010
1000
0100
0000
1000
0010
0100
0000
0001
0000
,  // measure 69
1000
0000
0010
0100
0001
0000
0010
0001
0100
0000
0010
0100
0001
0000
1000
0000
,  // measure 70
0100
0000
1000
0010
0100
0000
0010
1000
0100
0000
1000
0001
1000
0000
0010
0000
,  // measure 71
0110
0100
0101
0000
0011
0010
0110
0000
,  // measure 72
1100
0000
0000
0000
0110
0000
0010
0100
0010
1000
0001
1000
0010
0000
0100
0000
,  // measure 73
0001
0000
0010
0000
0100
0000
1000
0010
0100
0000
0000
1001
0000
0000
0010
0100
,  // measure 74
0001
0000
1000
0100
1000
0000
0001
0010
0001
0100
0010
1000
0100
0000
0100
0000
,  // measure 75
1000
0001
0011
0001
1000
0010
1010
0010
,  // measure 76
0100
0000
0001
0010
0100
0000
1000
0000
0001
0000
0100
0000
0110
0000
0000
0000
,  // measure 77
0002
1000
1003
0100
2000
0010
3010
0100
,  // measure 78
0100
0000
0010
1000
0010
0000
0100
0000
0001
0000
0010
0100
0010
0000
0001
0000
,  // measure 79
1000
0000
0100
0010
0001
0000
0100
0000
0010
0000
0100
0001
0010
0000
0100
0000
,  // measure 80
1000
0010
0100
0001
0010
0000
0100
0000
1000
0000
0000
0000
1001
0000
0000
0000
,  // measure 81
0100
0010
1001
0000
0010
0100
1001
0000
,  // measure 82
0010
0000
0001
0000
0100
0000
1000
0000
0010
0000
1000
0001
1000
0000
0010
0000
,  // measure 83
0110
0000
0000
0000
;
