#TITLE:HOTな夜の(秘)ドリンク;
#SUBTITLE:;
#ARTIST:亜熱帯マジ-SKA爆弾 feat. MAKI;
#TITLETRANSLIT:HOT na yoru no maruhi drink;
#SUBTITLETRANSLIT:;
#ARTISTTRANSLIT:Anettai Maji-SKA Bakudan feat. MAKI;
#GENRE:MAMBO-KAYO;
#CREDIT:;
#BANNER:HOT na yoru no maruhi drink_bunner.png;
#BACKGROUND:HOT na yoru no maruhi drink.png;
#LYRICSPATH:;
#CDTITLE:;
#MUSIC:HOT na yoru no maruhi drink.ogg;
#OFFSET:0.290000;
#SAMPLESTART:23.800001;
#SAMPLELENGTH:12.000000;
#SELECTABLE:YES;
#BPMS:0.000000=248.000000
;
#STOPS:
;
#BGCHANGES:;
#KEYSOUNDS:;
#ATTACKS:;

//---------------dance-single - ----------------
#NOTES:
     dance-single:
     :
     Easy:
     7:
     0.191081,0.250577,0.093318,0.114056,0.010369,129.000000,120.000000,9.000000,11.000000,0.000000,0.000000,0.191081,0.250577,0.093318,0.114056,0.010369,129.000000,120.000000,9.000000,11.000000,0.000000,0.000000:
0000
0000
0000
0000
,
0000
0000
0000
0000
,
0000
0000
0000
0000
,
0000
0000
0000
0000
,
0000
0000
0000
0000
,
1000
0000
0000
0000
,
0001
0000
0000
0000
,
1000
0000
0000
0000
,
0001
0000
0000
0000
,
0010
0000
0000
0000
,
0100
0000
0000
0000
,
0010
0000
0000
0000
,
0100
0000
0000
0000
,
1000
0000
0000
0000
,
0010
0000
0000
0000
,
0100
0000
0000
0000
,
0001
0000
0000
0000
,
1001
0000
0000
0000
,
1000
0000
0100
0000
,
1000
0000
0000
0000
,
0001
0000
0010
0000
,
0001
0000
0000
0000
,
1000
0000
0001
0000
,
1001
0000
0000
0000
0000
0000
0000
0100
,
0000
0000
0000
0000
,
0010
0000
0000
0000
,
0100
0000
0001
0000
,
0100
0000
0000
0000
,
0010
0000
1000
0000
,
0100
0000
0000
0000
,
1000
0000
0001
0000
,
0100
0000
0000
0000
,
2002
0000
3003
0000
,
0010
0000
0000
0000
,
0100
0000
0010
0000
,
1000
0000
0000
0000
,
0100
0000
0000
0000
,
0010
0000
0000
0000
,
0001
0000
1000
0000
,
0001
0000
0000
0000
,
0220
0000
0330
0000
,
0001
0000
0000
0000
,
0001
0000
0010
0000
,
0100
0000
0000
0000
,
0100
0000
1000
0000
,
0100
0000
0000
0000
,
1000
0000
0010
0000
,
0100
0000
0000
0000
,
0100
0000
0001
0000
,
0100
0000
0000
0000
,
0010
0000
1000
0000
,
0001
0000
0000
0000
,
0011
0000
0000
0000
,
1000
0000
0000
0000
,
0001
0000
0000
0000
,
2200
0000
0000
0000
,
3300
0000
0000
0000
,
0001
0000
0000
0000
,
0100
0000
0001
0000
,
0100
0000
0000
0000
,
0010
0000
1000
0000
,
0010
0000
0000
0000
,
1000
0000
0100
0000
,
1000
0000
0000
0000
,
2002
0000
3003
0000
,
0001
0000
0000
0000
,
0100
0000
0001
0000
,
0100
0000
0000
0000
,
0001
0000
0010
0000
,
0001
0000
0000
0000
,
1000
0000
0100
0000
,
2000
0000
0000
3000
,
0000
0000
0000
0000
,
0010
0000
0000
0000
,
1000
0000
0001
0000
,
0010
0000
0000
0000
,
0001
0000
1000
0000
,
0100
0000
0000
0000
,
1000
0000
0001
0000
,
0100
0000
0000
0000
,
0110
0000
0000
0000
,
0010
0000
0000
0000
,
1000
0000
0001
0000
,
1000
0000
0000
0000
,
0100
0000
0010
0000
,
0001
0000
0000
0000
,
1000
0000
0001
0000
,
0100
0000
0000
0000
,
0001
0000
0010
0000
,
0100
0000
0000
0000
,
1000
0000
0010
0000
,
1000
0000
0000
0000
,
0001
0000
0100
0000
,
0001
0000
0000
0000
,
1000
0000
0001
0000
,
2002
0000
0000
0000
0000
0000
0000
3003
,
0000
0000
0000
0000
0100
0000
0000
0000
0010
0000
0000
0000
;

//---------------dance-single - ----------------
#NOTES:
     dance-single:
     :
     Medium:
     11:
     0.348092,0.402652,0.082950,0.331799,0.010369,235.000000,227.000000,8.000000,32.000000,0.000000,0.000000,0.348092,0.402652,0.082950,0.331799,0.010369,235.000000,227.000000,8.000000,32.000000,0.000000,0.000000:
// measure 0
0000
0000
0000
0000
,  // measure 1
0000
0000
0000
0000
,  // measure 2
0000
0000
0000
0000
,  // measure 3
0000
0000
0000
0000
,  // measure 4
0000
0000
0000
0000
,  // measure 5
0010
0000
0000
0100
0000
0010
0000
0100
,  // measure 6
0000
0000
0001
0000
,  // measure 7
1000
0000
0000
0010
0000
0100
0000
0010
,  // measure 8
0000
0000
1000
0000
,  // measure 9
0001
0000
0000
0100
0000
0010
0000
0100
,  // measure 10
0000
0000
0001
0000
,  // measure 11
0010
0000
0000
0100
0000
1000
0000
0100
,  // measure 12
0000
0000
1000
0000
,  // measure 13
0010
0000
0000
1000
0000
0001
0000
1000
,  // measure 14
0000
0000
0010
0000
,  // measure 15
0110
0000
0100
0000
,  // measure 16
0001
0010
0200
0000
,  // measure 17
1300
0000
0000
0010
0000
1000
0000
0010
,  // measure 18
0000
0000
0100
0000
,  // measure 19
0001
0000
0000
0010
0000
0001
0000
0010
,  // measure 20
0000
0000
0100
0000
,  // measure 21
1000
0000
0000
0001
0000
0100
0000
0001
,  // measure 22
0000
0000
1000
0000
,  // measure 23
0010
0000
0100
0000
0010
0100
0000
0220
,  // measure 24
0000
0000
0330
0000
,  // measure 25
0001
0000
0000
0010
0000
0001
0000
1000
,  // measure 26
0000
0000
0001
0100
,  // measure 27
0020
0000
0000
0000
0130
0000
0000
0001
,  // measure 28
0000
0000
1000
0100
,  // measure 29
1000
0000
0000
0010
0000
0000
1000
0000
,  // measure 30
0001
0000
0000
0010
0000
0000
0001
0000
,  // measure 31
0100
0000
0010
0000
,  // measure 32
2002
0000
3003
0000
,  // measure 33
1000
0000
0000
0010
0000
0100
0000
0010
,  // measure 34
0000
0000
1000
0000
,  // measure 35
0010
0000
0000
0100
0000
0000
0002
0000
,  // measure 36
0000
0000
0013
0000
,  // measure 37
0001
0000
0000
0100
0000
0000
0001
0000
,  // measure 38
1000
0000
0000
0100
0000
0000
1000
0000
,  // measure 39
0010
0000
0000
0000
0100
0010
0000
0020
,  // measure 40
0000
0000
0030
0000
,  // measure 41
2000
0000
0100
0000
,  // measure 42
0010
0000
3100
0000
,  // measure 43
0002
0000
0010
0000
,  // measure 44
0200
0000
0303
0000
,  // measure 45
0020
0000
1000
0000
,  // measure 46
0100
0000
0030
0000
,  // measure 47
2000
0000
0100
0000
,  // measure 48
0002
0000
3003
0000
,  // measure 49
0110
0000
0000
0000
,  // measure 50
0001
0000
0100
0001
,  // measure 51
1000
0000
0100
1000
,  // measure 52
0001
0000
0100
0000
,  // measure 53
0110
0000
0010
1000
,  // measure 54
0100
0000
0010
0001
,  // measure 55
0200
0000
0300
0000
,  // measure 56
0010
2000
0000
0000
,  // measure 57
3001
0000
0010
0100
,  // measure 58
0010
0000
0001
0000
,  // measure 59
1000
0000
0010
0100
,  // measure 60
0010
0000
1000
0000
,  // measure 61
0001
0000
0100
0010
,  // measure 62
0100
0000
0001
0000
,  // measure 63
1000
0100
0010
0000
,  // measure 64
0001
1000
0000
0001
0000
1000
0000
0000
,  // measure 65
0020
0000
0130
0001
,  // measure 66
0200
0000
0310
0000
,  // measure 67
2000
0000
3100
0010
,  // measure 68
0200
0000
1300
0000
,  // measure 69
0002
0000
0103
0010
,  // measure 70
0200
0000
0310
0000
,  // measure 71
1000
0000
0000
0001
0000
0000
1000
0000
,  // measure 72
0000
0020
0000
0000
0000
0030
0000
0000
,  // measure 73
0100
0000
0001
0010
,  // measure 74
0100
0000
0010
0001
,  // measure 75
1000
0000
0010
0100
,  // measure 76
0001
0000
0010
0000
,  // measure 77
0100
0000
1000
0010
,  // measure 78
0100
0000
0010
0000
,  // measure 79
2002
0000
3003
0000
,  // measure 80
0100
0010
0100
0010
,  // measure 81
1000
0000
0010
0100
,  // measure 82
0001
0000
0010
0100
,  // measure 83
1000
0000
0010
0100
,  // measure 84
0001
0000
0011
0000
,  // measure 85
1000
0010
1000
0000
,  // measure 86
0001
0010
0001
0000
,  // measure 87
1000
0100
0010
0001
,  // measure 88
0200
0000
0310
0000
,  // measure 89
2000
0000
3010
0100
,  // measure 90
0020
0000
1030
0000
,  // measure 91
0002
0000
0013
0100
,  // measure 92
0020
0000
0031
0000
,  // measure 93
0100
0010
1000
0000
,  // measure 94
0100
0010
0001
0000
,  // measure 95
0000
0100
0000
0010
0000
0100
0000
0010
,  // measure 96
0000
0000
0000
0000
1000
0000
0000
0000
2002
0000
0000
0000
,  // measure 97
0000
3003
0000
0000
0000
0000
0000
0000
0000
0000
0000
0000
;

//---------------dance-single - ----------------
#NOTES:
     dance-single:
     :
     Hard:
     14:
     0.709516,0.754972,0.269587,0.259218,0.010369,479.000000,453.000000,26.000000,25.000000,0.000000,0.000000,0.709516,0.754972,0.269587,0.259218,0.010369,479.000000,453.000000,26.000000,25.000000,0.000000,0.000000:
// measure 0
0000
0000
0000
0000
,  // measure 1
0000
0000
0000
0000
,  // measure 2
0000
0000
0000
0000
,  // measure 3
0000
0000
0000
0000
,  // measure 4
0000
0000
0000
0000
,  // measure 5
0100
0010
1000
0100
0000
1000
0000
0001
,  // measure 6
0000
0101
0000
0010
0000
0100
1000
0000
,  // measure 7
0010
0100
0010
1000
0000
0001
0000
0100
,  // measure 8
0000
1010
0000
0100
0000
0001
0010
0001
,  // measure 9
1000
0010
0100
0010
0000
1000
0000
0001
,  // measure 10
0000
0101
0000
1000
0000
0010
0200
0000
,  // measure 11
0301
0000
0010
0000
0001
0100
0010
1000
,  // measure 12
0100
0000
1000
0010
0100
0000
0001
0000
,  // measure 13
0010
0001
1000
0010
0000
0100
0000
0110
,  // measure 14
0000
0010
1000
0001
0000
0010
0001
0000
,  // measure 15
0100
0000
1000
0000
0100
0010
1000
0200
,  // measure 16
0000
0310
0001
0010
2000
0000
3010
0000
,  // measure 17
0001
0100
0010
0100
0000
0001
0000
0011
,  // measure 18
0000
1000
0000
1010
0000
0100
0010
0000
,  // measure 19
1000
0100
0010
0001
1000
0000
1100
0000
,  // measure 20
0001
0000
0101
0000
0001
1000
0100
0000
,  // measure 21
1000
0010
0100
0010
0000
1000
0000
1100
,  // measure 22
0000
0001
0000
0101
0000
0010
0200
0000
,  // measure 23
0310
0000
0110
0000
1000
0001
0000
0220
,  // measure 24
0000
0000
0000
0000
0330
0000
0000
0001
,  // measure 25
0010
0000
0100
1000
0000
0010
0000
1000
,  // measure 26
0000
0001
0000
1000
0000
0100
0010
0000
,  // measure 27
0001
0000
0100
0010
0000
1000
0100
0000
,  // measure 28
1000
0010
0100
0010
0000
0010
1000
0000
,  // measure 29
0001
0000
0100
1000
0000
1000
0100
0000
,  // measure 30
0001
0000
0010
1000
0000
1000
0010
0000
,  // measure 31
0001
1000
0100
1000
0000
0010
0100
0000
,  // measure 32
0010
1000
0100
0010
0002
0000
0000
1003
,  // measure 33
0010
0000
0100
0010
0000
1000
0000
0001
,  // measure 34
0000
0010
0000
0100
0000
0010
0001
0000
,  // measure 35
1000
0000
0010
0100
0000
0100
0010
0000
,  // measure 36
1000
0001
0010
0000
0001
1000
0010
0000
,  // measure 37
0100
0000
0010
1000
0000
0010
1000
0000
,  // measure 38
0001
0000
0010
0100
0000
0010
0100
0000
,  // measure 39
1000
0000
1000
0000
0001
1000
0000
0220
,  // measure 40
0000
0000
0000
0000
0000
0330
0000
0000
,  // measure 41
0001
0000
0010
0200
0000
0000
1300
0000
,  // measure 42
0010
0000
1000
0002
0000
0000
0103
0000
,  // measure 43
0110
0000
1000
0200
0000
0000
0310
0000
,  // measure 44
0001
0000
0100
0000
0010
1000
0000
1000
,  // measure 45
0001
0000
0100
0020
0000
0000
1030
0000
,  // measure 46
0100
0000
0010
0002
0000
0000
1003
0000
,  // measure 47
0001
0010
0100
1000
0000
0000
0010
0000
,  // measure 48
0100
0000
0010
1000
0001
1000
0000
1000
,  // measure 49
0100
0000
0010
0000
0001
0000
1000
0100
,  // measure 50
1000
0000
0001
0010
0000
0001
0100
0000
,  // measure 51
0001
0010
0100
1000
0000
0000
0010
1000
,  // measure 52
0000
1000
0010
0100
0001
0100
0000
0000
,  // measure 53
0011
0100
1000
0010
,  // measure 54
0100
0000
0001
0010
0000
0010
0100
1000
,  // measure 55
0002
0000
0103
0010
,  // measure 56
0100
0000
2002
0000
0000
3003
0000
0000
,  // measure 57
1000
0000
0010
0100
0010
0000
1000
0100
,  // measure 58
0010
0000
0001
0100
0000
0010
1000
0000
,  // measure 59
0001
0000
0010
0100
0010
0000
0001
0100
,  // measure 60
0010
0000
1000
0001
0000
0001
0010
0000
,  // measure 61
0100
0000
1000
0010
1000
0000
0001
0010
,  // measure 62
0001
0000
0100
0010
0000
0010
1000
0000
,  // measure 63
0100
0000
1000
0010
0000
0100
0001
0000
,  // measure 64
0010
0000
0001
0000
0000
0000
1001
0000
0000
0000
0220
0000
0000
0330
0000
0000
,  // measure 65
1001
0000
0010
1000
0010
0000
0100
0001
,  // measure 66
0100
0000
0001
0010
0000
0100
1000
0000
,  // measure 67
0010
0000
1000
0100
1000
0000
0001
0010
,  // measure 68
0001
0000
0100
0010
0000
1000
0100
0000
,  // measure 69
1000
0000
0001
0100
0001
0000
1000
0010
,  // measure 70
1000
0000
0010
0100
0000
0001
0010
0000
,  // measure 71
0101
0000
0000
1010
0000
0000
0011
0000
,  // measure 72
0000
2200
0000
0000
3300
0000
0000
0000
,  // measure 73
0010
0000
0100
0001
0000
0100
0001
0000
,  // measure 74
1000
0010
0100
0000
0010
1000
0100
0000
,  // measure 75
1000
0000
0001
0000
0100
0010
0000
0010
,  // measure 76
0100
0001
0010
0001
0000
0000
1000
0000
,  // measure 77
0010
0000
1000
0100
0000
1000
0010
0000
,  // measure 78
0100
0001
0010
0000
0001
0100
0010
0100
,  // measure 79
0002
0000
0000
0000
,  // measure 80
2003
0000
0000
0000
,  // measure 81
3010
0000
0100
0010
0000
0100
0001
0000
,  // measure 82
0010
0100
1000
0010
0000
0010
0100
0000
,  // measure 83
0010
0000
1000
0100
0000
1000
0001
0000
,  // measure 84
0100
0010
1000
0001
0000
0010
0001
0000
,  // measure 85
1000
0010
0100
0000
0010
1000
0001
0000
,  // measure 86
0010
0001
0100
0010
1000
0000
0001
0000
,  // measure 87
0010
0001
0000
1000
0000
0010
0100
0010
,  // measure 88
1000
0001
0010
0000
0001
1000
0010
0000
,  // measure 89
0100
0000
0001
0010
0000
0010
0001
0000
,  // measure 90
1000
0100
1000
0000
0001
0100
0010
0100
,  // measure 91
0001
0010
0000
0010
0001
1000
0100
0000
,  // measure 92
1000
0010
0100
0010
1000
0000
0001
0000
,  // measure 93
0010
0100
1000
0000
0010
0100
0001
0000
,  // measure 94
1000
0010
0100
0001
0010
0000
0001
0000
,  // measure 95
0000
1000
0000
0110
0000
0001
0000
1100
,  // measure 96
0000
0000
0000
0000
0010
0000
0100
0000
2002
0000
0000
0000
,  // measure 97
0000
3003
0000
0000
0000
0000
0000
0000
0000
0000
0000
0000
;
