#TITLE:HELL SCAPER;
#SUBTITLE:;
#ARTIST:L.E.D.LIGHT-G;
#TITLETRANSLIT:;
#SUBTITLETRANSLIT:;
#ARTISTTRANSLIT:;
#GENRE:GABBAH;
#CREDIT:;
#BANNER:HELL_SCAPER_banner.png;
#BACKGROUND:HELL_SCAPER.png;
#LYRICSPATH:;
#CDTITLE:;
#MUSIC:HELL SCAPER.ogg;
#OFFSET:-0.100000;
#SAMPLESTART:66.029999;
#SAMPLELENGTH:12.000000;
#LASTBEATHINT:270.998413;
#SELECTABLE:YES;
#BPMS:0.000000=190.000000
,133.000000=195.000000
,149.000000=200.000000
;
#STOPS:48.000000=2.211000,
269.000000=4.500000
;
#BGCHANGES:;
#KEYSOUNDS:;
#ATTACKS:;

//---------------dance-single - ----------------
#NOTES:
     dance-single:
     :
     Easy:
     8:
     0.350155,0.400866,0.140371,0.226752,0.000000,227.000000,214.000000,13.000000,21.000000,0.000000,0.000000,0.350155,0.400866,0.140371,0.226752,0.000000,227.000000,214.000000,13.000000,21.000000,0.000000,0.000000:
0000
0000
0000
0000
,
0000
0000
0000
0000
,
0100
0000
0010
0000
,
2002
0000
3003
0000
,
0001
0100
0001
0100
,
0010
1000
0010
1000
,
0100
1000
0010
0100
,
0001
1000
0200
0300
,
1000
0010
0100
0001
,
1000
0100
0010
0001
,
0100
0010
1000
0001
,
0100
0010
1000
0001
,
1001
0000
0000
0000
,
0000
0010
0100
2000
,
0000
3001
0000
0000
,
0000
0010
0100
0002
,
0000
1003
0000
0000
,
0000
0100
0010
1000
,
0010
1000
0100
0010
,
0001
0100
0001
0010
,
0100
1000
0001
1000
,
0010
0100
0010
1000
,
0100
0010
0001
0010
,
0100
1000
0001
0010
,
0100
0022
0000
0033
,
0000
1000
0100
1000
,
0100
1000
0100
1000
,
0001
0010
0001
1000
,
0001
1000
0001
0020
,
0030
0100
1000
0001
,
1000
0100
1000
0020
,
0000
0130
0001
1000
,
0100
2000
0000
0000
,
3000
0010
0100
0010
,
1000
0010
0100
0202
,
0303
0010
1000
0100
,
0010
0100
1000
2002
,
3003
0100
0001
1000
,
0100
1000
0010
0200
,
0300
0110
0000
1001
,
0000
0010
0100
1000
,
0001
1000
1000
1000
,
1000
1000
1000
1000
,
1000
1000
1000
1000
,
1000
2000
0000
3000
,
0000
0001
0001
0001
,
0001
0001
0001
0001
,
0001
0001
0001
0001
,
0001
0001
0001
0002
,
0003
1001
0000
1100
,
0000
0202
0000
0303
,
0000
0010
0100
0001
,
0100
0010
1000
1000
,
0000
0100
1000
0010
,
1000
0001
0010
0010
,
0000
0001
0010
0100
,
1000
0001
1000
0010
,
0000
0100
0010
1000
,
0100
2002
0000
3003
,
0000
0010
0100
1000
,
0100
0010
0100
1000
,
0000
0001
0100
0010
,
0100
0001
0100
0010
,
0000
1000
0100
0001
,
0100
1000
0100
0001
,
0000
0010
0001
0010
,
1000
0010
0001
0100
,
1000
0110
0110
0000
;

//---------------dance-single - ----------------
#NOTES:
     dance-single:
     :
     Medium:
     12:
     0.624726,0.619520,0.323932,0.226752,0.064786,405.000000,375.000000,30.000000,21.000000,0.000000,0.000000,0.624726,0.619520,0.323932,0.226752,0.064786,405.000000,375.000000,30.000000,21.000000,0.000000,0.000000:
0000
0000
0000
0000
,
0000
0000
0000
0000
,
1001
0100
1001
0010
,
2002
0000
3003
0000
0010
0100
1000
0001
,
1000
0100
1000
0100
0010
0001
0010
0001
,
1000
0001
0010
0100
0010
0001
1000
0000
,
0010
0100
0010
0100
0001
0010
0001
0010
,
0001
1000
0100
0010
0100
1000
0001
0000
,
0100
0010
1000
0010
1000
0100
0010
0000
,
0001
0100
0010
0100
0001
0010
0100
0000
,
0010
0100
1000
0001
1000
0010
0100
0000
,
0010
0100
0001
1000
0001
0010
0100
0000
,
1001
0100
0100
0100
,
0010
0000
1000
0000
0100
0000
1000
0010
,
0100
0202
0000
0303
,
0000
0000
0001
0000
0010
0000
0001
1000
,
0100
2020
0000
3030
,
0000
0000
0000
0000
0100
0000
0001
0000
0100
0000
0000
0000
0010
0000
0000
0100
,
0000
0010
1000
0000
0100
1000
0000
0001
,
0100
0000
0000
0000
0001
0000
0010
0000
0100
0000
0000
0000
1000
0000
0000
0010
,
0000
1000
0001
0000
0010
0001
0000
1000
,
0010
0000
0000
0000
0100
0000
0001
0000
0010
0000
0000
0000
0001
0000
0000
1000
,
0000
0001
1000
0000
0100
0010
0000
0010
,
0100
0000
1000
0010
0100
0000
0001
0010
,
0100
1000
2002
0000
0000
0000
3003
0000
,
0000
0000
1000
0010
0000
0110
0000
0010
,
1000
0010
1000
0100
0000
1000
0100
0010
,
0001
0010
0100
0010
0000
0011
0000
0001
,
0100
0001
0010
0001
0000
0101
0000
0010
,
0001
1000
0100
1000
0000
1010
0000
1000
,
0100
0000
1000
0000
0000
0000
0010
0000
0100
0000
0010
0000
1000
0000
0000
1001
,
0000
0001
0010
0001
0000
0101
0000
1000
,
0010
1000
0001
0000
0010
0100
0000
1000
,
0001
1000
0010
0100
0000
0101
0000
0100
,
0010
0000
0100
0000
0001
0000
1000
0000
0000
0000
1000
0000
0001
0000
0000
0010
,
0000
0100
1000
0001
0000
0011
0000
1000
,
0100
1000
0001
0100
0000
0100
0010
0100
,
0001
0000
1000
0100
0010
0001
0000
0010
,
0001
0000
1000
0000
0000
0000
0010
0000
0100
0000
0001
0000
1000
0000
0000
1001
,
0000
0001
0010
0100
1000
0000
0010
0100
,
0001
0000
1000
0100
0001
0100
1000
0010
,
0100
0000
0001
0010
0001
0000
0001
0010
,
0001
0000
0001
0010
0001
0010
0001
0010
,
0001
0010
0001
1000
0100
1000
0100
1000
,
0010
1000
0020
0000
0000
0000
0000
0000
,
0030
0000
1001
0000
0100
0010
0100
0010
,
0000
1001
0000
1001
0000
1000
0001
0010
,
0001
0100
0010
0100
0010
1000
0001
1000
,
0000
1010
0000
0101
0000
0001
0010
0100
,
1000
0001
2000
0000
0000
0000
3001
0000
,
0000
0220
0000
0330
,
0000
0000
0000
0000
0001
0000
0010
0000
0001
0000
1000
0000
0001
0000
0000
0100
,
0000
0010
1000
0100
0010
0100
0000
0100
,
0010
0000
0000
0000
0001
0000
0100
0000
0010
0000
1000
0000
0100
0000
0000
1000
,
0000
0010
1000
0001
0010
0100
0000
0100
,
0010
0000
0001
1000
0100
0000
1001
0000
,
0100
0001
0010
0001
1000
0000
1010
0000
,
0100
0010
1000
0001
0010
0000
0101
0000
,
0010
1000
0200
0000
0000
0000
1300
0010
,
0001
0000
0000
0000
0001
0000
0010
0000
1000
0000
0001
0000
1000
0000
0000
0001
,
0000
0010
0001
1000
0100
1000
0000
2002
,
0000
0000
3003
0000
0100
0000
0010
0000
1000
0000
0001
0000
0010
0000
0000
0100
,
0000
1000
0001
1000
0010
0100
0000
2002
,
0000
0000
3003
0000
0010
0000
0001
0000
0100
0000
0001
0000
1000
0000
0000
0100
,
0000
0010
0001
1000
0100
1000
0000
2020
,
0000
0000
3030
0000
0100
0000
0001
0000
0010
0000
0001
0000
1000
0000
0000
0001
,
0000
0010
0001
1000
0100
0010
0001
1000
,
0010
0000
0000
0000
0000
0000
0000
0000
0202
0303
0000
0000
0000
0000
0000
0000
1010
0000
0000
0000
0000
0000
0000
0000
0000
0000
0000
0000
0000
0000
0000
0000
;

//---------------dance-single - ----------------
#NOTES:
     dance-single:
     :
     Hard:
     16:
     0.885414,0.983944,0.939403,0.291539,0.323932,574.000000,487.000000,87.000000,27.000000,0.000000,0.000000,0.885414,0.983944,0.939403,0.291539,0.323932,574.000000,487.000000,87.000000,27.000000,0.000000,0.000000:
// measure 0
0000
0000
0000
0000
,  // measure 1
0000
0000
0000
0000
,  // measure 2
2002
3003
0220
0330
,  // measure 3
2002
0000
0000
0000
3003
0000
0000
0000
0010
0001
1000
0000
0010
1000
0001
0000
,  // measure 4
1000
0100
1000
0100
0010
0001
0010
0001
,  // measure 5
1000
0001
0100
0010
1000
0010
0001
0010
,  // measure 6
0100
0001
1000
0100
1000
0010
0001
0010
,  // measure 7
1000
0001
0010
0100
1000
0001
0101
0000
,  // measure 8
1000
0000
0001
0000
0010
0000
0001
0000
1000
0000
0010
0100
0001
0000
0010
0000
,  // measure 9
0100
0000
1000
0000
0010
0000
0100
0000
0001
0000
1000
0100
0010
0000
0001
0000
,  // measure 10
0010
0000
0100
0000
0010
0000
0001
0000
1000
0000
0010
1000
0100
0000
1000
0000
,  // measure 11
0010
0000
0100
0000
0001
0000
0011
0000
0000
0000
1000
0000
0010
0100
0010
0100
,  // measure 12
0001
0000
0000
0000
1000
0001
1000
0001
1000
0001
1000
0001
1000
0001
1000
0001
,  // measure 13
1000
0000
0000
0000
0010
0000
0100
0000
0010
0000
1000
0000
0100
0000
0000
1000
,  // measure 14
0000
0001
0022
0000
0000
0000
0033
0000
,  // measure 15
0000
0000
0000
0000
0010
0000
0001
0000
0100
0000
0010
0000
1000
0000
0000
0011
,  // measure 16
0000
1000
2020
0000
0000
0000
3030
0000
,  // measure 17
0001
0100
0010
1000
0100
0000
1000
0000
0010
0000
1000
0000
0001
0000
0010
0001
,  // measure 18
0000
1000
0001
0000
0100
0000
0010
0000
1000
0000
0100
0000
0000
0000
0100
0000
,  // measure 19
0010
0000
0100
0000
1000
0000
0010
0000
0100
0000
0001
0000
0010
0000
0100
1000
,  // measure 20
0000
0001
1000
0000
0010
0000
0100
0000
0010
0000
1000
0000
0000
0000
1000
0000
,  // measure 21
0101
0000
0000
0000
0010
0000
1000
0000
0001
0000
0010
0000
0001
0000
1000
0100
,  // measure 22
0000
0010
0001
0000
0100
0000
0100
0000
0010
0000
1000
0000
0000
0001
0010
0000
,  // measure 23
0100
0000
1000
0000
0010
0000
0010
0000
0100
0000
0100
0000
0001
0010
0001
0100
,  // measure 24
0010
1000
2200
0000
0000
0000
3300
0000
,  // measure 25
0000
0000
0001
0101
0100
0010
0100
0001
,  // measure 26
0010
0011
0001
1000
0010
1010
1000
0100
,  // measure 27
0001
0100
1000
0010
1000
1100
0100
1000
,  // measure 28
0010
0110
0100
0001
0010
0001
0010
1000
,  // measure 29
0010
0001
1000
1001
0001
0100
0010
1010
,  // measure 30
1000
0000
0100
0000
0010
0000
0011
0000
0001
0000
1000
0000
1001
0000
0000
0110
,  // measure 31
0000
1001
0001
0100
0010
1000
1100
0100
,  // measure 32
0010
0001
0021
0001
0000
1000
0000
0031
,  // measure 33
0100
0010
1000
1001
0001
0011
0010
0110
,  // measure 34
0100
0000
1100
0000
1000
0000
1010
0000
1000
0000
1100
0000
0110
0000
0000
1001
,  // measure 35
0000
0011
0001
1001
1000
1010
0010
0110
,  // measure 36
0100
0101
0001
0011
0001
1001
1000
0010
,  // measure 37
0001
0010
1000
0101
0000
1100
0000
0011
,  // measure 38
0010
0000
0001
0000
1000
0000
1010
0000
0010
0000
0010
0000
0110
0000
0000
1100
,  // measure 39
0000
0101
0020
1000
1000
0030
0200
1000
,  // measure 40
1000
0000
0301
0000
0010
0000
0001
0000
1000
0000
0001
0000
1000
0000
0100
0010
,  // measure 41
0001
1000
1000
1000
1010
0000
1000
1000
,  // measure 42
1100
0000
0000
0000
0001
0000
0010
0001
0010
0000
0001
0000
0010
0000
0011
0000
,  // measure 43
0001
0011
1000
1001
0001
1001
1000
1001
,  // measure 44
0001
1001
0220
0000
0000
0000
0330
0000
,  // measure 45
0000
0000
0110
0110
0110
0110
0110
0110
,  // measure 46
0000
1001
0000
1010
0000
0101
0101
0101
,  // measure 47
0101
1000
1100
1100
1100
1100
1100
0000
,  // measure 48
0011
1010
0000
1100
0000
0101
0010
0001
,  // measure 49
1001
1001
2002
0000
3003
0000
2020
0000
,  // measure 50
3030
0022
0000
0033
,  // measure 51
0000
0000
0000
0000
1000
0000
0001
0000
0010
0000
0001
0000
1000
0000
0100
0010
,  // measure 52
0000
0010
0100
0000
1000
0000
0010
0000
0100
0000
0001
0010
0000
0001
0100
0000
,  // measure 53
0010
0000
1000
0000
0100
0000
1000
0000
0001
0000
1000
0000
0010
0000
0100
0001
,  // measure 54
0000
0001
0100
0000
0010
0000
1000
0000
0100
0000
0010
0100
0000
1000
0010
0000
,  // measure 55
0100
0001
0010
0100
1000
0001
1001
0000
,  // measure 56
0010
0000
0001
0000
1000
0000
0010
0000
1000
0000
0001
0010
0000
0100
1000
0000
,  // measure 57
0010
0100
0001
0001
1000
1000
0010
0100
,  // measure 58
0010
0000
0110
0000
2000
0000
0002
0000
3003
0000
0000
0000
0001
0100
0001
0100
,  // measure 59
0010
1000
0010
1000
0001
0000
0010
0000
0100
0000
1000
0000
0010
0000
1000
0100
,  // measure 60
0000
0010
0001
0000
0100
0000
0010
0000
1000
0000
0001
0000
0010
0000
0011
0000
,  // measure 61
1000
0000
0000
0000
0100
0000
1000
0000
0010
0000
0100
0000
0010
0000
1000
0010
,  // measure 62
0000
0100
0001
0000
0010
0000
0001
0000
0100
0000
0010
0000
1000
0000
1001
0000
,  // measure 63
0010
0000
0000
0000
0100
0010
1000
0000
0001
0000
0010
0000
0001
0000
0010
0001
,  // measure 64
0000
1000
0100
0000
1000
0010
0100
0000
0001
0000
0010
0000
0001
0000
1001
0000
,  // measure 65
0100
0000
0000
0000
0010
1000
0100
0000
1000
0000
0001
0000
0010
0000
0001
1000
,  // measure 66
0000
0100
1000
0000
0010
0100
0001
0000
1000
0010
0100
0000
0001
0010
0100
1000
,  // measure 67
0001
0000
0000
0000
1000
0000
0000
0000
0220
0330
0000
0000
0000
0000
0000
0000
1001
0000
0000
0000
0000
0000
0000
0000
0000
0000
0000
0000
0000
0000
0000
0000
;
