#TITLE:HEAVENLY MOON;
#SUBTITLE:;
#ARTIST:Tatsh;
#TITLETRANSLIT:;
#SUBTITLETRANSLIT:;
#ARTISTTRANSLIT:;
#GENRE:MOON CORE;
#CREDIT:;
#BANNER:HEAVENLY MOON_banner.png;
#BACKGROUND:HEAVENLY MOON.png;
#LYRICSPATH:;
#CDTITLE:;
#MUSIC:HEAVENLY MOON.ogg;
#OFFSET:0.260000;
#SAMPLESTART:69.789993;
#SAMPLELENGTH:15.000000;
#SELECTABLE:YES;
#DISPLAYBPM:185.000000;
#BPMS:0.000000=185.000000
,201.000000=92.500000
,202.000000=185.000000
;
#STOPS:9.833333=0.649000,
16.250000=0.162000,
16.500000=0.162000,
23.000000=0.162000,
23.500000=0.162000,
67.833336=1.297000,
132.000000=0.973000,
201.833328=0.649000,
265.833344=0.324000,
280.833344=0.324000
;
#BGCHANGES:;
#KEYSOUNDS:;
#ATTACKS:;

//---------------dance-single - ----------------
#NOTES:
     dance-single:
     :
     Easy:
     8:
     0.308017,0.345929,0.181742,0.206525,0.000000,261.000000,239.000000,22.000000,25.000000,0.000000,0.000000,0.308017,0.345929,0.181742,0.206525,0.000000,261.000000,239.000000,22.000000,25.000000,0.000000,0.000000:
0000
0000
0000
0000
,
0001
1000
0001
1000
,
0001
1000
0010
0100
,
0010
0100
0010
0100
,
0000
0001
1000
0001
,
1000
0001
1000
0000
,
0010
0000
0100
0000
,
0001
1000
0001
1001
,
2000
0000
0000
0000
0000
3000
0000
0000
,
0002
0000
0000
0000
0000
0003
0000
0000
,
0200
0000
0000
0000
0000
0300
0000
0000
,
0020
0000
0000
0000
0000
0030
0000
0000
,
1000
0000
0010
0000
,
1000
0000
0001
0000
,
2020
0000
0000
0000
0000
3030
0000
0000
,
0202
0000
0000
0000
0000
0303
0000
0000
,
2002
0000
0000
3003
,
0100
0010
0100
0000
,
0001
1000
0001
0000
,
1000
0010
1000
0000
,
0001
0100
0001
0000
,
0100
0010
1000
0000
,
0001
0010
0100
0000
,
1000
0000
1100
0000
,
0001
0000
0011
0000
,
1000
0000
0000
0001
0000
0000
1001
0000
,
0100
0000
0000
0010
0000
0000
0110
0000
,
0001
0000
0000
1000
0000
0000
1100
0000
,
0001
0010
0001
0000
,
0100
0000
0000
0001
0000
0000
1001
0000
,
1000
0000
0000
0010
0000
0000
0110
0000
,
2002
0000
0000
0000
0000
3003
0000
0000
,
0001
1000
0020
0230
,
0300
0001
1000
0100
,
0000
1000
0010
0100
,
0000
0001
0010
0100
,
0000
0010
0001
1000
,
0000
1000
0010
0100
,
0000
0001
0100
0010
,
0000
1000
0001
1000
,
0001
0200
0000
0310
,
0000
0000
1000
0000
0000
0001
0000
0000
,
2002
0000
0000
0000
0000
0000
0000
3003
,
0000
0010
0000
0100
,
0000
0001
0010
0100
,
1000
0001
0010
0100
,
0001
0100
1000
0010
,
1000
0001
1000
0010
,
0100
1000
0100
0001
,
0100
0010
0010
0010
,
0010
0200
0301
1000
,
0010
0000
1000
0010
,
0100
0000
0001
1000
,
0010
0000
0100
0001
,
1000
0000
0001
0100
,
0110
0000
1000
0010
,
0110
0000
1000
0001
,
0100
0010
1000
0010
,
0100
0001
1000
0001
,
0100
0000
0001
0010
,
0100
0000
1000
0010
,
0100
0000
0001
1000
,
0010
1000
0001
0000
,
0011
0000
1000
0000
,
1010
0000
0002
0000
,
2003
0000
3010
0001
,
0100
1000
1001
0001
,
0100
0010
1000
0100
,
1000
0010
0100
0001
,
1000
0010
0100
0001
,
0010
1001
1000
0010
,
1000
0001
0100
0001
,
0020
0000
0000
0030
,
0001
0000
1001
0000
,
1000
0010
1000
0100
,
1000
0001
1000
0010
,
0100
0001
1000
0010
,
0001
1000
0100
1000
,
0001
0000
0000
0100
0000
0000
2002
0000
,
0000
0000
3003
0000
,
0010
0000
0000
1000
0000
0000
0220
0000
,
0000
0000
0330
0000
,
0001
1000
0001
1000
,
0010
0000
0100
0000
0010
1000
0001
0000
;

//---------------dance-single - ----------------
#NOTES:
     dance-single:
     :
     Medium:
     11:
     0.520442,0.553486,0.289134,0.256090,0.070218,441.000000,406.000000,35.000000,31.000000,0.000000,0.000000,0.520442,0.553486,0.289134,0.256090,0.070218,441.000000,406.000000,35.000000,31.000000,0.000000,0.000000:
0000
0000
0000
0000
,
0010
1000
0100
0000
0010
0001
0100
0000
,
0010
0100
0010
0100
0010
1000
0100
0000
,
0010
0001
0100
0000
0001
1000
0001
1000
,
0020
0130
0001
1000
0010
0000
1000
0001
,
0010
0000
0100
0010
0100
0010
0200
1300
,
0001
0010
0001
0000
1000
0000
0010
0100
,
0001
0000
0000
1000
0000
0000
0001
0000
0100
0000
0000
0000
0110
0000
0000
0000
,
0020
0000
0000
1030
,
2000
0000
0000
3000
,
0001
0100
0010
1000
,
1001
0000
0010
0100
,
0220
0000
0330
1001
,
2020
0000
0000
3030
,
0202
0000
0000
0000
0303
0000
0001
0010
,
0002
0003
2000
3000
,
0220
0000
0000
0000
0000
0000
0000
0330
,
1000
0000
0000
0001
0000
0000
0100
0000
0010
0000
0000
1000
0000
0000
0010
0000
,
0100
0000
0000
0001
0000
0000
1000
0000
0010
0000
0000
0100
0000
0000
0001
0000
,
0010
0000
0000
0001
0000
0000
1000
0000
0010
0000
0000
0100
0000
0000
0001
0000
,
1000
0000
0000
0100
0000
0000
1000
0000
0001
0000
0010
0000
0002
0000
0000
0000
,
1003
0000
0000
0010
0000
0000
0100
0000
0001
0000
0000
0010
0000
0000
0100
0000
,
1000
0000
0000
0001
0000
0000
0010
0000
0001
0000
0000
1000
0000
0000
0100
0000
,
1000
0001
1000
0000
0010
0100
0010
0000
,
1000
0100
0010
0001
0010
0100
2000
0000
,
3001
0000
0000
0101
0000
0000
1001
0000
,
1000
0000
0000
1010
0000
0000
1001
0000
,
0010
0000
0000
0110
0000
0000
1001
0000
,
1000
0001
0100
0010
1000
0001
0010
0100
,
1000
0000
0000
0011
0000
0000
1001
0000
,
0001
0000
0000
0110
0000
0000
1010
0000
,
0102
0000
1003
0000
,
1000
0010
0100
0001
0010
0100
1000
0001
,
0000
0000
0100
0000
0010
1000
0000
0001
,
1000
0000
0010
0000
0100
0001
0000
1000
,
0001
0000
0010
0000
0001
1000
0000
0010
,
0100
0000
0001
1000
0001
0100
0000
0100
,
0010
0000
1010
0000
1000
0100
0000
0100
,
1000
0000
1001
0000
0001
0010
0000
0010
,
0001
0000
1001
0000
1000
0010
0000
0100
,
0001
0000
0010
0001
1000
0100
0000
0000
,
1001
0000
0110
0000
0000
1010
0000
0000
,
0202
0000
0000
0303
,
0000
0001
1000
0010
,
0100
0000
0001
0010
0100
1000
0000
0001
,
1000
0000
0010
1000
0100
0000
1000
0001
,
0100
0000
0001
0010
0100
0000
1000
0010
,
0100
0000
0001
1000
0100
0000
1000
0001
,
0010
0000
0001
0100
1000
0100
0001
0010
,
0001
0000
1000
0001
1000
0001
1000
0001
,
1000
0001
0200
0000
0310
1000
0010
0000
,
0100
0000
0000
0001
0000
0000
1000
0000
0001
0000
0000
0000
0010
0000
0000
0000
,
0001
0000
0000
1000
0000
0000
0100
0000
1000
0000
0001
0000
0010
0000
0000
0000
,
0001
0000
0000
1000
0000
0000
0010
0000
0100
0000
0001
0000
0100
0000
0000
0000
,
0010
1000
0001
0100
0001
1000
0100
0000
,
1000
0000
0000
0001
0000
0000
0010
0000
0001
0000
0100
0000
0010
0000
0000
0000
,
2020
0000
3030
0000
1000
0100
0010
0100
,
1000
0000
0000
0001
0000
0000
0100
0000
0001
0000
0010
0000
0001
0000
0100
0000
,
0010
1000
0100
0000
1000
0001
0010
0000
,
0001
1000
0100
0000
1000
0010
0100
0000
,
0001
0010
0100
0000
1000
0001
0100
0000
,
0001
0010
0001
0000
1000
0010
1000
0001
,
0100
0000
0010
0000
1000
0010
0100
0010
,
1000
0001
0010
0000
0001
1000
0100
1000
,
0001
0010
0001
0000
0200
0000
0000
0000
,
0301
0000
0010
0000
0001
1000
0100
0001
,
0100
1000
0010
0100
0110
0000
0010
1000
,
0010
0100
0001
0010
,
0100
1000
0001
0000
1000
0000
0010
1000
,
0001
1000
0010
0000
0100
0000
1001
0000
,
0220
0000
0000
0330
1001
0000
0000
0000
0001
0000
0010
0000
0001
0000
0000
0000
,
1000
0100
1000
0000
0010
0100
0010
1000
,
0002
0000
0000
0000
,
0103
0000
2010
0000
,
3001
0010
0001
0010
0001
0000
0100
0000
,
0010
1000
0010
1000
0010
0000
0100
0000
,
0001
1000
0001
1000
0010
0100
0010
0000
,
1000
0010
0100
0001
1000
0100
0010
0001
,
1000
0000
0000
0011
0000
0000
2002
0000
,
0000
0000
0000
3003
,
0100
0000
0000
1010
0000
0000
0202
0000
,
0000
0000
0000
0303
,
1000
0010
0100
0001
,
0010
0000
0001
0000
1000
0010
0100
0000
;

//---------------dance-single - ----------------
#NOTES:
     dance-single:
     :
     Hard:
     15:
     0.743488,0.830229,0.305656,0.165220,0.256090,630.000000,593.000000,37.000000,20.000000,0.000000,0.000000,0.743488,0.830229,0.305656,0.165220,0.256090,630.000000,593.000000,37.000000,20.000000,0.000000,0.000000:
// measure 0
0000
0000
0000
0000
,  // measure 1
1000
0010
0100
0010
1000
0001
0010
0100
,  // measure 2
1000
0001
0010
1000
0001
0100
1000
0100
,  // measure 3
0010
1000
0001
0100
0010
1000
0100
1000
,  // measure 4
0001
1001
1000
0100
0010
0100
1000
0001
,  // measure 5
0010
0100
1000
0001
0100
0010
0100
1010
,  // measure 6
0001
0000
0100
0000
0020
0000
0000
0000
1030
0000
0000
0001
0000
0000
0100
0000
,  // measure 7
0010
0000
1000
0000
0100
0000
1000
0000
0001
0100
0001
0100
0010
1000
0010
1000
,  // measure 8
0002
0013
0110
0100
,  // measure 9
2001
0000
3010
1000
0001
0010
0100
1000
,  // measure 10
0010
0100
0001
0000
1100
0000
0101
0000
,  // measure 11
0120
1030
0110
0101
,  // measure 12
0010
1000
0100
1000
0001
0100
0010
0001
,  // measure 13
0010
1000
0100
1000
0001
0010
0100
1000
,  // measure 14
0100
1000
0001
0100
0010
1000
0001
0010
,  // measure 15
0001
1000
0100
1000
0010
0001
0010
1000
,  // measure 16
0001
0020
0000
0000
0130
0000
1000
0000
,  // measure 17
1010
0000
0000
0010
0000
0000
0100
0000
0001
0000
0000
0010
0000
0000
0100
0000
,  // measure 18
1000
0000
0000
0001
0000
0000
0101
0000
0100
0000
0000
0010
0000
0000
1000
0000
,  // measure 19
0001
0000
0000
0010
0000
0000
0100
0000
1000
0000
0000
0001
0000
0000
0100
0000
,  // measure 20
0001
1000
0010
1000
0001
0010
0110
0000
,  // measure 21
1001
0000
0000
1000
0000
0000
0010
0000
0100
0000
0000
0001
0000
0000
0010
0000
,  // measure 22
0100
0000
0000
1000
0000
0000
1001
0000
0001
0000
0000
0100
0000
0000
0010
0000
,  // measure 23
1000
0100
1000
0010
0100
0001
0010
0001
,  // measure 24
1000
0000
0100
0000
0001
0000
0100
0000
1000
0000
0010
0000
0100
0010
0100
0010
,  // measure 25
0100
0000
0001
0100
0001
0000
1010
0000
,  // measure 26
1100
0000
0100
0010
0100
0000
0011
0000
,  // measure 27
1001
0000
1000
0010
0100
0000
0101
0000
,  // measure 28
0001
1000
0100
0010
0001
0010
0100
1000
,  // measure 29
0010
0000
1000
0010
0100
0000
0110
0000
,  // measure 30
1001
0000
1000
0010
0100
0001
1000
0100
,  // measure 31
1000
0010
0100
0010
1000
0001
0010
0001
,  // measure 32
1000
0000
0100
0000
0010
0000
0001
0000
1000
0010
1000
0010
0100
0001
0100
0001
,  // measure 33
0000
0000
1020
0000
0130
0001
0000
0001
,  // measure 34
0100
0000
0012
0000
1003
0100
0000
0100
,  // measure 35
1000
0000
0210
0000
0301
1000
0000
1000
,  // measure 36
0001
0000
1000
0010
0100
0001
0000
0001
,  // measure 37
0100
1000
1200
0000
0310
0100
0000
0100
,  // measure 38
0001
0000
1020
0000
0130
0001
0000
0001
,  // measure 39
0100
0000
2100
0000
3010
0100
0000
0100
,  // measure 40
0020
0000
1030
0001
0100
0010
0000
0010
,  // measure 41
1000
0100
1000
0000
0001
0011
0000
1000
,  // measure 42
1010
0000
0100
0010
0100
0001
1000
0010
,  // measure 43
0100
0001
0101
1000
,  // measure 44
1100
0000
0001
0010
0100
1000
0010
0100
,  // measure 45
1000
0000
0100
0001
1000
0010
0100
0001
,  // measure 46
1000
0010
0001
1000
0100
0001
1000
0010
,  // measure 47
0001
0010
1000
0100
0001
1000
0010
0001
,  // measure 48
1000
0100
0010
0001
0100
1000
0100
0001
,  // measure 49
0010
1000
0001
1000
0010
0100
0001
1000
,  // measure 50
0010
0100
0010
0100
0020
0000
0000
0000
1030
0000
0001
0000
0100
0000
1000
0000
,  // measure 51
0100
0000
0000
0001
0000
0000
0010
0000
0001
0000
1000
0000
0100
0000
0010
0000
,  // measure 52
0001
0000
1000
0010
0100
0010
1000
0000
0001
0000
0010
0000
0100
0000
0010
0000
,  // measure 53
0001
0000
0000
1000
0000
0000
0010
0000
0100
0000
1000
0000
0100
0000
0010
0000
,  // measure 54
1000
0000
0001
0000
0010
0100
0010
0100
0010
0000
0001
0000
1000
0000
0100
0000
,  // measure 55
1000
0000
0000
0001
0000
0000
1000
0000
0010
0000
0100
0000
0001
0000
0010
0000
,  // measure 56
0001
0000
1000
0000
0001
1000
0100
1000
0001
0000
0100
0000
0010
0000
0100
0000
,  // measure 57
0001
0000
0000
1000
0000
0000
0010
0000
1000
0100
1000
0100
1000
0000
0000
0000
,  // measure 58
0001
0010
0001
0010
0001
0000
0000
0000
0100
0000
0010
0000
0001
0000
0010
0000
,  // measure 59
1000
0100
1000
0010
0100
1000
0100
0010
,  // measure 60
1000
0000
0001
0000
0100
0000
0010
1000
0001
0000
1000
0000
0010
0000
0100
0000
,  // measure 61
0001
0100
0010
0100
0001
0010
0001
1000
,  // measure 62
0100
0000
0010
0000
0001
1000
0001
1000
0001
0000
0100
0000
0010
0000
1000
0000
,  // measure 63
0100
0010
0001
1000
0010
0001
0010
1000
,  // measure 64
0001
0000
0100
0000
0010
1000
0010
0000
0100
0000
0001
0000
1000
0000
0100
0000
,  // measure 65
0010
0000
0001
0000
1000
0000
0010
0000
0100
0001
0100
0000
0010
1000
0010
0000
,  // measure 66
1000
0001
1000
0001
0100
0010
0100
0010
1001
0000
0001
0000
0100
0000
0010
0000
,  // measure 67
1000
0100
1000
0010
0100
0001
0010
0001
,  // measure 68
1000
0010
0100
0001
0100
1000
0100
0010
,  // measure 69
1000
0100
0010
0001
0100
0010
1000
0001
,  // measure 70
0010
0100
0010
0100
1001
0000
1000
0000
0010
0000
0100
0000
0001
0000
0010
0000
,  // measure 71
0001
0100
1000
0001
0010
1000
0001
1000
,  // measure 72
1002
0000
0203
0000
,  // measure 73
0320
0000
0000
0000
0000
0000
0000
0000
1030
0000
0001
0000
1000
0000
0010
0100
,  // measure 74
0001
1000
0001
1000
0010
0100
0010
0100
,  // measure 75
1000
0100
1000
0100
0001
0010
0001
0010
,  // measure 76
0100
0010
0100
0010
0100
1000
0100
1000
,  // measure 77
0001
0000
0010
0000
0100
0000
1000
0000
0001
0100
0001
0100
0010
1000
0010
1000
,  // measure 78
0001
0000
0100
0001
0000
0000
2020
0000
,  // measure 79
0000
0000
0000
0000
0000
0000
3030
0000
0000
0000
0000
0000
0001
0010
0100
1000
,  // measure 80
0001
0000
1000
0010
0000
0000
0202
0000
,  // measure 81
0000
0000
0303
0000
,  // measure 82
1000
0000
1000
0010
0000
0010
0100
0000
0100
0001
0000
0001
,  // measure 83
0010
0000
0000
0000
0010
0000
0100
0000
0000
0000
0100
0000
1000
0000
0000
0001
0000
0000
1001
0000
0000
0000
0000
0000
;

//---------------dance-single - ----------------
#NOTES:
     dance-single:
     :
     Challenge:
     17:
     0.900447,0.968600,0.578269,0.099132,0.475006,763.000000,693.000000,70.000000,12.000000,0.000000,0.000000,0.900447,0.968600,0.578269,0.099132,0.475006,763.000000,693.000000,70.000000,12.000000,0.000000,0.000000:
// measure 0
0000
0000
0000
0000
,  // measure 1
0100
1000
0010
0001
0100
0001
0010
0100
,  // measure 2
1000
0010
0001
0100
0010
1000
0100
0001
,  // measure 3
0010
0000
0001
0000
0100
0000
1000
0000
0010
0000
1000
0000
0001
0010
0100
1000
,  // measure 4
0010
0000
1001
0000
0100
0000
0010
0000
1000
0001
0100
0000
0010
0000
1000
0000
,  // measure 5
0001
0010
0100
0000
1000
0000
0010
0000
1000
0001
0100
0010
1000
0000
0011
0000
,  // measure 6
0100
0000
0001
0000
0021
0000
0000
0000
0130
0000
1000
0001
0000
1000
0010
1000
,  // measure 7
0100
0000
1000
0010
0000
0100
0010
0100
0001
0000
0010
0000
0001
1000
0010
0100
,  // measure 8
0001
0010
0100
1000
0010
1000
0001
0000
,  // measure 9
0120
0000
0001
0001
0001
0000
1030
0000
,  // measure 10
1000
0100
0010
0001
1000
0010
0001
0000
,  // measure 11
1020
0000
0100
0100
0100
0000
0031
0000
,  // measure 12
0001
0000
0010
0000
1000
0000
0100
0000
0010
0000
0001
1000
0010
0000
0100
0000
,  // measure 13
0001
0000
0010
0000
0100
0000
1000
0000
0001
0000
0100
0010
1000
0000
0001
0000
,  // measure 14
1000
0100
0001
1000
0010
0001
1000
0001
,  // measure 15
0010
1000
0001
0100
1000
0010
1000
0001
,  // measure 16
0100
0000
1000
0000
0100
0000
0001
0000
0100
0000
0010
1000
0001
0000
0010
0000
,  // measure 17
0101
0000
1000
0010
0000
0100
0001
0000
0010
0000
0100
1000
0000
0001
0010
0000
,  // measure 18
0001
0000
1000
0010
0000
0100
0001
0000
0010
0000
0100
1000
0000
0010
0100
0000
,  // measure 19
0001
0000
0010
0001
0000
0100
0010
0000
1000
0000
0010
0100
0000
0001
1000
0000
,  // measure 20
0010
0000
0100
0000
0110
0000
0010
0000
1000
0000
0001
0000
0010
0000
0001
1000
,  // measure 21
0100
0000
1000
0010
0000
1000
0100
1000
0010
0000
0100
0001
0000
0010
0001
0010
,  // measure 22
0100
0000
1000
0001
0000
0010
0100
1000
0001
0000
0100
0010
0000
1000
0010
0100
,  // measure 23
0001
0000
0011
0000
0010
0000
0001
0000
1000
0000
0010
0000
0100
0010
1000
0001
,  // measure 24
0010
0000
0100
0000
1000
0000
0010
0000
0001
0000
1000
0000
0100
0010
1000
0001
,  // measure 25
0010
0100
1000
1001
0010
0001
0101
0000
,  // measure 26
1010
0010
0100
0001
0010
0100
1100
0000
,  // measure 27
0101
0001
1000
0010
0100
0001
0011
0000
,  // measure 28
1000
0000
0001
0000
1100
0000
0010
0000
0100
0000
0001
0000
0010
0001
1000
0010
,  // measure 29
0100
0001
0010
1001
0100
0010
1100
0000
,  // measure 30
0101
1000
0010
1000
0001
0010
1001
0000
,  // measure 31
0020
0100
0100
0130
2000
0100
0100
3100
,  // measure 32
0010
0000
0100
0000
1000
0000
0001
0000
1000
0010
0100
0001
0010
0100
1000
0001
,  // measure 33
0000
0000
1001
0010
0100
1100
0000
0001
,  // measure 34
0101
0000
0110
0010
1000
1001
0000
0010
,  // measure 35
0011
0000
1001
0001
0100
0101
0000
0010
,  // measure 36
0011
0000
1000
1100
0010
1001
0000
0100
,  // measure 37
0110
0010
1000
0001
0100
0101
0000
0010
,  // measure 38
1100
0000
0110
0010
1000
1001
0000
0100
,  // measure 39
0011
0000
1001
1000
0010
0101
0000
0010
,  // measure 40
1100
0000
0001
0001
0001
1001
0000
0100
,  // measure 41
0110
0010
1000
0001
0010
0110
0000
0100
,  // measure 42
1001
0000
0100
0000
0110
0000
0001
1000
,  // measure 43
0100
0000
1000
0010
0000
0010
0100
0001
,  // measure 44
0000
0001
0010
1000
0001
1000
0010
0100
,  // measure 45
1000
0001
0100
0000
0010
0000
0100
0000
1000
0000
0010
0000
0100
0000
1000
0000
,  // measure 46
0100
0010
0001
0100
0010
0001
0010
0100
,  // measure 47
1000
0001
0010
0100
1000
0010
0100
1000
,  // measure 48
0010
0100
0010
0001
0100
0010
0001
0100
,  // measure 49
0010
0001
1000
1000
1000
1000
1000
1000
,  // measure 50
1000
0001
0100
0010
0200
0000
0000
0000
0310
0000
0001
0000
0010
0000
1000
0000
,  // measure 51
0001
0000
0100
0010
0000
1000
0100
1000
0010
0000
0100
0000
0001
0000
1000
0000
,  // measure 52
0100
0000
0010
0001
0010
0100
1000
0001
0100
0000
0010
0000
1000
0000
0010
0000
,  // measure 53
1000
0000
0001
0010
0000
0001
0100
0001
0010
0000
0100
0000
1000
0000
0010
0000
,  // measure 54
1000
0000
0001
0000
1000
0100
0010
0001
0100
0000
0010
0000
0100
0000
0001
0000
,  // measure 55
1000
0000
0010
0100
0000
0010
1000
0010
0100
0000
0001
0000
0010
0000
0001
0000
,  // measure 56
1001
0000
0000
0000
0010
0100
0001
1000
0010
0000
1000
0000
0110
0000
0001
0000
,  // measure 57
1000
0000
0010
0100
0000
0010
0100
0001
0010
0100
1000
0001
0100
0010
1000
0100
,  // measure 58
0010
0001
0010
0100
1000
0001
0010
0100
1000
0000
0100
0000
0001
0000
1000
0000
,  // measure 59
0010
0001
0100
1000
0001
0010
1000
0001
,  // measure 60
0010
0000
0100
0000
1000
0010
0100
0001
0010
0000
1000
0000
0010
0000
0001
0000
,  // measure 61
0100
0010
1000
0001
0010
0001
0100
0010
,  // measure 62
0001
0000
0010
0000
1000
0001
0010
0100
1000
0000
0010
0000
0001
0000
1000
0000
,  // measure 63
0100
0001
0010
1000
0001
0100
1000
0010
,  // measure 64
1001
0000
0000
0000
0100
0010
0100
0010
1000
0000
0001
0000
0001
0000
0010
0000
,  // measure 65
0100
0000
0010
0001
0000
1000
0001
1000
0010
0100
0010
0100
0001
0010
0001
0010
,  // measure 66
0100
1000
0010
0100
0001
0010
0100
1000
1001
0000
0010
0000
0100
0000
1000
0000
,  // measure 67
0010
0100
0001
0010
0100
1000
0010
0100
,  // measure 68
0001
1000
1001
0100
0010
0001
1000
0100
,  // measure 69
0010
0001
0100
0010
1000
0001
0100
0100
,  // measure 70
0001
0010
0100
1000
1001
0000
0010
0000
0100
0000
0001
0000
1000
0000
0010
0000
,  // measure 71
0001
1000
0100
0001
1000
0100
0001
1000
,  // measure 72
0002
0100
0000
0103
0020
1000
0000
1030
,  // measure 73
0010
0000
0001
0000
0010
0000
1000
0000
0010
0000
0001
0000
1000
0000
0010
0100
,  // measure 74
0001
0011
1000
1100
0010
0110
1000
1100
,  // measure 75
0001
0101
0010
0110
1000
1001
0001
0110
,  // measure 76
0010
1010
1000
1001
0001
0011
0010
0110
,  // measure 77
0100
0000
1100
0000
0001
0000
1001
0000
0010
0100
0001
1000
0001
0010
0100
1000
,  // measure 78
0010
0000
0100
0101
0000
1000
2020
0000
,  // measure 79
0000
0000
0000
0000
0000
0000
0000
0000
3030
0000
0000
0000
0100
0001
0010
0100
,  // measure 80
1000
0000
0001
1100
0000
0001
0022
0000
,  // measure 81
0000
0000
0033
0000
,  // measure 82
1001
0000
0001
1000
0000
1000
0100
0000
0100
0001
0000
0001
,  // measure 83
0010
0000
0000
0000
0010
0000
0100
0000
1000
0000
0100
0000
0001
0000
0000
1000
0000
0000
1001
0000
0000
0000
0000
0000
;
