#TITLE:HADES;
#SUBTITLE:;
#ARTIST:Massive New Krew;
#TITLETRANSLIT:;
#SUBTITLETRANSLIT:;
#ARTISTTRANSLIT:;
#GENRE:HARDSTYLE;
#CREDIT:;
#BANNER:HADES_banner.png;
#BACKGROUND:HADES_bg.png;
#LYRICSPATH:;
#CDTITLE:;
#MUSIC:HADES.ogg;
#OFFSET:-0.110000;
#SAMPLESTART:83.699997;
#SAMPLELENGTH:12.380000;
#SELECTABLE:YES;
#BPMS:0.000000=155.000000
;
#STOPS:60.000000=0.097000,
60.250000=0.097000,
60.500000=0.194000,
61.750000=0.387000,
116.000000=0.097000,
116.250000=0.097000,
116.500000=0.194000,
123.000000=0.097000,
123.250000=0.097000,
123.500000=0.194000,
204.000000=0.194000,
204.500000=0.194000,
205.000000=0.194000,
205.500000=0.194000,
206.000000=0.097000,
206.250000=0.097000,
206.500000=0.194000
;
#BGCHANGES:-0.150=HADES_BGA.avi=1.000=0=0=0=StretchNoLoop====,
99999=-nosongbg-=1.000=0=0=0 // don't automatically add -songbackground-
;
#KEYSOUNDS:;
#ATTACKS:;

//---------------dance-single - ----------------
#NOTES:
     dance-single:
     :
     Easy:
     7:
     0.283117,0.329811,0.259524,0.267388,0.003932,252.000000,219.000000,33.000000,34.000000,0.000000,0.000000,0.283117,0.329811,0.259524,0.267388,0.003932,252.000000,219.000000,33.000000,34.000000,0.000000,0.000000:
0000
0000
0000
0000
,
0000
0000
0000
0000
,
1001
0000
0010
0000
,
0220
0000
0330
0000
,
0001
0000
0000
0001
0000
0000
0001
0000
,
1000
0000
0000
1000
0000
0000
1000
0000
,
0110
0000
0100
0000
,
0001
0000
0001
0000
,
1000
0000
0001
0000
,
0020
0000
0030
0000
,
1000
0000
0101
0000
,
0010
0000
1100
0000
,
0010
0000
0110
0000
,
1000
0001
0010
0100
,
2000
0000
0000
0000
0000
3000
0000
0000
,
0010
0000
1000
0001
,
1000
0001
0010
0001
,
0010
0001
1000
0010
,
1000
0010
0100
0001
,
2002
3003
1000
0010
,
0001
0010
1000
0001
,
0200
0000
0301
1000
,
0100
0000
0001
0000
0100
0000
0000
0220
,
0000
0330
0001
0000
,
0001
0000
1000
0010
,
0100
0001
0010
0010
,
0022
0033
1000
0001
,
2200
3300
1000
0010
,
2020
3030
0100
0100
,
0101
0010
1000
2002
,
3003
0000
0010
0000
0001
0000
1000
0001
,
1000
0000
0000
0010
0000
0000
1000
0000
,
0202
0000
0000
0000
0000
0303
0000
0000
,
0010
0000
1000
0000
,
0100
0000
0001
0000
,
0110
0000
0001
0010
,
0200
0000
0300
0000
,
1000
0010
0200
0000
,
0301
0010
0110
0000
,
1000
0010
0002
0000
,
0013
1000
0200
0000
,
0310
0001
0100
1000
,
0220
0000
0330
0000
,
1001
0000
0001
0000
,
0001
0000
0001
0000
,
1100
0000
0100
0000
,
0100
0000
0100
0000
,
0011
0000
0001
0000
,
1010
0000
1000
0000
,
0101
0000
1100
0000
,
0001
1000
0100
0010
,
0001
1000
0010
0200
,
0300
0001
0010
0001
,
1000
0000
0010
0000
0000
0200
0000
0000
,
0300
0010
1000
0100
,
1000
0001
1000
2002
,
3003
0010
1000
0100
,
0010
0000
0001
0000
0000
0100
0000
0000
,
0001
0010
0100
1000
,
0010
0220
0000
0330
,
0000
0000
1000
0000
0100
0000
1000
0010
,
1000
0000
0001
0000
0000
0100
0000
0000
,
0010
0000
0100
0000
0001
0000
0010
0100
,
1000
0001
1000
2002
,
3003
0010
0001
0100
,
0001
0000
0010
0000
0000
1000
0000
0000
,
0010
0001
1001
1000
,
1001
0000
0000
0000
0100
0000
0000
0010
0000
0000
0200
0000
0000
0000
0000
0000
,
0300
0000
0010
0000
1000
0000
0010
1000
,
0010
0100
0001
0100
,
1000
0000
0100
0000
0001
0000
0010
0001
,
0010
0001
1000
0100
,
1000
0011
0000
1100
,
0000
1010
0000
0011
,
0000
0010
0001
0100
,
1000
0000
0010
0000
0100
0000
0001
1000
,
0001
0110
0000
0000
;

//---------------dance-single - ----------------
#NOTES:
     dance-single:
     :
     Medium:
     13:
     0.552752,0.629640,0.393218,0.220202,0.188745,492.000000,442.000000,50.000000,28.000000,0.000000,0.000000,0.552752,0.629640,0.393218,0.220202,0.188745,492.000000,442.000000,50.000000,28.000000,0.000000,0.000000:
0000
0000
0000
0000
,
0000
0000
0000
0000
,
0110
0000
0000
1000
0001
0000
0000
0001
,
0200
0000
0000
0000
0000
0000
0000
0000
0310
0000
0000
1000
0000
0000
0100
0000
,
1000
0100
0001
0100
1000
0010
0100
0001
,
1000
0010
0001
1000
0100
0001
0010
0000
,
0101
0000
0000
1000
0000
0000
0100
0000
0010
0000
0000
0001
0000
0000
1000
0000
,
0010
0000
0000
0100
0000
0000
0220
0000
0000
0000
0330
0000
0000
0000
0000
0000
,
0001
0000
0000
1000
0000
0000
0010
0000
1000
0000
0100
0000
0010
0000
0000
0000
,
0001
0000
1000
0010
0000
0010
0200
0000
0000
0000
0000
0000
0300
0000
0000
0000
,
1001
0010
1100
0010
,
0101
1000
0110
0001
,
1000
0001
0010
0100
1000
0010
0100
0001
,
0011
1100
1001
0110
,
0000
1001
0000
0101
0000
0110
0000
1100
,
0010
0010
0010
0000
0200
0000
0300
0000
1000
0000
0010
0000
0100
0000
0010
0000
,
1000
0100
0010
0100
1000
0001
0100
0010
,
0100
0001
0010
0001
1000
0001
0010
0001
,
1000
0000
0100
0000
0001
0000
0100
0000
1000
0000
0000
0010
0000
0000
0100
0000
,
0001
0010
1000
0010
0001
0100
0100
0000
,
0010
1000
0001
1000
0100
0010
1000
0001
,
0100
0010
0001
0000
1000
0010
0001
1000
,
0100
0000
0001
0000
0010
0000
0000
0000
1001
0000
0000
0100
0000
0000
0202
0000
,
0000
0000
0303
0000
0110
0000
1000
0001
,
0000
0001
0000
0010
0001
1000
0010
1000
,
0200
0302
0203
2300
3010
0100
0010
0100
,
0001
0000
0010
0001
0000
0001
1000
0010
,
1000
0100
0100
0000
0010
0100
1000
0100
,
0001
0100
1000
1000
0000
0010
0100
0010
,
1000
0001
1000
0000
0010
0000
0100
0000
1000
0000
0100
0000
0001
0000
0100
0000
,
0010
0000
0100
0000
0000
0000
0100
0000
0010
0000
1000
0000
0001
0010
0001
0000
,
1000
0000
0000
0001
0000
0000
1001
0000
0000
0010
0000
0000
0110
0000
0000
0000
,
1000
0000
0000
0001
0000
0000
0020
0000
0000
0000
0000
0000
0030
0000
0000
0000
,
0101
0000
1100
0000
,
1010
0001
0011
1000
,
1001
0000
0000
0000
0000
0000
0010
1000
0100
0000
0000
0000
0000
0000
0010
0001
,
0200
0000
0000
0000
0000
0000
0000
0000
0300
0000
0000
0000
0000
0000
0001
1000
,
0100
0000
0000
1000
0000
0000
0010
0000
0010
0000
0000
0000
0000
0000
1000
0000
,
0100
0000
0000
0010
0000
0000
0001
0000
0002
0000
0000
0000
1003
0000
0000
0000
,
0010
0000
0000
0100
0000
0000
0001
0000
0010
0000
0000
0100
0000
0000
1000
0000
,
0001
0000
0000
0100
0000
0000
2020
0000
0000
0000
3030
0000
0000
0000
0100
0000
,
0010
0000
0000
1000
0000
0000
0001
0000
0010
0000
0000
0100
0000
0000
1000
0000
,
0010
0000
0100
0001
0000
0001
2000
0000
0000
0000
0000
0000
3000
0000
0000
0000
,
0011
1000
0100
1000
,
0010
0100
0010
1000
,
0101
0010
1000
0100
,
0001
0000
0100
0000
1000
0001
0100
0000
,
0110
0000
0010
1000
0100
0010
0001
0000
,
1001
0000
0010
0100
0001
1000
0010
0000
,
0100
0001
0010
0100
1000
0001
0100
0010
,
1000
0010
0001
1000
0100
0001
0010
0000
,
1100
0000
0101
0000
1100
0000
0101
0000
0010
0010
0010
0000
0200
0000
0000
0000
,
0300
0000
0001
0010
0001
0000
1000
0000
,
0010
0000
1000
0100
1000
0000
0000
0001
0000
0000
0002
0000
0000
0000
0103
0000
,
0010
0000
0000
0000
1000
0000
0000
0010
0000
0000
1000
0000
0100
0000
0000
0000
,
0010
0000
0001
0000
1000
0000
0000
0010
0000
0000
0100
0000
0001
0000
0000
0000
,
1001
0000
0000
0000
0100
0000
0010
0000
0100
0000
0000
0000
0001
0000
0000
1000
,
0000
0000
0010
0000
1000
0000
0000
0100
0000
0000
0010
0000
0000
0000
0010
0000
,
0001
1000
0001
0100
1000
0000
1000
0100
,
0001
0000
0000
0000
0011
0000
0000
0100
0000
0000
2000
0000
0000
0000
0010
0000
,
3010
0000
1000
0010
1010
0000
0110
0000
,
0001
0000
0010
0000
0001
0000
0000
1100
0000
0000
0010
0000
0000
0000
0100
0000
,
0001
0000
1000
0000
0100
0000
0000
0110
0000
0000
0100
0000
1000
0000
0001
0000
,
0100
0000
0010
0000
0100
0000
0000
0101
0000
0000
0010
0000
1000
0000
0001
0000
,
0010
0000
0100
0000
1000
0000
0001
0000
0101
0000
0000
0000
1000
0000
0000
0010
,
0000
0000
0010
0000
1000
0000
0000
0100
0000
0000
0110
0000
0000
0000
0010
0000
,
0001
1000
0010
0100
0220
0330
1000
0001
,
2002
0000
3003
0000
1010
0000
0000
0011
0000
0000
0220
0000
0000
0000
0000
0000
,
0330
0000
0000
0000
1000
0000
0001
0000
0010
0001
0000
0100
0010
0000
1000
0000
,
0010
1000
0100
0010
0002
0000
1003
1000
,
1000
0000
0000
0000
0010
0000
0100
0010
0000
0000
0010
0000
1000
0000
0010
0000
,
0001
0010
1000
0001
0001
0100
0001
1000
,
0002
0000
1003
0100
0010
0001
1000
0001
,
0010
0100
1000
0010
0001
1000
0100
0001
,
0010
0000
0001
0000
1000
0100
1000
0000
0001
0000
0100
0000
0010
0100
0000
0100
,
0001
0000
0010
0000
0001
0000
0000
1100
0000
0000
0001
0000
0100
0000
1000
0000
,
0001
0110
0000
0000
;

//---------------dance-single - ----------------
#NOTES:
     dance-single:
     :
     Hard:
     16:
     0.807782,0.869503,0.715656,0.393218,0.727453,719.000000,628.000000,91.000000,50.000000,0.000000,0.000000,0.807782,0.869503,0.715656,0.393218,0.727453,719.000000,628.000000,91.000000,50.000000,0.000000,0.000000:
// measure 0
0000
0000
0000
0000
,  // measure 1
0000
0000
0000
0000
,  // measure 2
1001
0000
0000
0000
0010
0000
1000
0010
1000
0000
0000
0000
0001
0000
0010
0100
,  // measure 3
2000
0000
0000
0000
0000
0000
3001
0100
0001
0000
0000
1000
0010
0000
1000
0000
,  // measure 4
0001
0010
0100
0010
0001
0000
1000
0010
0100
0010
1000
0000
0002
0000
0000
0000
,  // measure 5
1003
0100
0010
0100
1000
0000
0001
0100
0010
0100
0001
0000
2000
0000
0000
0000
,  // measure 6
3010
0000
0000
0101
0000
0000
1000
0000
0100
0000
0000
0011
0000
0000
1000
0000
,  // measure 7
0010
0000
0000
1100
0000
0000
0002
0000
0000
0000
0103
0000
0000
0000
0100
0000
,  // measure 8
0110
0000
0000
1001
0000
0000
0020
0000
0200
0000
0000
0000
0330
0000
0000
0000
,  // measure 9
1000
0000
0001
0100
0000
0100
1000
0000
0100
0000
0001
0010
0000
0100
1000
0000
,  // measure 10
1001
0010
1100
0010
,  // measure 11
0101
1000
0011
1000
,  // measure 12
0001
1000
0100
0000
1000
0010
0100
0000
0001
0010
0100
0000
1000
0010
0100
0000
,  // measure 13
0010
0000
0000
1000
0000
0000
0010
0000
0000
1000
0000
0000
0010
0000
0000
1000
0000
0000
0010
0000
0000
1000
0000
0000
0001
0000
0000
0000
0010
0000
0000
0000
1000
0000
0000
0000
0001
0000
0000
0000
0100
0000
0000
0000
1000
0000
0000
0000
,  // measure 14
0000
0000
0020
0031
0000
0020
1030
0000
0000
0000
0020
0031
0000
0020
1030
0000
,  // measure 15
0100
0100
0100
0000
0220
0000
0000
0330
0001
0000
0010
0001
1000
0000
0010
0000
,  // measure 16
1000
0001
0100
0000
0001
0000
1000
0000
0010
0000
1000
0100
0010
0000
0001
0000
,  // measure 17
1000
0001
0000
0010
0001
0000
1000
0000
0010
0000
1000
0001
0100
0000
0001
0000
,  // measure 18
1000
0001
0010
0000
0001
0000
1000
0000
0020
0000
0130
0010
0000
0010
0100
0000
,  // measure 19
0000
0001
0010
0100
0010
0001
2000
0000
3010
0100
0000
0001
0010
0000
0100
0000
,  // measure 20
1000
0001
0100
0000
0001
0000
1000
0000
0010
0000
1000
0100
0000
1000
0001
0000
,  // measure 21
0010
0000
0001
1000
0001
0000
0100
0000
0010
0000
1000
0100
1000
0000
0001
0000
,  // measure 22
0010
0000
0011
0000
1000
0000
1100
0000
0001
0000
0000
0011
0000
0000
2020
0000
,  // measure 23
0000
0000
0000
0000
3030
0000
0000
0000
0100
0000
0000
0000
0010
0100
0001
1000
,  // measure 24
0001
0100
0010
0000
0000
0000
0010
0000
1000
0100
1000
0010
0100
0001
0010
0001
,  // measure 25
2000
3020
0032
0023
1030
0001
0010
0001
,  // measure 26
1001
1000
0010
0110
0000
0110
0100
0001
,  // measure 27
0010
0001
0202
0303
1000
0010
0110
0100
,  // measure 28
0010
1000
0100
1100
0000
1100
1000
0001
,  // measure 29
0010
1001
0100
0000
0110
0000
0010
0000
1000
0000
0001
0000
0101
0000
0100
0000
,  // measure 30
0010
0000
1010
0000
0000
0000
1010
0000
1000
0000
0001
0000
0010
0110
1001
0000
,  // measure 31
0110
0000
0000
0100
0010
1000
0001
0000
0000
0011
0000
0000
1100
0000
0000
0000
,  // measure 32
0001
0000
0100
1000
0000
1000
0100
0000
0010
0100
0001
0010
0001
0000
0000
0000
,  // measure 33
2200
0000
0000
3300
,  // measure 34
0011
0110
1100
0110
,  // measure 35
0011
0000
0000
0000
1000
0000
0001
0100
0020
0000
0000
0000
1030
0000
0100
0010
,  // measure 36
0002
0000
0000
0000
0013
0000
0000
0000
0001
1000
0010
1000
0001
0000
0100
0010
,  // measure 37
2000
0000
0000
3100
0000
0000
0010
0100
2000
0000
0000
0000
3001
0000
0100
0000
,  // measure 38
0020
0000
0000
1030
0000
0000
0001
0000
0010
0100
1000
0100
0010
0000
0001
0000
,  // measure 39
1000
0000
0000
0011
0000
0000
0100
0000
1000
0000
0000
0110
0000
0000
0001
0000
,  // measure 40
1000
0000
0000
0101
0000
0000
1000
0000
0010
0100
0001
0100
0010
0000
1000
0100
,  // measure 41
0020
0000
0000
0031
0000
0000
1000
0000
0100
0000
0010
0100
1000
0001
0100
0000
,  // measure 42
0010
0000
1000
0010
0000
0010
0001
0000
0020
0000
0000
0000
1030
0000
0000
0000
,  // measure 43
1100
1001
0011
0101
,  // measure 44
0011
1100
1001
0011
,  // measure 45
0101
0110
0101
1100
,  // measure 46
0101
0011
2020
3030
,  // measure 47
0100
0001
0100
1000
0100
0010
0100
0001
,  // measure 48
1000
0100
0010
0100
1000
0001
0010
0100
,  // measure 49
1000
0001
0010
0001
1000
0100
0010
0100
1000
0001
0100
0010
0100
0001
0010
0001
,  // measure 50
1000
0000
0010
0000
0001
0000
1000
0000
0000
0100
0000
0000
0001
0000
1000
0000
0100
0000
0010
0000
0010
0000
0010
0000
,  // measure 51
0110
0000
1001
0000
0110
0000
1001
0000
0100
0100
0100
0000
0220
0000
0000
0000
,  // measure 52
0330
0000
0000
0000
0001
0000
1000
0000
0010
0000
0100
0010
0100
0000
0000
0001
,  // measure 53
0000
0000
0010
0100
1000
0000
0000
0001
0000
0000
1001
0000
0000
0000
0010
0000
,  // measure 54
1000
0001
0010
0001
1000
0000
0000
0010
0000
0000
1000
0001
0100
0000
0010
0000
,  // measure 55
0100
0000
0001
0010
0100
0000
0000
1000
0000
0000
0001
0000
0010
0001
1000
0001
,  // measure 56
0010
0000
0100
1000
0001
0000
0100
0010
0100
0000
0001
0000
1000
0000
0010
0100
,  // measure 57
0000
0010
1000
0000
0100
0000
0000
1010
0000
0000
0202
0000
0303
0000
0010
0000
,  // measure 58
1000
0000
0001
0100
0001
0000
0010
0000
2200
0000
3300
0000
1000
0000
0010
0000
,  // measure 59
0202
0000
0303
0000
0011
0000
0000
1100
0000
0000
0220
0000
0000
0000
0000
0000
,  // measure 60
0330
0000
0000
0000
1100
0000
0100
0000
1100
0000
1000
0010
0100
0000
0101
0000
,  // measure 61
0001
0000
0010
0001
0100
0000
0110
0000
1000
0000
2002
0000
3003
0000
0010
0000
,  // measure 62
1000
0001
0010
0100
1000
0000
0001
0000
0101
0000
0100
0010
0100
0000
0001
0000
,  // measure 63
1001
0000
0010
0100
0001
0000
1000
0100
0000
0000
0010
0001
1000
0010
0100
0001
,  // measure 64
0010
0000
0001
0100
0010
0000
1000
0010
1000
0000
1010
0000
0100
0000
0001
0010
,  // measure 65
0001
0000
0101
0000
0110
0000
0000
0101
0000
0000
2200
0000
3300
0000
0010
0000
,  // measure 66
1000
0001
0010
0100
1000
0000
0000
0011
0000
0000
1000
0000
1010
0000
0000
0101
,  // measure 67
0000
0000
1100
0000
1010
0000
0000
0011
0000
0000
0010
0000
0100
1000
0010
0100
,  // measure 68
0002
0000
0000
0000
1003
0000
0010
0100
0001
0100
0010
1000
0100
0000
0110
0000
,  // measure 69
0010
0001
1000
0001
0100
0000
0110
0000
0010
0000
1000
0000
0001
1000
0010
0100
,  // measure 70
0002
0000
0000
0000
1003
0010
1000
0100
0000
1000
0010
0000
0100
0000
0101
0000
,  // measure 71
0001
0010
0100
1000
0001
0100
0010
0100
0001
0000
1000
0000
0010
1000
0100
0010
,  // measure 72
0002
0000
0000
0000
0013
0100
1000
0100
0010
0000
0001
0000
1000
0010
0100
0010
,  // measure 73
1000
0000
0001
0000
1000
0100
0001
0100
1000
0000
0010
0000
1000
0010
0001
0010
,  // measure 74
1000
0000
0010
0000
0100
0001
0100
0001
1000
0100
0010
0001
0100
0010
1000
0010
,  // measure 75
0100
0001
1000
0010
0100
0000
0010
0001
0000
0001
0010
0000
1000
0001
0010
0100
,  // measure 76
1000
0110
0000
0000
;

//---------------dance-single - ----------------
#NOTES:
     dance-single:
     :
     Challenge:
     18:
     0.968439,1.259280,1.163925,0.298846,0.924062,862.000000,714.000000,148.000000,38.000000,0.000000,0.000000,0.968439,1.259280,1.163925,0.298846,0.924062,862.000000,714.000000,148.000000,38.000000,0.000000,0.000000:
// measure 0
0000
0000
0000
0000
,  // measure 1
0000
0000
0000
0000
,  // measure 2
0110
0000
0000
0000
0001
0000
1000
0010
0100
0000
0000
0000
0001
0000
1000
0100
,  // measure 3
0020
0000
0000
0000
0031
0000
1000
0001
0100
0010
0000
1000
0010
0000
1000
0000
,  // measure 4
0010
0100
0001
0100
0010
0000
1000
0100
0010
0100
1000
0000
0001
0010
0100
0000
,  // measure 5
1000
0001
0010
0001
1000
0000
0100
0010
0001
0010
0100
0000
2000
0000
0000
0000
,  // measure 6
3010
0000
0000
0101
0000
0000
1010
0000
0001
0000
0000
0011
0000
0000
1000
0000
,  // measure 7
0010
0000
0000
1100
0000
0000
0002
0000
0000
0000
0013
0000
0100
0000
0010
0000
,  // measure 8
0011
0000
0000
1001
0000
0000
0010
0000
0100
0000
0010
1000
0000
1000
0001
0000
,  // measure 9
0010
0000
0100
0010
0000
0010
0001
0000
0100
0010
1000
0001
0010
0100
1000
0000
,  // measure 10
1001
0110
1100
0011
,  // measure 11
0101
0001
1100
1000
0011
0001
1010
1000
,  // measure 12
0001
1000
0100
0010
0001
0100
0010
0001
0010
0100
0010
0001
0010
1000
0100
0010
,  // measure 13
0100
0000
0000
1000
0000
0000
0001
0000
0000
0010
0000
0000
0100
0000
0000
1000
0000
0000
0010
0000
0000
0100
0000
0000
0010
0000
0000
0000
0100
0000
0000
0000
1000
0000
0000
0000
0001
0000
0000
0000
0100
0000
0000
0000
1000
0000
0000
0000
,  // measure 14
0100
0000
0010
1000
0000
0020
0031
0000
0100
0000
0020
0031
0000
0020
1030
0000
,  // measure 15
0100
0100
0110
0000
0220
0000
0000
0330
1000
0000
0100
0010
0001
0000
0010
0000
,  // measure 16
0001
1000
0100
0000
1000
0000
0010
0000
0100
0000
0001
0100
0010
0000
1000
0000
,  // measure 17
0001
0010
0100
0010
0001
0000
1000
0000
0010
0000
1000
0001
0010
0000
0001
0000
,  // measure 18
1000
0100
0010
0000
0001
0000
1000
0000
0020
0000
0130
0010
1000
0010
0100
0000
,  // measure 19
0010
1000
0001
0100
0010
1000
0002
0000
0013
0100
0000
1000
0010
0000
0100
0000
,  // measure 20
0001
0010
0100
0000
1000
0000
0010
0100
0010
0000
1000
0100
0000
1000
0001
0000
,  // measure 21
0010
0000
0100
1000
0010
0000
0100
0000
0001
0000
0010
0100
1000
0001
0100
0000
,  // measure 22
0010
0000
1010
0000
0001
0000
0101
0000
0011
0000
0000
1100
0000
0000
0220
0000
,  // measure 23
0000
0000
0000
0000
0330
0000
0000
0000
1001
0000
0000
0000
0100
0010
1000
0001
,  // measure 24
1000
0010
0100
0000
0000
0000
0011
0000
1000
0010
0100
0001
0010
0100
0010
0001
,  // measure 25
1000
0000
1010
0000
0001
0000
0011
0000
1000
0000
0001
0000
0010
0000
0001
0010
,  // measure 26
0011
1000
0010
1010
0000
1010
1000
0001
,  // measure 27
0011
0000
0001
0000
0202
0000
0303
0000
1010
0000
0010
0100
0110
0000
0100
0000
,  // measure 28
0001
0000
0010
0000
0100
1000
1100
0000
0000
0000
1001
0000
1000
0000
0010
0100
,  // measure 29
0110
1001
0110
0000
0110
0000
0010
0000
0100
0000
0001
0100
0101
0000
0100
0000
,  // measure 30
0010
0000
1010
0000
0000
0000
1000
0100
0010
0000
0001
0000
0010
0110
1001
0000
,  // measure 31
0110
0000
0000
1000
0010
1000
0001
0000
0000
0011
0000
0000
1100
0000
0000
0000
,  // measure 32
0010
0000
0100
0001
0000
1000
0100
0000
0010
0100
1000
0100
0001
0100
1000
0010
,  // measure 33
0200
0010
0010
0310
,  // measure 34
1010
0110
0011
0110
,  // measure 35
1010
0000
0000
0000
0001
0000
0010
0100
2000
0000
0000
0000
3010
0000
0100
0010
,  // measure 36
1000
0000
0000
0000
0110
0000
0000
0000
1000
0100
0010
0001
0100
0000
0001
0010
,  // measure 37
0200
0000
0000
1300
0010
0000
0010
0100
0002
0000
0000
0000
1003
0000
0100
0000
,  // measure 38
0020
0000
0000
0031
0100
0000
0001
0000
0010
0001
1000
0001
0010
0000
0100
0000
,  // measure 39
1100
0000
0000
0011
0000
0000
1000
0001
0100
0000
0000
1010
0000
0000
0001
1000
,  // measure 40
0010
0000
0000
0101
0000
0000
1000
0000
0001
1000
0010
1000
0001
0000
1000
0100
,  // measure 41
0020
0000
0000
0031
0100
0000
0010
0000
0100
0000
0001
1000
0010
0100
0001
0010
,  // measure 42
0100
0000
1000
0010
0000
0010
0100
0000
0001
0000
0000
0000
1001
0000
0000
0000
,  // measure 43
1100
1001
0011
0101
,  // measure 44
0011
1100
1001
0011
,  // measure 45
0101
0100
0110
0000
0101
0100
1100
0000
,  // measure 46
0101
0001
0011
0000
1010
0010
0011
0000
,  // measure 47
0101
0001
1100
1000
0110
0100
0011
0001
,  // measure 48
1001
0100
0110
0100
1001
0010
0110
0010
,  // measure 49
1000
0010
0100
0001
1000
0010
0100
0010
1000
0001
0010
0100
1000
0100
0010
0001
,  // measure 50
1000
0001
0010
0110
1000
0010
0001
0100
0010
0100
0100
0100
,  // measure 51
1001
0000
0110
0000
1001
0000
0110
0000
1001
1001
1001
0000
0220
0000
0000
0000
,  // measure 52
0330
0000
0000
0000
0001
0000
0001
0000
0001
0000
0100
0010
0100
0000
0001
0001
,  // measure 53
0000
0000
1000
0010
1000
0000
0000
1001
0000
0000
0120
0000
0000
0000
0130
0000
,  // measure 54
0001
0001
0001
0001
0001
0000
0010
0100
0000
0000
1000
0001
0100
0000
0010
0100
,  // measure 55
0001
0000
0010
0100
1000
0000
0010
1000
0000
0001
0010
0000
0001
0001
0001
0001
,  // measure 56
0001
0000
0100
0010
1000
0000
0100
0010
0010
0000
0100
0000
1000
0000
0001
0001
,  // measure 57
0100
0010
1000
0000
1100
0000
0000
1010
0000
0000
0022
0000
0033
0000
0100
0000
,  // measure 58
0010
0000
0010
0010
0010
0000
1000
0000
2200
0000
3300
0000
1000
0000
0010
0000
,  // measure 59
0022
0000
0033
0000
0110
0000
0000
1001
0000
0000
0220
0000
0000
0000
0330
0000
,  // measure 60
0110
0000
0000
0000
1010
0000
1010
0000
1010
0000
0100
0010
0110
0000
0101
0000
,  // measure 61
0011
0000
0010
0001
0011
0000
0110
0000
1100
0000
2002
0000
3003
0000
0110
0000
,  // measure 62
1001
1001
1001
1001
1001
0000
0100
0000
0110
0000
0100
0010
0100
0000
0001
0000
,  // measure 63
0011
0000
0010
0100
1000
0000
0010
1000
0000
0000
0010
0100
0101
0101
0101
0101
,  // measure 64
0101
0000
0010
0000
1010
0000
1000
0100
1000
0000
1010
0000
0110
0000
0001
0010
,  // measure 65
0001
0000
0011
0000
0110
0000
0000
1100
0000
0000
0220
0000
0330
0000
0110
0000
,  // measure 66
1010
1010
1010
1010
1010
0000
0100
0101
0000
0000
0100
0000
1010
0000
0001
0101
,  // measure 67
0000
0000
1100
0000
1010
0000
0000
0011
0000
0000
0010
0000
0001
1000
0010
0100
,  // measure 68
0020
0000
0130
0000
0110
0000
1000
0100
0010
0100
0010
0001
0100
0000
0110
0000
,  // measure 69
1000
0001
1000
0001
0100
0010
0110
0000
0010
0100
0001
0000
0001
0010
0100
1000
,  // measure 70
0010
0000
0000
0000
0100
0010
0100
0000
0010
0000
1000
0000
0001
0000
0010
0000
0000
0000
0010
0000
0001
0000
0000
0000
0101
0000
0000
0000
0001
0000
1000
0000
,  // measure 71
0001
0010
0100
1000
0001
0100
0010
0100
0001
0000
1000
0010
1000
0100
0010
0001
,  // measure 72
0200
0000
0310
0000
0100
0001
0010
0001
0100
0010
1000
0100
1000
0010
0100
0010
,  // measure 73
1000
0001
0020
0000
0031
0100
0010
1000
0100
1000
0010
0100
0001
0010
0001
0010
,  // measure 74
0100
0000
1000
0000
0001
0000
0000
0000
0100
0000
0010
0000
0100
0000
0001
0000
1000
0000
0100
0000
0010
0000
0001
0000
1000
0010
0100
0001
1000
0010
0100
0001
,  // measure 75
0010
0100
0010
0100
0001
1000
0001
1000
0100
0000
0000
0000
0010
0000
0100
0000
0000
0000
0100
0000
0010
0000
0001
0000
1000
0100
0010
0001
0010
0100
1000
0001
,  // measure 76
0100
1010
0000
0000
;
