#TITLE:群像夏;
#SUBTITLE:;
#ARTIST:パワプロサウンドチーム;
#TITLETRANSLIT:Gunzouka;
#SUBTITLETRANSLIT:;
#ARTISTTRANSLIT:PowerPro Sound Team;
#GENRE:;
#CREDIT:;
#BANNER:Gunzouka_banner.png;
#BACKGROUND:Gunzouka.png;
#LYRICSPATH:;
#CDTITLE:;
#MUSIC:Gunzouka.ogg;
#OFFSET:-0.780000;
#SAMPLESTART:60.299999;
#SAMPLELENGTH:12.000000;
#LASTBEATHINT:398.000000;
#SELECTABLE:YES;
#BPMS:0.000000=184.000000
,176.000000=160.000000
,179.500000=184.000000
,360.000000=182.000000
,362.000000=180.000000
,364.000000=178.000000
,366.000000=176.000000
,368.000000=173.000000
,370.000000=170.000000
,372.000000=167.000000
,374.000000=164.000000
,376.000000=161.000000
;
#STOPS:
;
#BGCHANGES:;
#KEYSOUNDS:;
#ATTACKS:;

//---------------dance-single - ----------------
#NOTES:
     dance-single:
     :
     Easy:
     6:
     0.242259,0.329451,0.097117,0.261469,0.000000,227.000000,214.000000,13.000000,35.000000,0.000000,0.000000,0.242259,0.329451,0.097117,0.261469,0.000000,227.000000,214.000000,13.000000,35.000000,0.000000,0.000000:
0000
0000
0000
0000
,
0000
0000
0000
0000
,
0000
0000
0000
0000
,
0000
0000
0000
0000
,
0001
0000
0000
1000
0000
0000
0001
0000
,
0000
0100
0010
0100
,
0001
0000
0000
0010
0000
0000
0100
0000
,
0000
1000
0000
0000
0010
0000
0100
0000
,
0010
0000
0000
1000
0000
0000
0002
0000
,
0000
0000
0000
0003
0000
0000
0000
0000
,
1000
0000
0100
1000
,
0100
0000
0010
0000
,
0002
0000
0003
0000
,
2000
0000
3010
0000
,
0100
0000
0001
1000
,
0010
0000
1000
0000
,
0200
0000
0300
0000
,
0010
0001
1000
0000
,
0020
0000
0130
0000
,
0010
1000
0001
0000
,
0010
0001
0100
0000
,
0110
0000
1000
0000
,
0100
1000
0001
0000
,
0100
0010
1000
0000
,
0001
0000
1000
0000
,
2002
0000
3003
0000
,
0020
0000
1030
0000
,
0002
0000
0003
0000
,
0200
0000
0310
0000
,
2000
0000
3000
0000
,
0001
0000
0010
0001
,
1000
0000
0001
0000
,
1000
0100
0010
0000
,
0001
0100
0010
0000
,
2000
0000
3100
0000
,
0020
0000
0030
0000
,
0002
0000
0103
0000
,
0020
0000
0030
0000
,
1000
0100
1000
0000
,
0001
0010
0001
0000
,
0100
0000
0000
0010
0000
0000
0100
0000
,
0001
0000
1000
0000
,
0001
0000
0010
0000
,
0100
0000
1000
0000
,
0001
0000
1000
0000
,
0020
0000
0030
0000
,
0100
0010
0100
0000
,
0001
1000
0001
0000
,
0100
0010
1000
0000
,
1001
0000
0010
0000
,
1000
0100
0010
0000
,
0100
0010
0001
0000
,
0100
0010
1000
0001
,
0020
0000
0030
0000
,
1100
0000
0001
0010
,
0100
0000
1010
0000
,
0100
0001
0010
0000
,
0101
0000
0010
0000
,
1000
0001
1000
0000
,
0010
0100
0010
0000
,
2000
0000
3010
0010
,
0200
0000
0301
0001
,
1000
0010
0100
0000
,
0001
0010
0100
0000
,
1000
0001
0010
0100
,
2000
0000
3010
0000
,
0100
0001
0100
0000
,
0010
1000
0010
0000
,
1000
0001
0010
0100
,
0010
0000
0001
0000
,
1000
0010
0100
0010
,
1000
0000
0110
0000
,
0001
0010
0100
0010
,
0001
0000
1001
0000
,
0100
0010
0010
0000
,
1000
0000
0001
0000
,
2002
0000
0000
0000
0000
3003
0000
0000
,
0010
0000
0010
0000
,
1000
0000
0010
0000
,
0220
0000
0330
0000
,
0001
0000
0010
0000
,
0220
0000
0330
0000
,
1000
0000
0010
0000
,
0100
0000
0000
0001
0000
0000
0100
0000
,
0001
0000
0010
0100
,
2000
0000
3100
0000
,
0001
0000
0100
0000
,
0220
0000
0330
0000
,
1000
0000
0100
0000
,
0220
0000
0330
0000
,
0001
0000
1000
0000
,
0010
0000
0100
0000
,
0001
0000
0010
0000
,
0100
0000
1000
0000
,
2000
0000
0000
3000
,
0002
0000
0000
0003
,
0200
0000
0000
0300
,
0020
0000
0000
0000
,
0030
0000
0000
0000
;

//---------------dance-single - ----------------
#NOTES:
     dance-single:
     :
     Medium:
     10:
     0.372460,0.475267,0.119529,0.388468,0.041088,349.000000,333.000000,16.000000,52.000000,0.000000,0.000000,0.372460,0.475267,0.119529,0.388468,0.041088,349.000000,333.000000,16.000000,52.000000,0.000000,0.000000:
0000
0000
0000
0000
,
0000
0000
0000
0000
,
0000
0000
0000
0000
,
0000
0000
0000
0000
,
1000
0010
1000
0010
0000
0000
0100
0001
,
0100
0001
0000
0000
0010
0000
0001
0000
,
1000
0000
0000
1010
0000
0000
0001
0000
,
0000
0101
0000
0000
0010
0000
0001
0000
,
1000
0000
0000
1001
0000
0000
0220
0000
,
0000
0330
0000
0000
,
0001
0000
0010
0001
0000
1000
0100
0000
,
1000
0010
1000
0000
,
0002
0000
0103
0010
,
0020
0000
1030
0000
,
0100
0000
1000
0001
0000
0000
1000
0000
,
0010
0100
0001
1000
,
0010
0000
1000
0100
0000
1000
0010
0000
,
0100
0001
0010
0100
,
2000
0000
0010
0000
3010
0000
0100
0010
,
0100
0000
0001
0000
1000
0100
0000
0100
,
0000
0000
0010
0000
0100
0000
1000
0001
,
0000
0100
0010
1000
,
0002
0100
0103
0010
,
1000
0000
0001
0100
0000
0010
1000
0000
,
0200
0000
1300
0001
,
0011
0000
0100
0001
,
2000
0000
3020
0000
,
0200
0000
0330
0000
,
0002
0000
0023
0000
,
0200
0000
0330
0000
,
1000
0100
0000
1000
0100
0000
0010
0000
,
0001
0000
0000
0010
0000
0000
0100
0000
1000
0000
0000
0000
0001
0000
0000
0000
,
0010
0000
0001
0100
0000
0100
0001
0000
,
1000
0010
0100
0001
,
0020
0000
0032
0000
,
0200
0000
0303
0000
,
0020
0000
2030
0000
,
0200
0000
3300
1000
,
0010
0000
0100
0010
0000
0100
0010
0100
,
0000
0001
1000
0100
,
0010
0000
0001
1000
0000
0001
1000
0000
,
0010
0000
0100
0010
0000
0100
0010
0000
,
1000
0000
0100
0000
0001
0000
0200
0000
0000
0300
0000
0000
,
1000
0000
0010
0000
0001
0000
0020
0000
0000
0030
0000
0000
,
0100
0000
0010
0000
0100
0000
0010
0000
0100
0000
0010
0000
,
2000
0000
3000
0000
,
0001
0000
0010
0001
0000
1000
0100
0000
,
1000
0000
0010
0100
0000
0001
0010
0000
,
0001
0000
1000
0001
0000
0000
0100
0000
,
0220
0330
1000
0010
,
0100
0000
0001
1000
0000
0010
0100
0000
,
1000
0000
0100
0010
0000
0100
0001
0000
,
0010
0000
0001
1000
0000
0100
1000
0000
,
2002
0000
3003
0000
0010
0000
0000
0100
,
0010
1000
0010
0100
,
0001
0000
0000
0000
0010
0000
0000
0000
0001
0000
0000
1000
0000
0000
0001
0000
,
0100
0010
1000
0100
,
2002
0000
0000
3003
0000
0000
0010
0000
,
0100
0010
1000
0101
,
0001
0000
0010
0100
0000
1000
0100
0000
,
1000
0010
0100
0000
0001
0010
0100
0000
,
1000
0001
1000
0001
0200
0000
0000
0000
,
0310
0000
1000
0001
0000
1000
0100
0000
,
0010
0000
0001
0010
0000
0100
1000
0000
,
0010
0000
0100
0010
0000
0100
0001
0000
,
2002
3003
0100
0100
,
0010
1000
0001
0010
0000
0001
1000
0000
,
0100
1000
0001
0100
0000
0010
0100
0000
,
0001
0000
0100
0010
0000
1000
0100
0000
,
2200
0000
3300
0000
1000
0000
0001
0010
,
0001
0000
1000
0100
1000
0000
0010
0000
,
0110
0000
0000
0000
0000
0000
0000
0000
1000
0000
0000
0001
0000
0000
1000
0000
,
0010
0000
0100
0010
0000
1000
0001
2000
,
0000
0000
3000
0001
,
0110
0000
1000
0000
,
0100
0000
0000
0010
0000
0000
0100
0000
,
2002
0000
0000
3003
,
0010
0000
0010
0000
,
1000
0100
0020
0000
0002
0030
0000
0000
,
0200
0000
0303
0000
,
0010
1000
0200
0000
0020
0300
0000
0000
,
0002
0000
0033
0000
,
0100
0001
0010
0000
0002
0000
0000
0000
,
1003
0000
0000
0100
0000
0000
1000
0000
,
0010
0100
0010
1000
,
0001
0010
0100
0000
0010
0100
1000
0000
,
0002
0000
2003
0000
,
0020
0000
3030
0000
,
0200
0000
0320
0000
,
2000
0000
3030
0000
,
0001
0000
1000
0000
,
0010
0000
0000
0100
0000
0000
0010
0000
,
1000
0000
0001
0000
,
2002
0000
0000
0000
0000
3003
0000
0000
,
0100
0000
0000
0010
0000
0000
0010
0000
,
1000
0000
0000
0100
0000
0000
0100
0000
,
0020
0000
0000
0030
,
0001
0000
0010
0000
0100
1000
0000
1001
;

//---------------dance-single - ----------------
#NOTES:
     dance-single:
     :
     Hard:
     12:
     0.567762,0.630234,0.179293,0.366057,0.085911,532.000000,508.000000,24.000000,49.000000,0.000000,0.000000,0.567762,0.630234,0.179293,0.366057,0.085911,532.000000,508.000000,24.000000,49.000000,0.000000,0.000000:
// measure 0
0000
0000
0000
0000
,  // measure 1
0000
0000
0000
0000
,  // measure 2
0000
0000
0000
0000
,  // measure 3
0000
0000
0000
0000
,  // measure 4
0010
0001
1000
0001
0010
0100
1000
0010
,  // measure 5
0001
1000
0100
0001
1000
0000
1001
0000
,  // measure 6
0100
0010
0100
0010
0000
1000
0001
0010
,  // measure 7
0100
0010
0000
0001
1000
0100
0002
0000
,  // measure 8
0103
1000
0010
1000
0100
0001
0020
0000
,  // measure 9
0000
0000
0000
0000
0000
0000
0000
0000
0130
0000
0000
0010
0000
0000
0100
0000
,  // measure 10
0001
0010
0100
1000
0000
1001
0000
0010
,  // measure 11
1000
0010
0100
0000
0001
0010
0100
0000
,  // measure 12
2000
0000
0010
0000
3001
0000
0100
0010
,  // measure 13
0100
0000
0001
1000
0010
0100
0010
1000
,  // measure 14
0100
1000
0001
1000
0000
0110
0000
0010
,  // measure 15
1000
0010
0100
0001
0010
0100
0010
0000
,  // measure 16
0001
0100
0010
0000
1000
0100
0010
0000
,  // measure 17
0100
1000
0100
0001
0100
1000
0010
0000
,  // measure 18
0100
0010
0100
0000
0001
1000
0001
0000
,  // measure 19
0010
0100
1000
0100
0010
0010
0000
0001
,  // measure 20
1000
0010
0100
0010
1000
0100
0001
0100
,  // measure 21
0000
0010
0001
0010
1000
0010
0100
0000
,  // measure 22
0001
0100
1000
0100
0001
0100
1000
0000
,  // measure 23
0010
1000
0010
0001
0010
1000
0010
0000
,  // measure 24
2010
0000
3001
0000
0100
0010
0100
0001
,  // measure 25
0010
0001
1000
0100
0001
0100
1000
0000
,  // measure 26
1002
0010
0023
1000
,  // measure 27
2030
0000
3010
0000
,  // measure 28
0002
0100
0203
1000
,  // measure 29
2300
0000
3100
0000
,  // measure 30
0010
0100
0010
1000
0001
0010
0100
1000
,  // measure 31
0100
0000
0000
1000
0000
0000
0001
0000
0010
0000
0000
0001
0000
0000
1000
0000
,  // measure 32
0010
0000
0100
0020
0000
0000
1030
0000
,  // measure 33
0001
0100
0010
1000
0100
0010
0001
0000
,  // measure 34
2000
0010
3020
0001
,  // measure 35
0032
0000
0013
0000
,  // measure 36
2000
0100
3200
0001
,  // measure 37
0302
0000
0000
0000
0103
0000
1000
0010
,  // measure 38
1000
0000
0001
0100
0010
0100
0001
1000
,  // measure 39
0000
0100
0010
0001
0010
0100
1000
0000
,  // measure 40
0010
0000
0100
0010
0000
1000
0001
1000
,  // measure 41
0020
0000
0130
0001
0200
0000
0310
1000
,  // measure 42
0001
0000
0000
0010
0000
0000
0100
0000
1000
0000
0000
0000
1001
0000
0000
0000
,  // measure 43
1000
0000
0000
0010
0000
0000
0100
0000
0001
0000
0000
0000
1001
0000
0000
0000
,  // measure 44
0100
0000
0010
0000
0100
0000
0001
0000
1000
0000
0100
0000
,  // measure 45
0220
0000
0000
0330
0001
0000
1000
0100
,  // measure 46
1000
0000
0010
0100
0000
0010
0100
0001
,  // measure 47
0010
0001
1000
0100
0000
1000
0100
0010
,  // measure 48
0100
1000
0001
0100
0010
0100
0010
0000
,  // measure 49
2002
0000
3003
0000
0010
0100
0000
0010
,  // measure 50
1000
0100
0001
0100
0000
0010
0100
0010
,  // measure 51
0001
0100
1000
0100
0000
0010
0100
0010
,  // measure 52
1000
0100
0010
0001
0100
0010
0001
0000
,  // measure 53
2002
0000
0000
0000
3003
0000
0000
0000
1000
0000
0000
1001
0000
0000
0001
0000
,  // measure 54
0100
0010
0100
0000
0001
1000
0001
0000
,  // measure 55
1010
0000
0000
0000
0100
0000
0000
0000
0001
0000
0000
0010
0000
0000
0001
0000
,  // measure 56
1000
0100
0010
0000
0100
0010
0001
0000
,  // measure 57
1001
0000
1001
0000
0110
0000
1000
0010
,  // measure 58
0100
0001
0010
0100
0010
0001
1000
0010
,  // measure 59
0100
0010
1000
0001
0010
0001
0100
0010
,  // measure 60
1000
0100
1000
0001
0010
0100
1000
0100
,  // measure 61
0010
0000
0001
0000
0010
0000
0100
0000
1000
0000
0100
0000
,  // measure 62
1000
0010
0100
0020
0000
0100
0130
0000
,  // measure 63
0001
0100
0010
0200
0000
0010
0310
0000
,  // measure 64
1000
0001
0010
0100
0000
0010
0001
1000
,  // measure 65
0100
1000
0010
0100
0001
0010
0001
0000
,  // measure 66
1000
0000
0010
0000
1000
0000
0020
0000
0000
0000
0100
0000
0000
0130
0000
0000
,  // measure 67
0001
0010
0001
0010
0000
0100
1000
0100
,  // measure 68
0010
0001
1000
0001
0000
0100
0010
1000
,  // measure 69
0010
0000
0000
0000
0110
0000
0000
0000
0001
0000
0000
1000
0000
0000
0100
0000
,  // measure 70
0010
0011
1000
1100
,  // measure 71
0001
0101
1000
1010
,  // measure 72
0100
0000
0010
0100
0010
0000
1000
0001
,  // measure 73
1000
0010
0100
0010
0100
0001
0010
0000
,  // measure 74
2100
0000
0001
0000
,  // measure 75
3020
0000
0000
1000
0000
0000
0130
0000
,  // measure 76
2002
0000
3003
0000
,  // measure 77
0100
0000
0010
0000
0100
0000
0001
0000
1000
0000
0001
0000
,  // measure 78
0010
0001
2000
0000
3020
0000
0100
0000
,  // measure 79
0200
0000
0330
0000
,  // measure 80
0001
1000
0200
0000
0010
0000
0320
0000
,  // measure 81
0002
0000
0033
0000
,  // measure 82
0100
0010
1000
0000
0001
0010
0100
0000
,  // measure 83
1000
0000
0100
0010
0000
0010
0100
0000
,  // measure 84
1000
0001
0010
0100
0010
0001
1000
0000
,  // measure 85
0010
0100
0001
0100
0010
1000
0100
0000
,  // measure 86
0020
0001
0032
1000
,  // measure 87
2003
0000
3010
0000
,  // measure 88
0200
0001
0302
0010
,  // measure 89
0023
0000
0130
0000
,  // measure 90
1000
0010
1010
0000
,  // measure 91
0001
0000
1000
0100
0000
0001
0100
0000
,  // measure 92
0010
0001
0010
0000
0100
1000
0100
0000
,  // measure 93
1000
0000
0000
0010
0000
0000
0100
0000
0001
0000
0000
0010
0000
0000
1000
0000
,  // measure 94
0020
0000
0001
0001
0000
0000
0001
0000
,  // measure 95
0032
0000
1000
1000
0000
0000
1003
0000
,  // measure 96
0220
0000
0000
0000
0330
0000
0001
1000
,  // measure 97
0100
0000
0010
0001
0000
0100
0010
2000
,  // measure 98
0000
0000
0000
0000
,  // measure 99
0000
3000
0000
0000
;
