#TITLE:Green Green Dance;
#SUBTITLE:;
#ARTIST:Mutsuhiko Izumi;
#TITLETRANSLIT:;
#SUBTITLETRANSLIT:;
#ARTISTTRANSLIT:;
#GENRE:;
#CREDIT:;
#BANNER:Green_Green_Dance_banner.png;
#BACKGROUND:Green_Green_Dance.png;
#LYRICSPATH:;
#CDTITLE:;
#MUSIC:Green Green Dance.ogg;
#OFFSET:0.105000;
#SAMPLESTART:12.980000;
#SAMPLELENGTH:11.630000;
#LASTBEATHINT:299.500000;
#SELECTABLE:YES;
#BPMS:0.000000=165.000000
;
#STOPS:
;
#BGCHANGES:;
#KEYSOUNDS:;
#ATTACKS:;

//---------------dance-single - ----------------
#NOTES:
     dance-single:
     :
     Easy:
     5:
     0.230499,0.332059,0.080229,0.142629,0.000000,181.000000,172.000000,9.000000,16.000000,0.000000,0.000000,0.230499,0.332059,0.080229,0.142629,0.000000,181.000000,172.000000,9.000000,16.000000,0.000000,0.000000:
0000
0000
0000
0000
,
0001
0000
0010
0000
,
0001
0000
0000
0000
,
1000
0000
0010
0000
,
1000
0000
0000
0000
,
0100
0000
1000
0000
,
0100
0000
0000
0000
,
0010
0000
0001
0000
,
1000
0001
1000
0000
,
0010
0000
0100
0000
,
0010
0000
1000
0000
,
0100
0000
0010
0000
,
0001
0000
1001
0000
,
0100
0000
0001
0000
,
0010
0000
0100
0000
,
1000
0000
0010
0000
,
1000
0001
1000
0000
,
0020
0000
0130
0001
,
0020
0000
0031
0000
,
0100
0000
0010
0000
,
1000
0000
0100
0000
,
2000
0000
3001
0010
,
0002
0000
0103
0000
,
0220
0000
0330
0000
,
0001
1000
0001
0000
,
1000
0000
0100
0000
,
1000
0000
0001
0000
,
0010
0000
0100
0000
,
1000
0000
1001
0000
,
0010
0000
0100
0000
,
0001
0000
0010
0000
,
0001
0000
0100
0000
,
0010
0100
0010
0000
,
2000
0000
3100
0000
,
2000
0000
3010
0000
,
0002
0000
0103
0000
,
0002
0000
0013
0000
,
0001
0000
0100
0000
,
0010
0000
1000
0000
,
0100
0000
0010
0000
,
0001
1000
0001
0000
,
0100
0000
0001
0000
,
0010
0000
0100
0000
,
1000
0000
0010
0000
,
1000
0000
0001
0000
,
0010
0000
0100
0000
,
1000
0000
0001
0000
,
0100
0000
0010
0000
,
0100
0010
0100
0000
,
0002
0000
0013
0100
,
2000
0000
3010
0100
,
0010
0000
1000
0000
,
0001
1000
0001
0000
,
0020
0000
0031
0100
,
0020
0000
1030
0000
,
0100
0000
1000
0000
,
0001
0000
1001
0000
,
0100
0000
0010
1000
,
0001
0000
0010
0000
,
0001
0000
1000
0010
,
0100
0000
0110
0000
,
0001
0010
0001
0000
,
1000
0100
1000
0000
,
0010
0000
0010
0100
,
0001
1000
1001
0000
,
0010
0000
1000
0100
,
0010
0000
0001
0100
,
0010
0000
0100
0000
,
0001
1000
0100
0010
,
0002
0000
1003
0010
,
0200
0000
0301
0010
,
0100
0000
1000
0001
,
0010
0100
0110
0000
,
1000
0100
1100
0000
,
0001
1000
1001
0000
;

//---------------dance-single - ----------------
#NOTES:
     dance-single:
     :
     Medium:
     10:
     0.434255,0.466442,0.169372,0.374402,0.000000,341.000000,322.000000,19.000000,42.000000,0.000000,0.000000,0.434255,0.466442,0.169372,0.374402,0.000000,341.000000,322.000000,19.000000,42.000000,0.000000,0.000000:
0000
0000
0000
0000
,
0010
1000
0100
0000
1000
0100
0010
0000
,
0001
0100
0010
0000
0100
0001
0010
0000
,
0001
1000
0100
0000
1000
0001
0100
0000
,
0010
0100
0001
1000
0001
0000
0011
0000
,
1000
0100
0010
0000
0100
1000
0001
0000
,
0100
0001
1000
0000
0001
0010
0100
0000
,
1000
0100
1000
0000
0001
0100
0001
0100
,
0010
0010
2002
3003
,
0100
0001
1000
0000
0100
0000
1000
0001
,
0000
0001
0100
0000
0010
0000
0100
0000
,
0001
1000
0100
0000
1000
0000
0001
0010
,
0000
0010
0100
0000
0220
0000
0330
0000
,
1000
0001
1000
0000
0010
0000
1000
0001
,
0000
0001
0010
0000
0001
0000
0100
0000
,
0001
1000
0100
0000
1000
0001
0100
0000
,
0010
0010
2002
3003
,
0200
0010
0000
0301
,
0010
0000
0001
1000
0000
0000
0001
0000
,
1000
0000
0010
1000
0000
0010
1000
0000
,
0001
0010
0100
1000
,
0002
0100
0000
1003
,
0010
0000
1000
0001
0000
1000
0001
0000
,
0220
0000
0000
0330
,
0001
1000
0001
0000
0200
0000
0300
0000
,
0001
0010
0001
0000
1000
0000
0001
0010
,
0000
0100
1000
0000
0010
0000
1000
0000
,
0010
0100
0010
0000
1000
0000
0100
1000
,
0000
0010
0100
0000
0202
0000
0303
0000
,
0010
1000
0010
0000
1000
0000
0100
0010
,
0000
0001
1000
0000
0001
0000
0100
0000
,
0001
0010
0001
0000
1000
0000
0010
0000
,
0100
0001
2002
3003
,
0100
0001
0100
0001
,
1000
0010
1000
0010
,
1000
0100
1000
0100
,
0010
0001
2002
3003
,
0010
0000
1000
0000
0001
0100
0001
0000
,
0010
0000
0100
0000
1000
0001
1000
0000
,
0010
0100
0001
1000
,
0100
0010
2002
3003
,
0100
0000
0001
0000
1000
0100
1000
0000
,
0010
0000
0100
0000
0001
0000
0010
0001
,
0000
1000
0010
0100
,
0001
0010
0001
0000
2000
0000
3000
0000
,
0100
0000
1000
0000
0010
1000
0010
0000
,
1000
0000
0100
0000
0010
0001
0010
0000
,
0001
1000
0010
0100
,
0010
0100
2002
3003
,
0100
0000
0001
0000
0010
0001
1000
0000
,
0010
0000
1000
0000
0001
1000
0100
0000
,
2020
0030
0002
3000
,
0020
0003
0200
0330
,
1000
0000
0100
0000
1000
0001
0100
0000
,
0001
0000
0010
0000
0001
1000
0010
0000
,
0202
0003
0020
0300
,
2000
0030
0200
3300
,
1000
0000
0010
0000
1000
0000
0001
0010
,
0000
0001
0010
0000
0001
0000
1000
0000
,
0001
0000
0100
0000
0001
0000
0010
0100
,
0000
0010
0100
0000
2200
0000
3300
0000
,
0010
0000
1000
0000
0001
0000
0100
0010
,
0000
0100
0010
0000
1000
0000
0001
0000
,
0010
0001
0010
0000
0001
1000
0001
0000
,
1000
0010
0220
0330
,
1000
0000
0100
0000
1000
0001
0000
0100
,
0010
0000
0100
0000
0001
0010
0001
0000
,
1000
0000
0001
0000
0010
0100
0000
1000
,
0010
1000
2002
3003
,
0010
0000
0001
0000
1000
0001
0100
0000
,
0010
0000
1000
0000
0001
1000
0100
0000
,
1000
0010
1000
0000
0001
0010
0001
0000
,
0100
0010
0220
0330
,
0001
1000
0001
0000
,
1001
0110
2002
3003
;

//---------------dance-single - ----------------
#NOTES:
     dance-single:
     :
     Hard:
     14:
     0.710599,0.699663,0.365487,0.329830,0.231772,558.000000,517.000000,41.000000,37.000000,0.000000,0.000000,0.710599,0.699663,0.365487,0.329830,0.231772,558.000000,517.000000,41.000000,37.000000,0.000000,0.000000:
// measure 0
0000
0000
0000
0000
,  // measure 1
1000
0100
0001
1000
0010
0001
1000
0001
,  // measure 2
1000
0010
0001
1000
0100
0001
0010
0100
,  // measure 3
1000
0001
0010
0001
0100
1000
0001
0010
,  // measure 4
1000
0000
0001
0000
0100
0000
0001
0000
0010
0100
1000
0000
0010
0100
0001
0000
,  // measure 5
0100
0010
1000
0001
0010
1000
0001
0100
,  // measure 6
1000
0100
0001
1000
0010
0001
0100
0000
,  // measure 7
0001
0000
0010
0000
0011
0000
0000
0000
1000
0000
0010
0000
0010
0000
0100
0010
,  // measure 8
1000
1010
0022
0033
,  // measure 9
0100
0010
0010
1000
0100
0010
0100
1000
,  // measure 10
0000
1000
0001
0010
0001
0100
0200
0000
,  // measure 11
0301
0010
0010
0100
0010
0001
0010
0100
,  // measure 12
0000
0100
1000
0001
0100
0010
0110
0000
,  // measure 13
1000
0100
0100
0010
0100
1000
0100
0010
,  // measure 14
0000
0010
0100
1000
0010
1000
0001
0000
,  // measure 15
0100
0000
0001
0000
0101
0000
0000
0000
0010
0000
0010
0000
1000
0000
0100
0010
,  // measure 16
0001
1100
0202
0303
,  // measure 17
0010
0100
0010
1000
0010
0100
0001
0100
,  // measure 18
0001
0010
0001
1000
0010
0100
0001
0000
,  // measure 19
0010
0000
0001
1000
0001
0000
0100
0000
0000
0000
0100
0000
0010
0000
1000
0000
,  // measure 20
0001
0000
1000
0100
0020
0000
0000
0000
0031
0000
1000
0010
0200
0000
0000
0000
,  // measure 21
0301
0010
0100
0010
0001
1000
0100
0001
,  // measure 22
0100
1000
0010
0100
0010
0001
0010
0000
,  // measure 23
2020
0000
0000
0000
0000
3030
0000
0000
,  // measure 24
0001
1000
0100
0000
1000
0001
0010
0000
0022
0000
0000
0000
0033
0000
0000
0000
,  // measure 25
0100
0010
0010
1000
0100
0001
0100
1000
,  // measure 26
0000
0000
0010
0000
0100
0000
0001
0000
1000
0000
0001
0010
0100
0000
1000
0000
,  // measure 27
0001
0100
0100
0010
0100
0001
0100
0010
,  // measure 28
0000
0000
1000
0000
0100
0000
0010
0000
0001
0000
1000
0001
0020
0000
0000
0000
,  // measure 29
0031
1000
1000
0001
0100
0010
0100
0001
,  // measure 30
0000
0000
0010
0000
0001
0000
1000
0000
0010
0000
0100
0010
1000
0000
0000
0000
,  // measure 31
0001
0000
0010
0000
0011
0000
0000
0000
1000
0000
0100
0000
1000
0000
0010
0100
,  // measure 32
0001
1100
0022
0033
,  // measure 33
0100
0101
0010
1010
,  // measure 34
1000
1100
0001
0101
,  // measure 35
0010
0110
1000
1100
,  // measure 36
0001
0011
2002
3003
,  // measure 37
0100
0001
0010
0001
1000
0010
0001
0010
,  // measure 38
1000
0001
0100
0010
1000
0100
0001
0100
,  // measure 39
1000
0000
0001
0000
0010
0000
0100
0000
1000
0000
0010
0100
0001
0000
1000
0000
,  // measure 40
0100
1010
0022
0033
,  // measure 41
0100
0001
1000
0010
1000
0100
0010
0001
,  // measure 42
0100
0000
0010
0000
0010
0000
0100
0000
0001
0000
0010
0100
1000
0000
0010
0000
,  // measure 43
0000
0010
1000
0001
0100
0010
1000
0100
,  // measure 44
0010
0100
1000
0001
2002
0000
3003
0000
,  // measure 45
0010
0000
1000
0001
0100
0000
0010
0000
0100
0000
0001
0000
0010
0000
0100
0000
,  // measure 46
1000
0000
0001
1000
0100
0000
0010
0000
0001
0000
0100
0000
0010
0000
1000
0000
,  // measure 47
0100
0000
1000
0000
1010
0000
0000
0000
0001
0000
0010
0000
0010
0000
0001
0100
,  // measure 48
0010
1001
0220
0330
,  // measure 49
1000
0000
0001
0010
0000
0100
0010
0000
0001
0000
0010
0100
0000
1000
0100
0000
,  // measure 50
1000
0000
0010
0100
0000
0010
1000
0000
0001
0000
0010
0100
0000
0010
0001
0000
,  // measure 51
0200
0000
0000
0000
0310
0000
1000
0100
0020
0000
0000
0000
0031
0000
0000
0000
,  // measure 52
0002
0000
0000
0000
1003
0000
0010
1000
0200
0000
0000
0000
0310
0000
0000
0000
,  // measure 53
0100
0000
1000
0010
0000
0100
0010
0000
1000
0000
0001
0010
0000
0001
1000
0000
,  // measure 54
0001
0000
0100
0010
0000
0100
0001
0000
0010
0000
0100
1000
0000
0100
0010
0000
,  // measure 55
0001
0000
0000
0000
1001
0000
0000
0000
0100
0000
0010
0000
1000
0000
0001
0010
,  // measure 56
0100
0000
1000
0000
0001
0000
0100
0010
1000
0000
0001
0000
1001
0000
0000
0000
,  // measure 57
0100
0000
0010
0000
0010
0000
1000
0000
0001
0000
0010
0100
1000
0000
0001
0000
,  // measure 58
0000
0000
1000
0000
0001
0000
1000
0000
0100
0000
0010
0001
1000
0000
0001
0000
,  // measure 59
0010
0000
0100
0000
0100
0000
0010
0000
0100
0000
1000
0001
0100
0000
0010
0000
,  // measure 60
0000
0000
0010
0000
1000
0000
0001
0000
0100
0010
0100
0010
0200
0000
0000
0000
,  // measure 61
0301
0010
0100
1000
0100
0100
0010
0100
,  // measure 62
1000
0000
0001
0000
0001
0000
1000
0000
0010
0000
0100
0010
1000
0000
0000
0000
,  // measure 63
0001
0000
1000
0000
1100
0000
0000
0000
1000
0000
0001
0000
0001
0000
0100
0010
,  // measure 64
1000
0011
2200
3300
,  // measure 65
0010
0000
1000
0000
0100
0000
1000
0000
0001
0000
0010
0001
0000
0000
0010
0000
,  // measure 66
0000
0000
0001
1000
0001
0000
1000
0000
0100
0000
0001
0000
0100
0000
1000
0000
,  // measure 67
0010
1000
0001
0100
0001
0100
1000
0001
,  // measure 68
0010
1000
0100
0001
2002
0000
3003
0000
,  // measure 69
0010
0000
0000
0010
1000
0000
0100
0000
0010
0001
1000
0000
0010
0000
0100
0000
,  // measure 70
0001
0000
0000
0001
1000
0000
0010
0000
1000
0100
0010
0000
0001
0000
0100
0000
,  // measure 71
0010
0000
1000
0000
1100
0000
0000
0000
0010
0000
0001
0000
0001
0000
1000
0001
,  // measure 72
0100
1100
0202
0303
,  // measure 73
1010
1100
2002
3003
,  // measure 74
0011
0110
2200
3300
;
