#TITLE:Gott;
#SUBTITLE:;
#ARTIST:Hommarju;
#TITLETRANSLIT:;
#SUBTITLETRANSLIT:;
#ARTISTTRANSLIT:;
#GENRE:;
#CREDIT:;
#BANNER:Gott_banner.png;
#BACKGROUND:Gott.png;
#LYRICSPATH:;
#CDTITLE:;
#MUSIC:Gott.ogg;
#OFFSET:-0.290000;
#SAMPLESTART:91.360001;
#SAMPLELENGTH:15.000000;
#LASTBEATHINT:359.000000;
#SELECTABLE:YES;
#BPMS:0.000000=195.000000
,72.000000=97.500000
,76.000000=195.000000
,204.000000=97.500000
,212.000000=195.000000
,276.000000=97.500000
,280.000000=195.000000
,352.000000=97.500000
;
#STOPS:
;
#BGCHANGES:;
#KEYSOUNDS:;
#ATTACKS:;

//---------------dance-single - ----------------
#NOTES:
     dance-single:
     :
     Easy:
     8:
     0.343522,0.516120,0.201086,0.167572,0.000000,287.000000,263.000000,24.000000,20.000000,0.000000,0.000000,0.343522,0.516120,0.201086,0.167572,0.000000,287.000000,263.000000,24.000000,20.000000,0.000000,0.000000:
0000
0000
0000
0000
,
0000
0000
0000
0000
,
0000
0000
0000
0000
,
0000
0000
0000
0000
,
0000
0000
0000
0000
,
0000
0000
0000
0000
,
0001
0100
0010
0000
,
1000
0100
0010
0000
,
0001
0010
0100
1000
,
0010
0100
2002
3003
,
0010
0100
0001
0100
,
0010
0100
0001
0000
,
1000
0100
0010
0100
,
1000
0010
0100
0000
,
0001
0100
0010
0100
,
0001
0010
0100
0000
,
1000
0010
0100
0001
,
0010
0100
2002
3003
,
0110
0000
0000
0000
,
0001
0100
0010
0100
,
0001
0100
0010
0000
,
1000
0010
0100
0010
,
1000
0100
0010
0000
,
0001
0100
0010
1000
,
0001
0010
0100
0000
,
1000
0010
0100
0001
,
1000
0100
0220
0330
,
0001
1000
0010
2000
,
3100
1000
0020
0000
,
0130
0001
1000
0200
,
1300
0010
2000
0000
,
3001
0100
0010
0100
,
0001
0010
0100
0000
,
1000
0010
0100
0001
,
0022
0000
0033
0000
,
1000
0100
1000
0010
,
1000
0001
0010
0000
,
0001
0100
0001
0010
,
0001
1000
0010
0000
,
0100
0010
0100
0001
,
1000
0100
0010
0000
,
0001
0010
0100
1000
,
0001
0100
0220
0330
,
0010
1000
0100
1000
,
0010
1000
0100
0000
,
0010
0001
0100
0001
,
0010
0001
0100
0000
,
0001
0010
0100
1000
,
0100
0010
0001
0000
,
1000
0010
0100
0001
,
0010
0100
1000
0001
,
2002
0000
0000
3003
,
0000
0000
0000
0000
,
0010
0000
0100
0000
,
0010
0000
1000
0000
,
0001
0000
0010
0000
,
0001
0000
1000
0000
,
0100
0000
1000
0000
,
0010
0000
0100
0000
,
0001
0000
0010
0000
,
0100
0000
1000
0000
,
1001
0000
0010
0100
,
1001
0000
0010
0001
,
1001
0000
0100
0010
,
1001
0000
0010
0100
,
0001
0010
0100
1000
,
0010
1000
0100
0000
,
1000
0010
0100
0001
,
0010
1000
0010
0001
,
2002
0000
0000
0000
0000
3003
0000
0000
,
0010
0100
0010
1000
,
0100
1000
0001
0000
,
0010
0001
0010
0100
,
1000
0010
0100
0000
,
0010
1000
0100
1000
,
0001
0100
0001
0000
,
0010
0001
0100
0010
,
1000
0001
0220
0330
,
0010
1000
0100
1000
,
0010
0100
0001
0010
,
0001
1000
0010
0100
,
0001
0010
0100
1001
,
0010
0110
0001
0011
,
1000
1100
0001
0101
,
0110
0000
1001
0000
,
1000
0100
0010
0001
,
1001
0000
0000
0010
0000
0000
0110
0000
,
0000
1000
0000
0000
1100
0000
0001
0000
,
0101
0000
0000
0000
;

//---------------dance-single - ----------------
#NOTES:
     dance-single:
     :
     Medium:
     13:
     0.642757,0.674894,0.201086,0.192707,0.004189,537.000000,513.000000,24.000000,23.000000,0.000000,0.000000,0.642757,0.674894,0.201086,0.192707,0.004189,537.000000,513.000000,24.000000,23.000000,0.000000,0.000000:
0000
0000
0000
0000
,
0000
0000
0000
0000
,
0110
0000
0001
0000
0010
0000
0001
1000
,
0000
1000
0010
0000
0100
0000
0001
0000
,
1000
0000
0100
0000
1000
0000
0010
0100
,
0000
0100
0001
0000
2002
0000
3003
0000
,
0010
0000
0001
0000
1000
0000
0100
0010
,
0000
0010
0100
0000
1000
0000
0010
0000
,
0100
0000
0001
0000
0100
0000
0010
1000
,
0000
1000
0001
0000
0100
0001
1000
0100
,
1000
0000
0010
0000
1000
0100
0010
0001
,
0000
0001
0100
0000
0010
0000
0110
0000
,
0001
0000
0010
0000
0001
0100
0010
1000
,
0000
1000
0001
0000
0100
0001
0010
0100
,
1000
0010
1000
0010
0100
0001
0100
0000
,
0001
0010
0001
0010
0100
1000
0100
0000
,
1000
0010
0100
0001
0010
0100
1000
0000
,
0001
0100
0010
1000
0001
0010
1000
0010
,
0002
0000
0003
0000
,
0100
0010
0100
0010
1000
0100
0010
0000
,
0001
0100
0001
0100
0010
0100
0001
0000
,
0010
0100
1000
0100
1000
0010
0100
0000
,
0001
0100
0010
0100
0001
0010
0001
0000
,
1000
0010
0100
0001
0010
0000
1001
0000
,
0010
0100
0001
1000
0010
0000
0110
0000
,
1000
0001
0010
0100
1000
0000
1001
0000
,
0010
0100
0010
1000
0001
0001
0000
0001
,
0010
0001
0100
0010
1000
0100
0020
0000
,
0031
0100
0010
1000
0100
2000
3020
2030
,
3001
0100
0010
0100
0001
0000
0201
0000
,
0310
1000
0100
1000
0001
0020
0230
0000
,
1300
0010
0100
0010
1000
0100
1000
0000
,
0001
0100
0010
0100
0001
0010
0000
0010
,
0001
1100
0001
0110
,
1000
0001
0010
0100
1000
0001
1001
0000
,
0020
0000
0130
0001
0100
0010
0100
0010
,
0000
0010
1000
0100
0010
0000
0011
0000
,
2000
0000
3010
0100
0010
1000
0100
0010
,
0000
0010
0100
1000
0001
0100
0001
0000
,
0011
0000
1000
0100
0010
0100
1000
0001
,
0000
0001
0100
0010
0100
0000
1010
0000
,
0200
0000
0301
0010
0001
0100
0010
1000
,
0000
1000
0100
1000
0010
0010
0000
0010
,
0200
0010
0001
0010
,
0320
1000
0100
1000
,
2030
0100
0001
0100
,
3002
0010
1000
0013
,
0001
0100
0010
1000
0001
0010
0100
1000
,
0000
1000
0010
0100
0010
1000
0001
0000
,
0010
0100
1000
0010
0100
0001
0010
0100
,
1000
0010
0100
0001
1000
0100
0010
0001
,
0200
0000
0000
0000
,
0300
0000
0000
0000
,
0110
0000
0001
0000
0010
0100
1000
0000
,
0010
0000
1000
0000
0010
0100
0001
0000
,
0010
0000
0001
0000
1000
0001
0010
0000
,
0100
0000
1000
0000
0100
1000
0010
0100
,
0001
0000
1000
0000
0100
1000
0010
0000
,
0100
0000
0001
0000
0010
0001
0100
0000
,
0010
0000
1000
0000
0010
0100
0001
0000
,
0010
0001
0100
0010
1000
0000
1001
0000
,
0010
0000
1000
0100
1000
0100
0010
0010
,
0000
0001
0100
0001
0100
0000
0010
0010
,
0000
1000
0010
1000
0010
0000
0100
0100
,
0000
0001
0010
0001
1000
0000
1100
0000
,
0010
0100
0001
0000
0010
0100
1000
0000
,
0001
0100
1000
0000
1000
0100
0001
0000
,
1000
0010
0100
0001
0010
0100
1000
0000
,
0010
1000
0001
0010
0100
1000
1001
0000
,
0220
0000
0000
0000
0000
0330
0000
0000
,
0001
0100
0010
0100
0001
0010
0100
1000
,
0000
1000
0010
0100
0001
1000
0010
0100
,
0000
0100
0010
1000
0001
0010
0100
1000
,
0000
0010
1000
0100
0010
0001
0200
0000
,
0301
0010
0001
0100
0010
1000
0100
0010
,
0000
0001
1000
0010
0100
0001
0010
0100
,
0000
1000
0010
0100
0010
1000
0100
0010
,
0000
0001
0100
0010
0100
0100
0000
0100
,
0010
1000
0100
0010
0001
0100
0010
1000
,
0000
0010
1000
0100
1000
0001
0010
0001
,
0000
0001
0100
0010
1000
0001
0010
0100
,
1000
0000
1000
0001
0000
0001
0010
0100
,
1000
0100
1000
0010
0100
0001
0010
0001
,
0100
0010
0100
0010
1000
0001
0010
0100
,
1000
0010
0100
0001
0010
0001
0100
0010
,
1000
0000
0001
0000
0010
0000
0100
0000
1000
0000
0010
0100
0010
0000
1000
0000
,
0001
0000
1000
1100
0000
0001
0011
0000
,
1000
1001
0000
0010
0110
0000
1001
0000
,
0220
0000
0000
0000
,
0000
0000
0330
0000
;

//---------------dance-single - ----------------
#NOTES:
     dance-single:
     :
     Hard:
     17:
     0.949173,1.237306,0.368657,0.175950,0.640961,793.000000,749.000000,44.000000,21.000000,0.000000,0.000000,0.949173,1.237306,0.368657,0.175950,0.640961,793.000000,749.000000,44.000000,21.000000,0.000000,0.000000:
// measure 0
0000
0000
0000
0000
,  // measure 1
0000
0000
0000
0000
,  // measure 2
1001
0000
0010
1000
0100
0001
0100
1000
,  // measure 3
0000
1000
0001
0100
1000
0001
0010
1000
,  // measure 4
0002
0000
0103
1000
0100
0001
0010
1000
,  // measure 5
0000
1000
0010
0001
1000
0100
0010
0001
,  // measure 6
0100
0000
0110
0010
1000
0100
0001
0100
,  // measure 7
0000
0100
1000
0001
0010
1000
0001
0100
,  // measure 8
2000
0000
3001
0010
0001
0010
1000
0010
,  // measure 9
0000
0010
0001
0100
0010
0001
0100
1000
,  // measure 10
1001
0000
0010
0010
0100
1000
0100
0010
,  // measure 11
0000
0000
0010
0000
0100
0000
0001
0000
0010
0100
1000
0000
0001
0000
0000
0000
,  // measure 12
1001
0000
0100
0100
0010
1000
0100
0010
,  // measure 13
0000
0000
0010
0000
0001
0000
0100
0000
0001
1000
0100
0000
0010
0000
0001
0000
,  // measure 14
0100
0000
0010
0000
0100
0001
0010
0000
0001
0000
1000
0000
0100
1000
0010
0000
,  // measure 15
0100
0000
0010
0000
1000
0100
0010
0000
0001
0000
0100
0000
0001
0010
0100
0000
,  // measure 16
1000
0010
0100
0010
1000
0010
0100
0010
1000
0001
0010
0001
1000
0001
0010
0001
,  // measure 17
1000
0000
0100
0000
0010
0100
0010
0100
0010
0000
0001
0100
0010
1000
0001
0010
,  // measure 18
0200
0000
0000
0000
0000
0000
0000
0000
0000
0000
0000
0300
0000
0000
0000
0000
,  // measure 19
0010
0000
0001
0000
1000
0000
0010
0000
0100
0000
0001
0000
1000
0000
0010
0100
,  // measure 20
0001
0000
0010
0000
0100
0000
1000
0010
0100
0000
0001
0000
0010
0000
0001
0000
,  // measure 21
1000
0000
0010
0000
1000
0000
0100
1000
0001
0000
0100
0000
0010
0000
0100
0001
,  // measure 22
0010
0000
0001
0000
1000
0010
0100
0001
0010
0000
0100
0000
0110
0000
0000
0000
,  // measure 23
0001
0000
0100
0000
0010
0100
0010
0000
1000
0000
0100
0000
0010
0100
0010
0000
,  // measure 24
0001
0000
1000
0000
0100
1000
0100
0000
1000
0000
0001
0000
0010
0001
0010
0000
,  // measure 25
0001
0000
0100
0000
0010
0100
0010
1000
0010
0000
0100
0000
0001
0010
0001
0100
,  // measure 26
0001
0000
0010
0000
0001
0010
0100
1000
0010
0000
0110
0000
0000
0000
1001
0000
,  // measure 27
1000
0000
0010
0000
0100
0000
0010
1000
0100
0000
1000
0001
0020
0000
0000
0000
,  // measure 28
0031
0000
0100
0000
0001
0000
0010
0100
1000
0000
0002
0000
0203
0000
2300
0000
,  // measure 29
3100
0000
0010
0000
1000
0000
0100
0010
0001
0000
0100
0010
2000
0000
3001
0000
,  // measure 30
1000
0000
0010
0000
0100
0000
0010
1000
0100
0000
0020
0000
0032
0000
2003
0000
,  // measure 31
3010
0000
0100
0000
0010
1000
0100
0000
1000
0000
0011
0000
0000
0000
0011
0000
,  // measure 32
0100
0000
0010
0000
0100
0010
1000
0010
0100
0000
0110
0000
0000
0000
1001
0000
,  // measure 33
0001
0000
0010
0000
0001
1000
0100
0000
1000
0000
1001
0000
0000
0000
0110
0000
,  // measure 34
0010
0000
1000
0000
0001
0010
0100
1000
0010
0000
0100
0010
1000
0000
0001
0100
,  // measure 35
0020
0000
0000
0000
0130
0000
0100
0000
0010
0000
1000
0100
0010
0000
0100
0000
,  // measure 36
0000
0000
0100
0000
1000
0000
0010
0100
0001
0000
0010
0000
0011
0000
0000
0000
,  // measure 37
0002
0000
0000
0000
1003
0000
1000
0000
0010
0000
0100
0001
0010
0000
0001
0000
,  // measure 38
0000
0000
0001
0000
1000
0010
0100
0001
0010
0000
0100
0000
1000
0000
0100
0000
,  // measure 39
0020
0000
0000
0000
0031
0000
0001
0000
0100
0000
0010
1000
0100
0000
0010
0000
,  // measure 40
0000
0000
0010
0000
0100
1000
0010
0100
0001
0000
0010
0000
1000
0000
0010
0000
,  // measure 41
0002
0000
0000
0000
0103
0000
0100
0000
0010
0000
1000
0001
0100
0000
0010
0000
,  // measure 42
1000
0000
0100
0000
1000
0001
0010
0100
1000
0000
1100
0000
0000
0000
0101
0000
,  // measure 43
0020
0000
0130
0100
0001
1000
0010
0100
,  // measure 44
0000
0000
0100
0000
0010
0000
1000
0100
0010
0000
0001
0000
1001
0000
0000
0000
,  // measure 45
0120
0000
0000
0000
1030
0000
1000
0000
0001
0000
0010
0001
1000
0000
0010
0000
,  // measure 46
0000
0000
0010
0000
0100
0000
0001
0010
0100
0000
1000
0000
0010
0000
0100
0000
,  // measure 47
0001
0010
0001
0010
0100
1000
0100
1000
,  // measure 48
0010
1000
0010
1000
0001
0100
0001
0100
,  // measure 49
0001
0010
0001
0010
0100
1000
0100
1000
0010
1000
0010
1000
0001
0100
0001
0100
,  // measure 50
0001
0010
0100
1000
0001
0010
0100
1000
0010
0100
0001
1000
0010
0100
0001
0010
,  // measure 51
0200
0000
0000
0000
,  // measure 52
0000
0000
0000
0000
0000
0000
0000
0000
0000
0000
0000
0300
0000
0000
0000
0000
,  // measure 53
1000
0000
0000
0000
0010
0000
1000
0100
0010
0000
0001
0000
0100
0000
0000
0000
,  // measure 54
0001
0000
0000
0000
0010
0000
0001
0010
0100
0000
1000
0000
0010
0000
0000
0000
,  // measure 55
0100
0000
0000
0000
0010
0000
1000
0100
0010
0000
0001
0000
0100
0000
0000
0000
,  // measure 56
0001
0010
1000
0010
0001
1000
0001
0000
,  // measure 57
0110
0000
0000
0000
1000
0000
0100
0010
0001
0000
0100
0000
0010
0000
0000
0000
,  // measure 58
1001
0000
0000
0000
0010
0000
0100
0010
1000
0000
0001
0000
0010
0000
0000
0000
,  // measure 59
0101
0000
0000
0000
0010
0000
1000
0001
0100
0000
0010
0000
0100
0000
0000
0000
,  // measure 60
1010
0000
0000
0000
0100
0000
0001
0010
0100
0000
1000
0000
0010
0000
0000
0000
,  // measure 61
0110
0000
0000
0000
0001
0000
0010
0100
1000
0000
0010
0000
0110
0000
0110
0000
,  // measure 62
0000
0000
1000
0100
0010
0000
0001
0100
0010
0000
1000
0000
1001
0000
1001
0000
,  // measure 63
0000
0000
0010
0100
0001
0000
0010
0100
1000
0000
0001
0000
0011
0000
0011
0000
,  // measure 64
0000
0000
1000
0100
1000
0000
0100
1000
0100
0000
0010
0000
0001
0000
0000
0000
,  // measure 65
1001
0000
0000
0000
0010
0100
0010
0100
0010
0000
1000
0000
0100
0000
1100
0000
,  // measure 66
0000
0000
0010
0100
0010
0000
1000
0100
1000
0000
0001
0010
0001
0000
0101
0000
,  // measure 67
0000
0000
0010
0100
0001
0000
0010
0100
1000
0000
0010
1000
0001
0000
0010
0000
,  // measure 68
0000
0000
0010
0001
0100
0000
0010
1000
0100
0000
1000
0010
0100
0010
1000
0001
,  // measure 69
0020
0000
0000
0000
0000
0000
0000
0000
0000
0000
0000
0030
0000
0000
0000
0000
,  // measure 70
0001
0000
0100
0000
0010
0100
0001
0000
0010
0100
1000
0000
0010
0000
0100
0000
,  // measure 71
0001
0000
1000
0000
0100
1000
0010
0000
0100
0001
0010
0000
0001
0000
1000
0000
,  // measure 72
0010
0000
0100
0000
0010
1000
0100
0000
0010
0001
0100
0000
0010
0000
1000
0000
,  // measure 73
0001
0000
0100
0000
0010
0100
0001
0100
0010
0000
1000
0100
0010
0000
0001
0000
,  // measure 74
1000
0000
0100
0000
1000
0010
0100
0000
0010
1000
0100
0000
1000
0000
0001
0000
,  // measure 75
0010
0000
0001
0000
0010
0001
0100
0000
0010
0100
0001
0000
0010
0000
0100
0000
,  // measure 76
1000
0000
0010
0000
1000
0100
0010
0000
0001
0100
0010
0000
1000
0000
0001
0000
,  // measure 77
0010
0001
1001
0000
1010
0101
0000
0011
,  // measure 78
1000
0000
0010
0000
1000
0100
0010
0100
1000
0010
0100
0010
1000
0000
0001
0000
,  // measure 79
0000
0000
0010
0001
0100
0001
0010
0100
0010
0001
0100
0010
0100
0000
0001
0000
,  // measure 80
0000
0000
0010
0100
1000
0100
0010
0001
1000
0001
0010
0001
0100
0000
0010
0000
,  // measure 81
1010
0000
0011
1001
0000
1100
0001
1100
,  // measure 82
1000
0000
0010
0000
0100
0010
0100
0010
0100
0000
0001
0010
0100
0000
1000
0000
,  // measure 83
0010
0000
1000
0001
1000
0000
0001
1000
0010
0000
0100
0001
1000
0000
0010
0000
,  // measure 84
0100
0000
0001
0010
0100
0000
0010
0100
1000
0000
0010
0100
0010
0000
1000
0000
,  // measure 85
0001
0010
0100
0000
1100
0000
1000
0010
0100
0000
0101
0000
0010
0100
0001
0010
,  // measure 86
0001
0000
0010
1000
0010
0000
0001
0000
1000
0010
1000
0000
0001
0000
0010
0100
,  // measure 87
1000
0000
0010
0000
0100
0001
0010
0000
0100
0000
1000
0010
0001
0000
0000
0000
,  // measure 88
2002
0000
0000
0000
,  // measure 89
0000
0000
3003
0000
;
