#TITLE:ごりらがいるんだ;
#SUBTITLE:;
#ARTIST:ピノキオP;
#TITLETRANSLIT:Gorilla ga irunda;
#SUBTITLETRANSLIT:;
#ARTISTTRANSLIT:PinocchioP;
#GENRE:;
#CREDIT:;
#BANNER:Gorilla_ga_irunda_banner.png;
#BACKGROUND:Gorilla_ga_irunda.png;
#LYRICSPATH:;
#CDTITLE:;
#MUSIC:Gorilla ga irunda.ogg;
#OFFSET:-0.520000;
#SAMPLESTART:42.520000;
#SAMPLELENGTH:12.000000;
#LASTBEATHINT:288.500000;
#SELECTABLE:YES;
#BPMS:0.000000=160.000000
;
#STOPS:
;
#BGCHANGES:;
#KEYSOUNDS:;
#ATTACKS:;

//---------------dance-single - ----------------
#NOTES:
     dance-single:
     :
     Easy:
     6:
     0.249328,0.314873,0.143942,0.305876,0.000000,194.000000,178.000000,16.000000,34.000000,0.000000,0.000000,0.249328,0.314873,0.143942,0.305876,0.000000,194.000000,178.000000,16.000000,34.000000,0.000000,0.000000:
0000
0000
0000
0000
,
0000
0000
0000
0000
,
0001
0000
1000
0000
,
0220
0000
0330
0000
,
1000
0100
1000
0000
,
0001
0010
0100
1000
,
0001
0100
0001
0000
,
1000
0010
0100
0001
,
0010
0001
0010
0000
,
0100
1000
0100
0000
,
0010
0000
0100
0000
,
2002
0000
3003
0000
,
0010
0001
1000
0000
,
0010
0100
0010
0000
,
1000
0100
0010
0000
,
0001
0100
0001
0000
,
1000
0010
0010
0000
,
0001
0100
0100
0000
,
0010
0100
0010
0000
,
2002
0000
3003
0000
,
0100
0010
1000
0000
,
0001
0010
0100
1000
,
0010
1000
0100
0000
,
0010
0001
1000
0001
,
0100
0010
0010
0000
,
1000
0001
0001
0000
,
0010
0000
0100
0000
,
2002
0000
3003
0000
,
0100
1000
0100
0010
,
0002
0000
1003
0000
,
0001
0010
0100
1000
,
0002
0000
1003
0000
,
0010
0100
0010
0100
,
0002
0000
0013
0000
,
0100
1000
0100
1000
,
0020
0000
0130
0000
,
0002
0000
0013
0000
,
0001
0010
0001
1000
,
0020
0000
1030
0000
,
0010
0100
0010
1000
,
0200
0000
0310
0000
,
0001
0100
0010
1000
,
0001
1000
0010
0000
,
0220
0000
0330
0000
,
2002
0000
3003
0000
,
0010
0100
0010
0000
,
1000
0100
0010
0001
,
1000
0001
0100
0000
,
0001
0010
0100
1000
,
0010
1000
0001
0000
,
0100
0001
1000
0000
,
0020
0000
0130
0000
,
2002
0000
3003
0000
,
2020
0000
0000
0000
,
3030
0000
0000
0000
,
0022
0000
0000
0000
,
0033
0000
0000
0000
,
2200
0000
3300
0000
,
0202
0000
0303
0000
,
2002
0000
0000
3003
,
0100
1000
0010
0001
,
0220
0000
0330
0000
,
0001
0100
0001
0000
,
1000
0010
0100
0001
,
0010
0100
0010
0000
,
0001
1000
0100
1000
,
0001
0010
0100
0000
,
1000
0010
0100
0000
,
0101
0000
1010
0000
,
1000
0001
0010
0100
,
1001
0000
0000
0000
;

//---------------dance-single - ----------------
#NOTES:
     dance-single:
     :
     Medium:
     10:
     0.381703,0.421030,0.296880,0.287884,0.008996,297.000000,264.000000,33.000000,32.000000,0.000000,0.000000,0.381703,0.421030,0.296880,0.287884,0.008996,297.000000,264.000000,33.000000,32.000000,0.000000,0.000000:
0000
0000
0000
0000
,
0000
0000
0000
0000
,
0100
0000
0000
0010
0000
0000
0100
0000
,
0002
0000
2000
3003
,
1010
0000
0100
0010
0100
0000
0001
0000
,
0010
0000
0100
1000
0100
0000
0010
0000
,
0001
0000
0100
0010
0100
0000
0001
0000
,
0010
0100
2002
3003
,
0100
0010
1000
0000
0100
0000
0000
0000
,
1000
0010
0100
0000
0010
0000
0000
0000
,
0101
0000
1010
0000
,
2002
0000
3003
0000
,
0010
0001
0100
0000
0001
0000
0010
0000
,
0100
0000
1000
0000
0001
1000
0001
0000
,
0100
0001
1000
0000
0100
0000
1000
0000
,
0010
0000
0100
0000
0001
0010
0001
0000
,
1000
0010
0100
0000
1010
0000
0000
0000
,
0001
0010
0100
0000
0011
0000
0000
0000
,
1000
0001
1000
0000
0110
0000
0000
0000
,
2020
3030
2200
3300
,
0001
0100
0010
0000
0100
0000
0001
0000
,
0010
0000
0001
0000
1000
0010
1000
0000
,
0001
1000
0100
0000
0010
0000
0001
0000
,
0100
0000
0010
0000
0100
0010
1000
0000
,
0001
1000
0100
0000
1010
0000
0000
0000
,
0001
1000
0010
0000
0011
0000
0000
0000
,
1100
0000
0101
0000
,
0220
0000
0330
0000
,
1000
0100
1000
0100
0010
0000
0010
0000
,
0002
0000
0103
0010
,
0100
0001
0100
0001
1000
0000
1000
0000
,
0020
0000
0130
0001
,
0010
0100
0010
0100
1000
0000
0010
0000
,
0110
0000
0001
1000
,
0001
0010
0100
0000
0010
0100
1000
0000
,
0010
0100
2002
3003
,
0100
0000
0010
0100
0010
0000
1000
0000
,
0001
0010
0001
0010
0100
0000
1000
0000
,
0010
0000
1000
0100
1000
0000
0010
0000
,
0100
0001
0100
0001
0010
0000
0100
0000
,
1000
0000
0100
1000
0100
0000
1000
0000
,
0001
0100
0001
0100
0010
0000
0100
0000
,
0010
0100
0001
0000
1000
0000
0001
0000
,
0110
0000
0000
0010
0000
0100
0001
1000
,
0200
0000
0000
0300
,
1000
0010
0100
0000
0001
0000
0010
0000
,
0001
0000
0100
0010
0100
0000
0001
0000
,
0010
0001
1000
0000
0100
0000
0010
0000
,
0100
0000
1000
0010
1000
0000
0001
0000
,
0010
0001
1000
0000
1100
0000
0000
0000
,
0010
1000
0001
0000
0101
0000
0000
0000
,
1001
0000
0110
0000
,
2002
0000
3003
0000
,
0220
0000
0030
0000
,
0001
0000
1300
0000
,
0220
0000
0300
0000
,
1000
0000
0031
0000
,
2001
0000
3010
0000
,
1002
0000
0013
0000
,
0201
0000
0310
0000
,
1000
0000
0000
0100
0000
0000
0010
0000
0001
0000
0000
0010
0000
0000
0100
0000
,
2000
0000
3000
0000
,
0010
0100
0001
0000
0010
0000
0100
0000
,
1000
0000
0010
0100
0010
0000
1000
0000
,
0001
0100
0010
0000
1000
0000
0100
0000
,
0010
0000
0001
1000
0001
0000
0010
0000
,
0001
0100
0010
0000
1010
0000
0000
0000
,
1000
0100
0010
0000
0011
0000
0000
0000
,
1010
0000
0101
0000
,
2000
3020
0032
0013
,
2002
0000
0000
0000
,
0000
0000
0000
0000
,
3003
0000
0000
0000
;

//---------------dance-single - ----------------
#NOTES:
     dance-single:
     :
     Hard:
     14:
     0.699146,0.680125,0.161935,0.251898,0.454316,544.000000,526.000000,18.000000,28.000000,0.000000,0.000000,0.699146,0.680125,0.161935,0.251898,0.454316,544.000000,526.000000,18.000000,28.000000,0.000000,0.000000:
0000
0000
0000
0000
,
0000
0000
0000
0000
,
0010
0100
0010
0100
0010
0100
0001
0010
0100
1000
0010
0100
,
0002
0000
2000
3003
,
0110
0000
1000
0100
0010
0000
0100
1000
,
0010
1000
0100
0001
0100
1000
0010
0100
,
0110
0000
0001
0100
0010
0000
0100
0001
,
0100
0010
0001
0010
1000
0100
0001
0000
,
0001
0100
1000
0100
0001
0000
1001
0000
,
1000
0010
0001
0010
1000
0000
1001
0000
,
0100
0000
0001
0000
0010
0000
0001
0000
0100
0000
0010
1000
0010
0000
0100
0000
,
0001
0010
1000
0010
0001
0010
1000
0000
,
0010
0001
0010
0000
0100
0000
1000
0010
0000
0000
0100
0000
0100
0000
0010
0000
,
1000
0000
0100
0000
0010
0000
0001
1000
0000
0001
1000
0000
0010
0000
0100
0000
,
0001
0010
0001
0000
1000
0000
0100
0010
0000
0000
0001
0000
0001
0000
1000
0000
,
0010
0000
1000
0000
0001
0000
0010
0100
0000
1000
0001
0000
0100
0000
0010
0000
,
1000
0100
1000
0000
0010
0000
0001
0020
0000
0000
0100
0000
0130
0000
0000
0000
,
1000
0100
1000
0000
0001
0000
0010
0200
0000
0000
0010
0000
0310
0000
0000
0000
,
0001
0010
0001
0000
1000
0000
0010
0200
0000
0000
0010
0000
0310
0000
0000
0000
,
1000
0000
0001
0000
0010
0000
0100
1000
0002
0000
0000
0000
2003
0000
0000
0000
,
3010
0100
0010
0000
1000
0000
0001
0010
0000
0000
0100
0000
0100
0000
1000
0000
,
0010
0000
0100
0000
0010
0000
1000
0001
0000
0001
1000
0000
0100
0000
0010
0000
,
0001
0100
0001
0000
1000
0000
0100
0010
0000
0000
0100
0000
0100
0000
1000
0000
,
0001
0000
0100
0000
0001
0000
0010
0100
0000
1000
0010
0000
0100
0000
0010
0000
,
1000
0100
1000
0000
0001
0000
0010
0200
0000
0000
0010
0000
0310
0000
0000
0000
,
0001
0100
0001
0000
1000
0000
0010
0200
0000
0000
0010
0000
0310
0000
0000
0000
,
1000
0001
1000
0000
0010
0000
1000
0020
0000
0000
0100
0000
0130
0000
0000
0000
,
1000
0000
0000
1001
0000
0000
0001
0010
0200
0000
0000
0000
0300
0000
0000
0000
,
1000
0000
0010
0000
1000
0000
0100
0000
0001
0000
0100
1000
0001
0000
0100
0000
,
0020
0000
0000
0000
0130
0000
0001
0000
0010
0000
0100
1000
0001
0000
0100
0000
,
0010
0000
0100
0000
0001
0000
0010
0000
1000
0000
0010
0001
0100
0000
0001
0000
,
2000
0000
0000
0000
3010
0000
0100
0000
0001
0000
0010
0100
0010
0000
0001
0000
,
1000
0000
1000
0000
0010
0000
0010
0000
0100
0000
0001
0010
0100
0000
1000
0000
,
0020
0000
0000
0000
0130
0000
0001
0000
0010
0000
0001
1000
0001
0000
0100
0000
,
0010
0000
0000
0010
1000
0000
0000
1000
0100
0000
0000
0100
0010
0000
0000
0010
,
0001
0000
0100
0000
0001
0000
0010
0100
1000
0000
0010
0000
0110
0000
0000
0000
,
1000
0000
0100
0000
1000
0001
1000
0000
0001
0000
0100
0000
0001
1000
0001
0000
,
1000
0000
0100
0000
0001
0000
0100
0000
1000
0000
0001
0010
0100
0000
1000
0000
,
0001
0000
0010
0000
0001
1000
0001
0000
1000
0000
0010
0000
1000
0001
1000
0000
,
0001
0000
0100
0000
1000
0000
0100
0000
0001
0000
1000
0100
0010
0000
0001
0000
,
1000
0000
0010
0000
1000
0100
0010
0000
0001
0000
0100
0000
0001
0010
0100
0000
,
1000
0000
0010
0000
1000
0001
0100
0000
0001
0000
0010
0100
1000
0000
0001
0000
,
0100
0000
0100
0000
0010
0000
0010
0000
1000
0000
0001
1000
0001
0000
1000
0000
,
0010
0000
0100
0110
0001
0010
1000
0100
,
0220
0000
0000
0330
,
0100
0010
0100
0000
0001
0000
1000
0100
0000
0000
0010
0000
0010
0000
0001
0000
,
0100
0000
0010
0000
0100
0000
0001
1000
0000
1000
0001
0000
0010
0000
0100
0000
,
1000
0010
1000
0000
0001
0000
0010
0100
0000
0000
0010
0000
0010
0000
0001
0000
,
1000
0000
0010
0000
1000
0000
0100
0010
0000
0001
0100
0000
0010
0000
0100
0000
,
0001
0010
0001
0000
1000
0000
0100
0020
0000
0000
0100
0000
0130
0000
0000
0000
,
0001
0010
0001
0000
1000
0000
0100
0020
0000
0000
0100
0000
0130
0000
0000
0000
,
0100
1000
0100
0000
1000
0000
0001
0200
0000
0000
0010
0000
0310
0000
0000
0000
,
1000
0000
0001
0000
1000
0000
0100
0020
0000
0000
0000
0000
0030
0000
0001
0000
,
2002
0000
0000
3003
,
0100
0000
0000
0000
0010
0000
1000
0100
,
2200
0000
0000
3300
,
0001
0000
0000
0000
0100
0000
0010
1000
,
1001
0001
0010
0100
1000
0000
1001
0010
,
1000
0010
0100
0001
0011
0000
1100
1000
,
0010
0000
0100
0000
0010
0000
0100
0000
0001
1000
0100
0000
1000
0001
0100
0000
,
0010
0000
0100
0001
0000
0010
0100
0000
1000
0000
0010
0100
0000
0001
0010
0000
,
0002
0000
2003
0000
,
3010
0100
0001
0000
0010
0000
0100
1000
0000
0000
0010
0000
0010
0000
1000
0000
,
0001
0000
0010
0000
0100
0000
0010
0001
0000
1000
0010
0000
0100
0010
0100
0000
,
0001
1000
0010
0000
1000
0000
0100
0010
0000
0000
0001
0000
0100
0000
0001
0000
,
1000
0000
0010
0000
1000
0000
0100
0010
0000
0001
1000
0000
0010
0000
0010
0000
,
1000
0100
1000
0000
0010
0001
0000
0101
0000
0000
0010
0000
0010
0000
0000
0000
,
0100
0001
0100
0000
0010
1000
0000
1100
0000
0000
0001
0000
0001
0000
0000
0000
,
0010
0100
1000
0000
0010
0100
0000
0110
0000
0000
0001
0000
0001
0000
1000
0000
,
0100
1000
0001
0010
0100
0001
0010
1000
,
2002
0000
0000
0000
,
0000
0000
0000
0000
,
3003
0000
0000
0000
;

//---------------dance-single - ----------------
#NOTES:
     dance-single:
     :
     Challenge:
     1:
     0.294310,0.289571,0.143942,0.044982,0.301378,229.000000,213.000000,16.000000,5.000000,0.000000,0.000000,0.294310,0.289571,0.143942,0.044982,0.301378,229.000000,213.000000,16.000000,5.000000,0.000000,0.000000:
// measure 0
0000
0000
0000
0000
,  // measure 1
0000
0000
0000
0000
,  // measure 2
0010
0010
0010
0100
0100
0100
0001
0001
0001
1000
1000
1000
,  // measure 3
2002
3000
0200
0303
,  // measure 4
0110
0000
0000
0000
0001
0000
0010
0000
0100
0000
0010
0001
1000
0000
0010
0000
,  // measure 5
1000
0100
0001
0100
1000
0001
0100
1000
,  // measure 6
0110
0000
0000
0000
0001
0000
1000
0000
0100
0000
1000
0010
0100
0000
0001
0000
,  // measure 7
0010
1000
0010
0001
0010
1000
0010
0000
,  // measure 8
0001
0100
1000
0100
0101
0000
0011
0000
,  // measure 9
1000
0010
0001
0010
1010
0000
1100
0000
,  // measure 10
0001
0000
1000
0000
0010
0000
0100
0000
0001
0010
0100
0000
1000
0010
0100
0001
,  // measure 11
0010
1000
0010
0001
0100
1000
0100
0000
,  // measure 12
0001
0010
0001
0100
0010
1000
0000
1010
0000
0000
0100
0000
0100
0000
0010
0000
,  // measure 13
1000
0000
0100
0000
1000
0000
0001
0100
0000
0100
0010
0000
0100
0001
1000
0000
,  // measure 14
0001
0010
0001
0010
0100
1000
0000
1100
0000
0000
0010
0000
0010
0000
1000
0000
,  // measure 15
0100
0000
1000
0000
0001
0000
0010
0001
0000
0001
1000
0000
0100
0010
0001
0000
,  // measure 16
0100
0010
1000
0010
0100
0001
0000
0012
0000
0000
1000
0000
1003
0000
0000
0000
,  // measure 17
0100
0001
0010
0001
0100
0010
0000
1020
0000
0000
0100
0000
0130
0000
0000
0000
,  // measure 18
1000
0100
0010
0100
1000
0001
0000
1001
0000
0000
0100
0000
0010
0000
0100
0001
,  // measure 19
0010
0000
0000
0000
0000
0000
0100
0000
0000
0000
0000
0000
1000
0000
0000
0000
0000
0000
0001
0000
0000
1000
0000
0000
0001
0000
0000
0000
0001
0000
0000
0000
0001
0000
0000
0000
1000
0000
0000
0000
1000
0000
0000
0000
1000
0000
0000
0000
,  // measure 20
0100
0010
0100
0010
0100
1000
0000
1001
0000
0000
0100
0000
0010
0000
0100
0000
,  // measure 21
0001
0000
0010
0000
0001
0000
1000
0100
0000
0100
0010
0000
0100
1000
0001
0000
,  // measure 22
0100
0010
1000
0010
0100
0001
0000
0011
0000
0000
1000
0000
1000
0000
0001
0000
,  // measure 23
0010
0000
0001
0000
0100
0000
0010
0100
0000
0100
0001
0000
1000
0100
1000
0000
,  // measure 24
0010
0100
0010
0100
0001
0010
0000
0011
0000
0000
1000
0000
1000
0000
0000
0000
,  // measure 25
0010
1000
0100
1000
0010
0100
0000
0101
0000
0000
0010
0000
0010
0000
0000
0000
;
