#TITLE:God bless you;
#SUBTITLE:;
#ARTIST:ヒゲドライバー with 高橋瞳;
#TITLETRANSLIT:;
#SUBTITLETRANSLIT:;
#ARTISTTRANSLIT:Hige Driver with Hitomi Takahashi;
#GENRE:;
#CREDIT:;
#BANNER:God bless you_banner.png;
#BACKGROUND:God bless you.png;
#LYRICSPATH:;
#CDTITLE:;
#MUSIC:God bless you.ogg;
#OFFSET:0.140000;
#SAMPLESTART:74.330002;
#SAMPLELENGTH:15.000000;
#LASTBEATHINT:339.000000;
#SELECTABLE:YES;
#DISPLAYBPM:145.000000:185.000000;
#BPMS:0.000000=145.000000
,44.000000=185.000000
;
#STOPS:44.000000=0.973000
;
#BGCHANGES:;
#KEYSOUNDS:;
#ATTACKS:;

//---------------dance-single - ----------------
#NOTES:
     dance-single:
     :
     Easy:
     7:
     0.241989,0.285583,0.076609,0.102146,0.000000,199.000000,190.000000,9.000000,12.000000,0.000000,0.000000,0.241989,0.285583,0.076609,0.102146,0.000000,199.000000,190.000000,9.000000,12.000000,0.000000,0.000000:
0000
0000
0000
0000
,
0000
0000
0000
0000
,
0000
0000
0000
0000
,
0000
0000
0000
0000
,
0000
0000
0000
0000
,
1000
0000
0010
0000
,
1000
0000
0000
0000
,
0002
0000
0000
0000
,
0003
0000
0010
0000
,
0020
0000
0000
0000
,
0030
0000
0000
0000
,
0000
0000
0000
0000
,
0000
0000
0010
0100
,
0010
0000
1000
0100
,
1000
0000
0001
0010
,
0001
0000
0000
1000
0000
0000
0000
1000
,
0000
0000
0010
0100
,
0010
0000
0100
0001
,
0100
0000
0001
0010
,
0001
0000
0000
0100
0000
0000
0000
0100
,
0000
0000
0000
0010
0000
0000
0000
0010
,
0000
0000
0000
1000
0000
0000
0000
1000
,
0000
0010
0000
0000
0000
0100
0000
0000
,
0000
0001
0000
0000
0000
0010
0000
0000
,
0000
0100
0000
0000
0000
1000
0000
0000
,
0000
0010
0000
0000
0000
0110
0000
0000
,
0000
1000
0000
0000
0000
0001
0000
0000
,
0000
1000
0000
0000
0000
0100
0000
0000
,
0000
0010
0000
0000
0000
0001
0000
0000
,
0000
2002
0000
0000
0000
3003
0000
0000
,
0000
0100
0000
0000
0010
0000
0100
0000
,
0010
0000
1000
0100
,
1000
0000
0010
1000
,
0010
0000
0110
0000
,
0001
0010
0001
1000
,
0000
0000
0010
1000
,
0010
0000
1000
0100
,
1000
0000
1001
0000
,
0100
0000
0001
0000
,
1000
0000
0010
0000
,
0100
0000
0001
1000
,
0001
0000
0010
0001
,
0010
0000
0100
0000
,
1000
0000
0010
0000
,
0100
0000
0001
1000
,
0001
0000
1000
0010
,
1000
0000
0001
0000
,
0011
0000
1000
0000
,
1100
0000
0010
0000
,
0110
0000
1000
0000
,
1001
0000
0100
0010
,
0100
0000
0001
0010
,
0001
0000
1000
0000
,
0010
0100
0000
0010
0000
0100
0000
0000
,
0000
0010
0000
0000
2000
0000
0000
0000
,
3020
0000
0130
0001
,
0010
0000
0001
1000
,
0100
0000
1000
0001
,
0100
0000
0020
0000
,
0230
0000
0301
1000
,
0100
0000
1000
0010
,
1000
0100
1000
0010
,
0000
0100
0000
0000
0002
0000
0000
0000
,
2003
0000
3010
0100
,
0010
0000
1000
0100
,
1000
0000
0001
0010
,
0001
0000
1000
0010
,
1000
0000
0001
0010
,
0001
0000
0100
0010
,
0100
0000
0010
1000
,
0010
0000
0100
0000
,
0010
0000
1000
0000
,
0001
0000
1000
0000
,
0100
0000
2020
0000
0000
0000
0000
3030
,
0000
0000
0100
0001
,
0100
0000
0001
0010
,
0001
0000
0100
0010
,
0100
0000
0000
0010
0000
0000
0000
0010
,
0000
0000
1000
0100
,
1000
0000
0010
0100
,
0010
0000
0100
0001
,
0100
0000
0000
0001
0000
0000
0000
1000
,
0000
0000
0000
0010
0000
0000
0000
0100
,
0000
0000
0000
0001
0000
0010
0000
0100
;

//---------------dance-single - ----------------
#NOTES:
     dance-single:
     :
     Medium:
     10:
     0.395207,0.535468,0.229828,0.178755,0.000000,325.000000,298.000000,27.000000,21.000000,0.000000,0.000000,0.395207,0.535468,0.229828,0.178755,0.000000,325.000000,298.000000,27.000000,21.000000,0.000000,0.000000:
0000
0000
0000
0000
,
0000
0000
0000
0000
,
0000
0000
0000
0000
,
0000
0000
0000
0000
,
0000
0000
0000
0000
,
0020
0130
0001
0000
,
1100
0000
0000
0000
0010
0000
1000
0001
,
0200
0000
0010
0000
,
0302
0000
0010
0000
,
2003
0000
0100
0000
,
3020
0000
0130
0000
,
1001
0000
0000
0000
0100
0010
0100
0010
,
0000
1001
0000
0010
0100
0000
0001
0000
,
0010
0001
0000
0000
1000
0000
0100
0000
,
1000
0010
0000
0000
0100
0000
0001
0000
,
0010
0001
0000
1001
0000
1000
0000
1100
,
0000
0010
0000
1000
0100
0000
1000
0000
,
0010
0100
0000
0000
0001
0000
0010
0000
,
0001
1000
0000
0000
0100
0000
0010
0000
,
0001
1000
0000
1100
0000
0001
0000
0011
,
0000
1000
0000
1001
0000
0010
0000
0110
,
0000
1000
0000
1010
0000
0001
0000
0011
,
0000
2000
0000
0000
0000
3010
0000
0100
,
0000
0001
0000
0000
0001
0010
0000
0100
,
0000
1000
0000
0000
0010
0000
0000
1000
,
0000
0001
0000
0000
0010
0000
0000
0001
,
0000
0200
0000
0000
0000
0310
0000
1000
,
0000
0100
0000
1000
0000
0001
0000
0010
,
0000
0001
0000
0000
0000
1001
0000
0000
,
0000
0100
0000
0000
0000
0110
0000
0000
,
0000
0010
0000
0000
0100
0000
0010
0000
,
0100
0001
0000
0000
1000
0000
0100
0000
,
1000
0010
0000
0000
1000
0000
0001
0000
,
0010
0001
0000
0000
1000
0000
0010
0000
,
0100
0010
0000
0000
1000
0000
0100
0000
,
0010
0001
0000
0000
0100
0000
0001
0000
,
0010
0100
0000
0000
1000
0000
0010
0000
,
0100
0001
0000
1000
0000
0001
0000
1000
,
0000
0020
0000
0000
0000
0000
0000
0130
,
0000
0100
0000
0000
0001
0000
0010
0000
,
0001
1000
0000
0000
0100
0000
1000
0000
,
0010
0100
0000
0000
0001
0000
1000
0000
,
0001
0010
0000
0000
0001
0000
1000
0000
,
0010
0100
0000
0000
0010
0000
1000
0000
,
0001
1000
0000
0000
0100
0000
1000
0000
,
0001
0100
0000
0000
0010
0000
1000
0100
,
0000
1000
0000
0000
0100
0000
1000
0000
,
0100
1000
0000
0100
0000
2000
0000
0000
,
0000
3001
0000
0010
0001
0000
0010
0000
,
0001
0010
0000
0001
0000
0020
0000
0000
,
0000
0130
0000
1000
0001
0000
0100
0000
,
0000
0010
0000
1000
0001
0000
0010
0000
,
0000
0001
0000
0000
1000
0100
0000
0000
,
1000
0002
0000
0000
0000
0003
0000
0000
,
0000
0110
0000
0000
0002
0000
0010
0000
,
2003
0010
3001
0010
,
0100
1000
0000
0000
0010
0000
1000
0100
,
1000
0010
0000
0000
1000
0000
0001
0000
,
0100
0001
0000
0000
2000
0000
0100
0000
,
3002
0100
1003
0100
,
0010
0001
0000
1000
0001
0000
1000
0000
,
0001
0010
0000
0010
0000
0220
0000
0330
,
0000
1001
0000
0000
0200
0000
0001
0000
,
0320
1000
0130
0001
,
1000
0100
0000
0000
0010
0000
0001
0100
,
0000
0010
0000
0000
1000
0000
0100
0000
,
1000
0010
0000
0000
1000
0000
0010
0000
,
1000
0001
0000
0010
0001
0000
0010
0000
,
0001
0100
0000
0000
0001
0000
0100
0000
,
0001
1000
0000
0000
0010
0000
0100
0001
,
0000
1001
0000
0000
0010
0000
0100
0000
,
0010
0000
0100
0000
0010
0000
0100
0010
,
0100
0010
0000
0000
1000
0000
0001
0000
,
1000
2002
0000
3003
,
0000
0010
0000
1000
0100
0000
0010
0000
,
0001
0100
0000
0000
0001
0000
0010
0000
,
0100
1000
0000
0000
0010
0000
1000
0000
,
0001
0100
0000
0110
0000
0010
0000
0110
,
0000
1000
0000
0001
0010
0000
0100
0000
,
1000
0010
0000
0000
0100
0000
0010
0000
,
1000
0001
0000
0000
1000
0000
0100
0000
,
0010
0001
0000
1001
0000
1000
0000
1100
,
0000
0001
0000
0101
0000
0010
0000
0110
,
0000
1000
0000
1100
0000
1001
0000
0011
;

//---------------dance-single - ----------------
#NOTES:
     dance-single:
     :
     Hard:
     13:
     0.643276,0.678260,0.434120,0.187268,0.051073,529.000000,478.000000,51.000000,22.000000,0.000000,0.000000,0.643276,0.678260,0.434120,0.187268,0.051073,529.000000,478.000000,51.000000,22.000000,0.000000,0.000000:
// measure 0
0000
0000
0000
0000
,  // measure 1
0000
0000
0000
0000
,  // measure 2
0000
0000
0000
0000
,  // measure 3
0000
0000
0000
0000
,  // measure 4
0000
0000
0000
1000
0100
0010
0000
0001
,  // measure 5
0200
0010
0302
0013
,  // measure 6
1001
0000
0010
0100
1000
0000
0100
0001
,  // measure 7
0020
0100
0001
0130
,  // measure 8
2000
0000
0010
0000
3001
0000
0010
0001
,  // measure 9
0200
1000
0010
0301
,  // measure 10
0020
1000
0100
0031
,  // measure 11
1001
0000
0000
0000
0010
0100
0010
0100
0010
0000
0100
0000
0010
0100
0010
0000
,  // measure 12
0100
0002
0000
1003
0100
0001
0100
1000
,  // measure 13
0001
0100
0000
0010
1000
0010
1000
0100
,  // measure 14
0001
0100
0000
1000
0001
0010
1000
0010
,  // measure 15
0001
1000
0000
0011
0000
1000
0000
0110
,  // measure 16
0000
1001
0000
0010
0001
1000
0010
0001
,  // measure 17
0010
1000
0000
0001
1000
0010
1000
0001
,  // measure 18
0010
1000
0000
1000
0010
0001
0100
1000
,  // measure 19
0100
0010
0000
1100
0000
0001
0000
0110
,  // measure 20
0000
1000
0000
1001
0000
0010
0000
0110
,  // measure 21
0000
1100
0000
0101
0000
1010
0000
0011
,  // measure 22
0000
2002
0000
3003
0000
0010
0100
0010
,  // measure 23
0100
0002
0000
0000
0010
0013
0000
0100
,  // measure 24
0000
2100
0000
0000
0010
3010
0000
0100
,  // measure 25
0000
0010
0000
1000
0100
1000
0000
0001
,  // measure 26
0000
0110
0000
0000
0000
0001
0010
0100
,  // measure 27
1000
0010
0000
1000
0001
0010
0000
0100
,  // measure 28
0000
2002
0000
0000
0000
3003
0000
0000
,  // measure 29
0100
0000
0010
0000
0000
0000
0100
0010
0100
0000
0001
0000
1000
0000
0100
0000
,  // measure 30
0000
1010
0000
0100
0001
1000
0001
0010
,  // measure 31
0100
1000
0000
0010
1000
0001
0010
0100
,  // measure 32
0010
0001
0000
1000
0010
0100
0010
1000
,  // measure 33
0001
0010
0000
1100
0000
0001
0010
1000
,  // measure 34
0010
0001
0000
0100
0010
1000
0100
0001
,  // measure 35
0100
1000
0000
0001
0100
1000
0100
0001
,  // measure 36
0000
0110
0000
1000
0001
0010
0100
1000
,  // measure 37
0010
0000
0100
0000
0000
0000
1001
0000
0000
0000
0010
0000
0100
0000
0001
1000
,  // measure 38
0001
0020
0000
0100
0130
0000
1000
0010
,  // measure 39
0100
0010
0000
1000
0100
0000
1000
0010
,  // measure 40
0100
0010
0000
1000
0100
0010
0000
0010
,  // measure 41
0100
1000
0000
0001
0010
1000
0001
0100
,  // measure 42
1000
0010
0000
0100
0010
0001
0000
0001
,  // measure 43
0010
0100
0000
0001
0010
0100
0000
0100
,  // measure 44
0010
0001
0000
0100
0010
0100
0001
0010
,  // measure 45
0100
0000
0010
0000
0000
0000
0010
0000
0100
0000
0010
0000
0001
0000
1000
0100
,  // measure 46
1000
0010
0000
0010
1000
0010
1000
0100
,  // measure 47
0010
0100
0000
1100
0000
0101
0000
0010
,  // measure 48
0100
0001
0000
0001
0010
0100
0010
0001
,  // measure 49
0100
0010
0000
0101
0000
1100
0000
0010
,  // measure 50
0100
0001
0000
0001
0010
0100
1000
0010
,  // measure 51
1000
1100
0000
1000
0010
0100
0001
0010
,  // measure 52
0001
1001
0000
0000
0100
0110
0000
0000
,  // measure 53
0001
1001
0000
0110
0000
1000
0100
0001
,  // measure 54
0000
1100
0000
1000
0010
1000
0001
0010
,  // measure 55
0100
0010
0001
1000
0010
1000
0001
0100
,  // measure 56
1000
0100
0000
0100
0001
0100
1000
0100
,  // measure 57
0001
0100
0000
0100
0010
0100
0001
0010
,  // measure 58
0000
0101
0000
0010
1000
0100
1000
0001
,  // measure 59
0100
0000
0010
0000
0100
0000
0001
0000
0010
0000
0100
0000
1000
0000
0010
0100
,  // measure 60
0010
0000
1000
0000
0000
0000
1000
0000
0010
0000
1000
0000
0100
0000
1000
0100
,  // measure 61
1000
0001
0000
0011
0000
1100
0000
1000
,  // measure 62
0010
0001
0000
0001
0010
1000
0001
0010
,  // measure 63
0100
1000
0010
1000
0001
0100
0010
0100
,  // measure 64
0001
0020
0000
0100
0130
0000
1000
0100
,  // measure 65
0010
0002
0000
1000
1003
0010
0100
0010
,  // measure 66
0000
0000
1001
0000
0000
0000
0010
0000
0100
0000
0001
0010
0100
0000
1000
0000
,  // measure 67
0000
0000
1001
0000
0000
0000
1000
0000
0010
0000
0100
0001
0010
0000
0100
0000
,  // measure 68
0000
1001
0000
1000
0100
0001
0100
1000
,  // measure 69
0000
0110
0000
0001
0100
1000
0100
0001
,  // measure 70
0000
0120
0000
1000
1000
0000
0100
0000
,  // measure 71
1000
0230
0001
0010
,  // measure 72
0001
0302
0000
1000
1000
0000
0010
0000
,  // measure 73
1003
0000
0000
0000
0220
0000
0000
0000
0330
0000
0000
0000
0001
1000
0001
1000
,  // measure 74
0001
0020
0000
0130
1000
0010
1000
0100
,  // measure 75
0010
0001
0000
1000
0010
1000
0010
0001
,  // measure 76
0010
1000
0000
0100
0010
0001
0100
0001
,  // measure 77
0010
0100
0000
1010
0000
0100
0000
1001
,  // measure 78
0000
0110
0000
1000
0010
0100
0001
0100
,  // measure 79
1000
0100
0000
0010
0100
0001
1000
0010
,  // measure 80
0001
0010
0000
0100
0001
0010
1000
0010
,  // measure 81
0001
0100
0000
0110
0000
0010
0000
1001
,  // measure 82
0000
0100
0000
0110
0000
1000
0000
1001
,  // measure 83
0000
0101
0000
0011
0000
0110
0000
1100
;
