#TITLE:Go Beyond!!;
#SUBTITLE:;
#ARTIST:Ryu☆ Vs. Sota;
#TITLETRANSLIT:;
#SUBTITLETRANSLIT:;
#ARTISTTRANSLIT:;
#GENRE:TRANCE CORE;
#CREDIT:;
#BANNER:Go_Beyond!!_banner.png;
#BACKGROUND:Go_Beyond!!.png;
#LYRICSPATH:;
#CDTITLE:;
#MUSIC:Go Beyond!!.ogg;
#OFFSET:0.250000;
#SAMPLESTART:83.750000;
#SAMPLELENGTH:12.000000;
#SELECTABLE:YES;
#DISPLAYBPM:200.000000;
#BPMS:0.000000=200.000000
,213.000000=400.000000
,216.000000=200.000000
;
#STOPS:213.000000=0.150000,
214.000000=0.150000,
215.000000=0.150000
;
#BGCHANGES:;
#KEYSOUNDS:;
#ATTACKS:;

//---------------dance-single - ----------------
#NOTES:
     dance-single:
     :
     Easy:
     9:
     0.338126,0.523736,0.151078,0.528772,0.000000,282.000000,264.000000,18.000000,63.000000,0.000000,0.000000,0.338126,0.523736,0.151078,0.528772,0.000000,282.000000,264.000000,18.000000,63.000000,0.000000,0.000000:
0000
0000
0000
0000
,
0000
0000
0000
0000
,
1000
0100
1000
0100
,
0010
0001
0010
0000
,
0001
1000
0001
1000
,
0010
0100
0010
0000
,
1000
0010
1000
0010
,
0100
0001
0100
0000
,
0000
1001
0000
0110
,
0000
0000
0001
0100
,
0010
1000
0100
1000
,
0010
0100
0001
0010
,
0100
1000
0001
1000
,
0010
0100
0010
0110
,
1000
0100
1000
0010
,
1000
0001
0100
0010
,
0100
0001
0100
0010
,
0020
0000
0000
0030
,
1000
0010
0100
0001
,
1000
0001
0100
0001
,
0010
0100
1000
0100
,
0010
0001
1000
0001
,
1000
1000
0001
0001
,
0100
0100
0010
0010
,
0000
1100
0000
0011
,
0000
0000
0110
1001
,
0002
0000
0000
0000
,
0023
0000
0000
0000
,
0230
0000
0000
0000
,
2300
0000
0000
0000
,
3002
0000
2003
0000
,
3020
0000
0230
0000
,
0302
0000
0000
0000
,
0000
0000
0003
0000
,
2000
0000
3200
0000
,
0320
0000
0230
0000
,
0302
0000
0000
0000
,
0000
0000
0103
0000
,
0020
0000
0230
0000
,
0302
0000
2003
0000
,
3020
0000
0000
0000
,
0000
0000
0130
0000
,
2002
0000
0000
0000
,
3003
0000
0010
0000
,
0220
0000
0000
0000
,
0330
0000
0100
0000
,
2100
0000
3002
0000
,
0203
0000
0310
0000
,
2002
0000
0000
0000
,
0000
0000
0000
0000
,
0000
0000
0000
0000
,
3003
0001
0000
1000
,
0000
0000
0001
1000
,
0000
0000
0000
0000
0000
0000
0020
0030
0000
0000
0000
0000
0020
0030
0000
0000
0000
0000
0020
0030
0000
0000
0000
0000
,
0010
0001
0100
0010
,
1000
0100
1000
0010
,
0100
0001
0010
0100
,
0010
0100
2000
3000
,
0001
1000
0001
1000
,
0010
0100
0010
0100
,
0001
0010
0001
0010
,
0100
1000
0100
1000
,
1000
0000
0010
0000
1000
0010
1000
0000
,
0001
0000
0100
0000
0001
0100
0001
0000
,
0010
0000
0100
0000
0010
0100
0010
0000
,
1000
0000
0001
0000
1000
0001
1000
0000
,
0001
0000
0010
0000
0100
1000
0100
0000
,
1000
0000
0010
0000
0100
0001
0100
0000
,
0010
0001
0010
0100
,
1000
1100
1010
1001
,
2000
3010
0200
0301
,
2000
3100
0020
0031
,
0002
0013
0200
1300
,
0002
0103
0020
1030
,
0002
1003
0200
0310
,
0002
0013
0200
0301
,
0200
0010
0000
0310
,
1000
0001
1000
1001
,
2000
3010
0200
0301
,
2000
3100
0020
0031
,
0002
0010
1000
0100
,
2003
0010
0001
3100
,
1001
0000
0110
0000
1000
0100
0000
0100
,
0010
0001
0000
0001
0000
0010
0000
0100
,
1000
0100
2000
0000
3001
0100
0002
0000
,
0013
0010
0010
0010
,
0200
0000
0000
0000
,
0300
0000
0020
0000
,
0032
0000
0000
0000
,
0000
0000
2003
0000
,
3020
0000
0230
0000
,
0302
0000
1003
0000
,
0220
0000
0000
0000
,
0000
0000
0000
0000
,
0000
0000
0000
0000
,
0000
0000
0000
0000
,
0330
0000
0000
0000
;

//---------------dance-single - ----------------
#NOTES:
     dance-single:
     :
     Medium:
     13:
     0.526374,0.684886,0.360908,0.612704,0.000000,439.000000,396.000000,43.000000,73.000000,0.000000,0.000000,0.526374,0.684886,0.360908,0.612704,0.000000,439.000000,396.000000,43.000000,73.000000,0.000000,0.000000:
0000
0000
0000
0000
,
0000
0000
0000
0000
,
1000
0100
1000
0100
0010
0001
0010
0001
,
1000
0001
1000
0110
,
0010
1000
0010
1000
0001
0100
0001
0100
,
0010
0100
1000
0100
0020
0000
0030
0000
,
1000
0001
1000
0001
0100
0010
0100
0010
,
1000
0100
0010
0001
1000
0000
1001
0000
,
0100
0110
0001
1001
,
1000
0001
0110
1001
,
0001
0000
0011
0000
0010
0100
0000
0100
,
1000
0010
0000
0010
0000
0200
0000
0300
,
0001
0000
0101
0000
1000
0010
0100
0010
,
1000
0001
0000
0101
0000
1100
0000
0010
,
0100
0000
0110
0000
0001
0010
0000
0010
,
0100
1000
0000
1000
0000
0002
0000
0003
,
1000
0000
1100
0000
0001
0010
0100
1000
,
0200
0010
0010
0310
,
0001
0010
0001
0010
0100
1000
0100
1000
,
0010
0100
0001
0010
0100
1000
0010
0100
,
0002
0000
1003
0100
1000
0001
0100
0010
,
1000
0010
0100
0001
0100
0000
0011
0000
,
1100
0000
1100
0000
0010
0001
0000
0001
,
0010
0100
0000
0100
0000
0100
1000
0100
,
0010
0022
0033
2200
,
3300
0000
0110
1001
,
2000
0000
3002
0000
,
0203
0000
0320
0000
,
2030
0000
0000
0000
,
0000
0000
0020
3000
,
0230
0000
0302
0000
,
2003
0000
3020
0000
,
0230
0000
0000
0000
,
0000
0000
0002
0300
,
0023
0000
0230
0000
,
0302
0000
2003
0000
,
3020
0000
0000
0000
,
0000
0000
0200
0030
,
0302
0000
2003
0000
,
3020
0000
0230
0000
,
0302
0000
0000
0000
,
0000
0000
1003
0000
,
0220
0000
0000
0000
,
0330
0000
1001
0000
,
0022
0000
0000
0000
,
0033
0000
0110
0000
,
1200
0000
0020
0300
,
0002
0030
1003
0000
,
0220
0000
0000
0000
,
0000
0000
0000
0000
,
0000
0000
0000
0000
,
0330
0001
0000
1000
,
0000
0000
0110
1001
,
0000
0000
0000
0000
0000
0000
0000
0000
2200
3300
0000
0000
0000
0000
0000
0000
0220
0330
0000
0000
0000
0000
0000
0000
0022
0033
0000
0000
0000
0000
0000
0000
,
0001
0010
0001
0100
0010
1000
0100
1000
,
0010
1000
0001
0100
0001
0010
0100
0010
,
0100
1000
0100
1000
0001
0010
0001
0010
,
0001
0100
0010
1000
0001
0100
0020
0030
,
1000
0100
1000
0100
0010
0001
0010
0001
,
1000
0010
1000
0010
0100
0001
0100
0001
,
1000
0100
0001
0100
1000
0100
0001
0100
,
1000
0100
0010
0001
1000
0100
0010
0001
,
1000
0010
0100
0001
1000
0010
0100
0001
,
1000
0001
0100
0010
1000
0001
0100
0010
,
1000
0100
0010
0001
1000
0100
0010
0001
,
0010
0001
1000
0100
0010
0001
1000
0100
,
0010
0001
0100
0001
0010
0100
1000
0100
,
1000
0010
0100
0001
0010
0100
1000
0010
,
0100
1000
0100
1000
0100
0001
0100
0001
,
0010
0001
0010
0001
0010
1000
0010
1000
,
0010
0001
0010
0000
0001
0100
0001
0000
,
0100
1000
0100
0000
1000
0010
1000
0000
,
0002
0010
1000
0100
,
2003
0100
0001
3010
,
0201
0310
1200
0310
,
0021
0130
1020
0130
,
2000
0010
0100
3010
,
0002
0100
0010
0103
,
1000
0100
1000
0100
0010
0100
0010
0100
,
0010
0001
0010
0001
0100
0001
0100
0001
,
0100
0010
0100
0010
1000
0010
1000
0010
,
1000
0001
1000
0001
0100
0010
0100
0010
,
1000
0000
1100
0000
0010
0001
0000
0001
,
0010
0100
0000
1100
0000
0010
0001
0010
,
0100
0100
2000
0000
3100
0100
0002
0000
,
0023
0100
0100
0130
,
2002
0000
0000
0000
,
0000
3003
0220
0330
,
0022
0000
0000
0000
,
0000
0033
0220
0330
,
2200
3000
0310
0000
,
0022
0003
0130
0000
,
2002
0000
0000
0000
,
0000
0000
0000
0000
,
0000
0000
0000
0000
,
0000
0000
0000
0000
,
3003
0000
0000
0000
;

//---------------dance-single - ----------------
#NOTES:
     dance-single:
     :
     Hard:
     16:
     0.701432,1.007185,0.671456,0.705029,0.151078,585.000000,505.000000,80.000000,84.000000,0.000000,0.000000,0.701432,1.007185,0.671456,0.705029,0.151078,585.000000,505.000000,80.000000,84.000000,0.000000,0.000000:
// measure 0
0000
0000
0000
0000
,  // measure 1
0000
0000
0000
0000
,  // measure 2
1000
0100
0010
0100
0010
0001
0010
0100
,  // measure 3
1000
0001
1000
0010
0100
0001
0100
0010
,  // measure 4
1000
0100
0010
0001
0100
0001
1000
0010
,  // measure 5
1000
0001
0010
0100
2200
0000
3300
0000
,  // measure 6
0011
0001
0010
0100
1000
0001
0100
0010
,  // measure 7
1000
0100
0010
0100
1000
0001
0010
0100
,  // measure 8
1000
0100
1100
0000
0001
0010
0011
0000
,  // measure 9
0100
0000
0010
0000
0100
0000
0010
0000
0100
0000
0001
0000
1000
0001
1000
0000
,  // measure 10
0001
0000
1010
0000
0101
0001
0000
0010
,  // measure 11
1010
1000
0000
0011
0000
0110
0000
1001
,  // measure 12
1000
0000
0101
0000
0010
0100
1000
0100
,  // measure 13
0001
0011
0000
0110
0000
1100
0000
1001
,  // measure 14
0001
0000
1010
0000
0001
0100
0000
0010
,  // measure 15
1000
1100
0000
0011
0000
0110
0000
1001
,  // measure 16
0001
0000
1010
0000
0001
0010
0100
0010
,  // measure 17
0002
0000
1000
1000
1000
0000
1003
0000
,  // measure 18
0010
0100
0001
1000
0001
0010
0100
1000
,  // measure 19
0001
0010
0001
0010
0100
1000
0100
1000
,  // measure 20
0010
0010
1000
1000
0001
0100
1000
0100
,  // measure 21
0001
0000
1000
0000
0100
0000
0010
0000
0001
0000
0100
0000
0010
0000
1000
0100
,  // measure 22
1000
0000
0011
0000
1100
1100
0000
0110
,  // measure 23
0010
0000
0011
0000
0000
0000
1100
0000
0000
0000
0010
0000
0100
0000
0001
1000
,  // measure 24
0100
0000
0010
0000
0100
0010
0100
0000
1000
0000
1000
0000
0001
0100
0001
0000
,  // measure 25
0020
0000
0130
0001
,  // measure 26
2200
0300
0002
3003
,  // measure 27
0022
0030
2000
3000
,  // measure 28
2003
3020
0230
0302
,  // measure 29
2003
3002
0023
0030
,  // measure 30
2200
0300
0002
3003
,  // measure 31
0220
0300
2000
3030
,  // measure 32
2000
0100
0001
0010
,  // measure 33
3002
0100
1000
0013
,  // measure 34
0022
0033
2200
3300
,  // measure 35
0220
0330
2002
3003
,  // measure 36
0120
1000
0100
1000
,  // measure 37
0100
0031
2000
3000
,  // measure 38
2200
3300
2020
3030
,  // measure 39
0202
0303
0022
0033
,  // measure 40
1200
0010
1000
0010
,  // measure 41
1000
0001
0310
0000
,  // measure 42
2002
0000
0000
0000
,  // measure 43
3003
0000
0220
0330
,  // measure 44
0022
0000
0000
0000
,  // measure 45
0000
0033
2020
3030
,  // measure 46
0202
0003
0020
0030
,  // measure 47
2000
3000
0310
0000
,  // measure 48
1002
0000
0100
0000
0100
0100
0000
0100
,  // measure 49
0100
0000
0100
0100
0000
0100
0100
0000
,  // measure 50
0100
0100
0000
0100
0100
0000
0100
0100
,  // measure 51
0013
0100
0000
1000
,  // measure 52
0000
0000
0011
1100
,  // measure 53
0000
0000
0000
0000
0000
0000
0000
0000
0000
0000
0000
0000
0000
0000
0000
0000
2200
3300
0000
0000
0000
0000
0000
0000
0000
0000
0000
0000
0000
0000
0000
0000
0202
0303
0000
0000
0000
0000
0000
0000
0000
0000
0000
0000
0000
0000
0000
0000
0220
0330
0000
0000
0000
0000
0000
0000
0000
0000
0000
0000
0000
0000
0000
0000
,  // measure 54
0010
1000
0010
0000
0100
0000
0001
0000
0010
0000
0100
0000
1000
0000
0001
0000
,  // measure 55
1000
0100
1000
0000
0001
0000
0010
0000
0100
0000
1000
0000
0010
0000
0100
0000
,  // measure 56
0001
0010
0001
0000
1000
0000
0100
0000
0010
0000
0001
0000
1000
0000
0001
0000
,  // measure 57
0100
0010
0100
0000
0001
0000
0010
0000
0100
0000
1000
0000
0010
0000
0010
0000
,  // measure 58
1000
0001
1000
0000
0010
0000
0100
0000
1000
0000
0100
0000
0010
0000
0100
0000
,  // measure 59
0001
1000
0001
0000
0010
0000
0100
0000
0010
0000
0001
0000
0010
0000
0100
0000
,  // measure 60
1000
0010
1000
0000
0100
0000
0010
0000
0001
0000
0010
0000
0100
0000
1000
0000
,  // measure 61
0001
0010
0001
0000
1000
0010
1000
0000
0001
0100
0001
0000
1000
0100
1000
0000
,  // measure 62
0001
0010
0001
0000
1000
0000
0100
0000
1000
0000
0010
0000
0100
0000
0001
0000
,  // measure 63
1000
0010
1000
0000
0001
0000
0100
0000
0010
0000
1000
0000
0100
0000
0010
0000
,  // measure 64
0001
0100
0001
0000
0010
0000
0100
0000
1000
0000
0100
0000
0010
0000
0001
0000
,  // measure 65
1000
0100
1000
0000
0010
0000
0100
0000
0001
0000
0010
0000
0100
0000
1000
0000
,  // measure 66
0001
0010
0001
0000
1000
0000
0010
0000
1000
0100
1000
0000
0001
0000
0100
0000
,  // measure 67
0010
1000
0010
0000
0100
0000
0001
0000
0010
0100
0010
0000
0100
0000
1000
0000
,  // measure 68
0001
0010
0001
0000
0010
0100
0010
0000
0100
1000
0100
0000
1000
0010
1000
0000
,  // measure 69
0001
0010
0100
0000
1000
0100
0010
0000
0001
0100
0010
0000
1000
0100
0010
0000
,  // measure 70
0001
0100
0001
0001
1000
0010
1000
1000
,  // measure 71
0001
0010
0110
0100
1000
0010
0110
0100
,  // measure 72
0002
0100
1000
0010
,  // measure 73
2003
0100
0001
0010
,  // measure 74
3010
0001
0011
0010
0100
1000
1100
0100
,  // measure 75
1000
0001
1001
1000
0010
0100
0110
0010
,  // measure 76
2000
0010
0001
0100
,  // measure 77
3002
0010
1000
0103
,  // measure 78
0001
1000
0010
0100
0001
0100
1000
0100
,  // measure 79
0010
1000
0100
0001
0100
1000
0010
0100
,  // measure 80
0001
0010
0011
0000
1000
0010
1010
0000
,  // measure 81
0100
0001
0101
0000
1000
0100
1100
1000
,  // measure 82
1001
0000
0110
0000
0101
0101
0000
1100
,  // measure 83
0110
0110
0000
0011
0000
1100
1001
0101
,  // measure 84
0001
0000
0010
0000
0100
1000
0100
1000
0001
0000
0100
0000
0010
1000
0010
1000
,  // measure 85
0020
1000
0001
0130
,  // measure 86
2002
0000
0000
0000
,  // measure 87
0000
3003
0220
0330
,  // measure 88
0022
0000
0000
0000
,  // measure 89
0000
0033
2020
3030
,  // measure 90
2200
0300
0020
3030
,  // measure 91
0202
0300
2000
3003
,  // measure 92
0220
0000
0000
0000
,  // measure 93
0000
0000
0000
0000
,  // measure 94
0000
0000
0000
0000
,  // measure 95
0000
0000
0000
0000
,  // measure 96
0330
0000
0000
0000
;

//---------------dance-single - ----------------
#NOTES:
     dance-single:
     :
     Challenge:
     17:
     0.788961,1.087759,0.671456,0.562345,0.436447,658.000000,578.000000,80.000000,67.000000,0.000000,0.000000,0.788961,1.087759,0.671456,0.562345,0.436447,658.000000,578.000000,80.000000,67.000000,0.000000,0.000000:
0000
0000
0000
0000
,
0000
0000
0000
0000
,
0100
0100
1000
0100
0001
0100
0010
0010
,
1000
0000
0001
1000
0000
0001
0010
0100
1000
0000
0100
0000
0200
0000
0000
0000
,
1300
0010
0010
0001
0010
1000
0010
0010
,
1000
0000
0000
0011
0000
0000
1000
0001
0020
0000
0100
0000
0130
0000
0000
0000
,
0010
0001
0001
0010
1000
0010
0001
0001
,
1000
0000
0000
0101
0000
0000
0010
1000
0200
0000
0001
0000
0301
0000
0000
0000
,
0100
0000
1010
1000
0001
0010
0011
0000
,
1000
0000
0000
0110
0000
0000
0001
0000
1000
0000
0010
0000
1000
0001
0010
0100
,
1000
0001
0011
0000
1000
0010
0100
0001
,
0010
0000
0100
0000
0010
0000
0001
0000
1000
0000
0001
0000
0100
0000
0010
1000
,
0100
1000
0010
0010
1000
0100
0010
0001
,
1000
0000
1001
0000
0000
0000
1010
0000
0000
0000
0011
0000
0000
0000
0001
1000
,
0100
1000
1010
0010
0100
0001
0010
0001
,
1000
0000
0100
0000
0010
0000
0011
0000
0000
0000
1100
0000
0000
0000
0010
1000
,
0001
0000
1001
0000
0100
0010
0110
0010
,
1000
1000
1000
1000
1000
1000
2000
0000
,
3001
0000
0001
0000
0010
0000
0001
0000
1000
0010
0100
0000
0001
0000
0001
0000
,
1000
0010
0001
0010
1000
0001
0100
0100
,
1000
0000
0100
0000
0100
0000
0001
0000
0100
0010
1000
0000
0100
0000
0100
0000
,
0010
0000
0100
0000
1000
0000
0001
0000
0010
0001
1000
0000
0001
0000
1000
0010
,
0100
0010
0110
0000
0101
0101
0000
0010
,
0011
0000
0011
0000
0000
0000
1100
0000
0000
0000
1000
0000
0001
0010
0100
1000
,
0010
0000
1000
0000
1100
0000
0000
0000
0010
0000
0011
0000
0001
1000
0100
0010
,
0200
0000
1000
0301
,
2200
0300
0002
3000
,
0200
0003
0020
0330
,
2002
0000
0003
0000
,
0010
0000
3001
0000
,
0201
0000
0310
0000
,
2001
0000
3100
0000
,
0022
0000
0000
0030
,
1000
0000
0200
0303
,
2000
0010
0020
3000
,
0230
0001
0002
0303
,
2200
0000
0000
0300
,
0001
0000
3010
0000
,
0202
0003
0020
0300
,
2000
0030
0200
3300
,
2020
0000
0000
3000
,
0100
0000
1030
0000
,
2002
0000
0000
0000
,
0000
3003
0110
0000
,
2002
0000
0000
0000
,
0000
3003
0110
0000
,
1100
0000
0011
0000
,
1001
0000
0110
0000
,
1000
0010
0001
1000
0100
0001
1000
0010
,
0001
1000
0100
0001
0010
1000
0001
0100
,
1000
0001
0010
1000
0001
0100
1000
0010
,
0200
1000
0000
0301
,
0000
0000
0021
1030
,
0000
0000
0000
0000
0000
0000
0000
0000
0220
0330
0000
0000
0000
0000
0000
0000
2002
3003
0000
0000
0000
0000
0000
0000
0220
0330
0000
0000
0000
0000
0000
0000
,
0001
0010
0100
0000
0010
0100
1000
0000
0010
0100
0010
0100
0010
1000
0100
0000
,
1000
0010
0100
0000
0001
0100
0010
0000
1000
0100
1000
0100
1000
0010
0100
0000
,
0001
1000
0100
0000
1000
0001
0100
0000
0010
1000
0010
1000
0010
0100
0001
0000
,
0010
0001
0010
0000
0100
1000
0100
0000
1000
0001
0010
0001
2000
0000
3020
0000
,
0130
0001
0010
0000
0001
1000
0100
0000
1000
0010
0100
0010
1000
0010
0100
0000
,
0001
0010
0100
0000
1000
0010
0100
0000
0001
0010
0100
0010
0001
0100
0010
0000
,
1000
0001
0010
0000
0001
1000
0010
0000
0100
0010
0100
0010
0100
0001
1000
0000
,
0001
1000
0100
0000
1000
0010
0100
0000
0010
0100
0001
0100
0020
0000
0230
0000
,
0301
1000
0100
0000
1000
0001
0100
0000
0010
1000
0001
1000
0010
0100
0010
0000
,
1000
0100
0010
0000
0100
0010
0001
0000
0010
0100
1000
0100
0010
0100
1000
0000
,
0001
0100
0010
0000
1000
0010
0100
0000
0001
0100
0010
0100
0001
0100
0010
0000
,
1000
0001
0010
0000
0001
1000
0010
0000
1000
0010
0100
0010
1000
0001
0010
0000
,
0001
0100
0010
0000
0100
0010
1000
0000
0100
1000
0010
0100
0001
0010
0001
0000
,
1000
0001
0010
0000
0001
0010
0100
0000
1000
0001
0010
0001
1000
0010
0100
0000
,
0010
1000
0010
0000
1000
0100
1000
0000
0001
0100
0001
0000
0010
0001
0010
0000
,
0001
1000
0010
0000
1000
0010
0100
0000
0001
0010
0100
1000
0001
0010
0100
1000
,
0001
0100
0102
0000
1003
0010
2010
0000
,
3010
0100
0110
0010
1000
0100
2100
0000
,
3001
0010
0011
0001
1000
0100
1100
1000
,
0010
0100
0110
0010
1000
0001
0011
0000
,
0100
1000
1100
0100
1000
0010
0110
0100
,
0001
0010
0011
0001
1000
0001
0101
0000
,
0100
0010
1010
1000
0100
0010
0110
0100
,
2000
0010
0001
3010
,
0001
0100
0101
0001
0010
0100
0110
0100
,
1000
0010
1010
1000
0001
0010
0011
0010
,
0001
0100
0110
0010
1000
0100
0110
0000
,
0001
0010
0011
0100
1000
0010
1010
0000
,
1100
0000
1001
0000
1010
1010
0000
0001
,
0011
0000
0011
0000
0000
0000
1001
0000
0000
0000
0110
0000
0000
0000
0001
0100
,
0010
0000
0110
0000
1000
0010
1000
0010
0100
0000
0101
0000
0001
0010
0100
1000
,
0020
1000
0002
0033
,
2020
0000
0000
0000
,
0000
3030
2200
3300
,
2002
0000
0000
0000
,
0000
3003
0022
0033
,
0202
0003
2000
3000
,
0002
0300
0020
0033
,
2200
0000
0000
0000
,
0000
0000
0000
0000
,
0000
0000
0000
0000
,
0000
0000
0000
0000
,
3300
0000
0000
0000
;
