#TITLE:Gimme a Big Beat;
#SUBTITLE:;
#ARTIST:kors k;
#TITLETRANSLIT:;
#SUBTITLETRANSLIT:;
#ARTISTTRANSLIT:;
#GENRE:;
#CREDIT:;
#BANNER:Gimme a big beat_banner.png;
#BACKGROUND:Gimme a big beat.png;
#LYRICSPATH:;
#CDTITLE:;
#MUSIC:Gimme a big beat.ogg;
#OFFSET:0.820000;
#SAMPLESTART:28.950001;
#SAMPLELENGTH:12.000000;
#SELECTABLE:YES;
#BPMS:0.000000=138.000000
;
#STOPS:
;
#BGCHANGES:;
#KEYSOUNDS:;
#ATTACKS:;

//---------------dance-single - ----------------
#NOTES:
     dance-single:
     :
     Easy:
     6:
     0.284855,0.332331,0.197816,0.181991,0.000000,252.000000,227.000000,25.000000,23.000000,0.000000,0.000000,0.284855,0.332331,0.197816,0.181991,0.000000,252.000000,227.000000,25.000000,23.000000,0.000000,0.000000:
0000
0000
0000
0000
,
0000
0000
0000
0000
,
2002
0000
0000
3003
,
0020
0000
0000
0030
,
0200
0000
0000
0300
,
0002
0000
1003
1000
,
0010
0000
1000
0000
,
0001
0000
0100
0000
,
1000
1000
1000
0000
,
0001
0001
0001
0000
,
0100
0000
0010
0000
,
0100
0000
0010
0000
,
1000
0000
0001
0000
,
1000
0000
0001
0000
,
1000
1000
0100
0100
,
0010
0010
0001
0001
,
1000
0100
0010
0001
,
2002
0000
0000
3003
,
1000
0010
1000
0010
,
0100
0001
0200
0300
,
0001
0010
0001
0010
,
0100
1000
0200
0300
,
1100
1000
1000
1000
,
0101
0001
0001
0001
,
1010
1000
0010
1000
,
0202
0000
0000
0303
,
0001
0011
1000
0100
,
1000
1100
1000
0010
,
1000
0110
0001
0010
,
0100
1010
0100
0001
,
0100
0101
0001
0010
,
0100
0110
0010
1000
,
0001
0001
1000
1000
,
0220
0000
0000
0330
,
1000
1000
0010
0010
,
0100
0100
0001
0001
,
1000
0100
0001
0100
,
1000
0010
0001
0010
,
1000
1000
0001
0001
,
0100
0100
0010
0010
,
1000
0100
1000
1000
,
0001
0100
0001
0001
,
0010
0001
0010
0110
,
0100
1000
0100
0110
,
0001
1000
0001
0101
,
1000
0001
1000
1010
,
1000
0100
0010
0100
,
1000
0001
0010
0100
,
0010
0010
0001
0001
,
1000
1000
0200
0300
,
0000
1000
0000
0000
0000
0001
0000
0000
,
0000
1000
0000
0000
0000
0001
0000
0000
,
0000
0100
0000
0000
0000
0010
0000
0000
,
0020
0100
0100
0130
,
1001
0001
1000
1000
,
0010
0100
0010
0100
,
0001
0010
0100
1000
,
0010
1000
0100
0001
,
0010
0011
0002
0003
,
1000
1100
0200
0300
,
0010
0110
0200
0300
,
1000
1010
0020
0030
,
2000
0001
0010
3001
,
0002
0100
1000
0103
,
0020
0100
0100
0130
,
0200
0010
0010
0310
,
0110
1001
0001
0100
,
0001
0010
1000
0010
,
0100
0100
0001
0001
,
1000
1000
0010
0010
,
1001
0000
0000
0000
;

//---------------dance-single - ----------------
#NOTES:
     dance-single:
     :
     Medium:
     10:
     0.488323,0.470802,0.363982,0.063301,0.007913,432.000000,386.000000,46.000000,8.000000,0.000000,0.000000,0.488323,0.470802,0.363982,0.063301,0.007913,432.000000,386.000000,46.000000,8.000000,0.000000,0.000000:
0000
0000
0000
0000
,
0000
0000
0000
0000
,
1001
0000
0000
0000
0000
0000
1000
0000
0010
0000
0000
0100
0000
0000
0020
0000
,
0000
0000
1030
0000
0001
0010
0100
1000
,
0002
0000
0000
0000
0000
0000
1003
0000
0010
0000
0000
0100
0000
0000
0220
0000
,
0000
0000
0330
0000
1000
0010
0100
0001
,
1000
0000
1000
0010
1000
0000
1000
0100
,
0010
0000
0010
0001
0010
0100
0010
0001
,
0100
0000
0100
0010
0100
1000
0100
0000
,
0001
0000
0001
0000
0001
0100
1000
0100
,
0000
0001
0010
1000
0000
0001
0100
1000
,
0000
0001
0010
1000
0000
0001
0100
1000
,
0000
1000
0010
0001
0000
1000
0100
0001
,
0000
1000
0010
0001
0000
1000
0100
0001
,
1000
0100
1000
0100
0010
0001
0010
0001
,
1000
0010
1000
0010
0100
0001
0100
0001
,
1000
0100
0010
0001
1000
0100
0010
0001
,
2000
0010
0010
3010
,
0100
0000
0100
0001
0100
1000
0100
0000
,
0010
0000
0010
1000
0010
0001
0010
0000
,
1000
0000
1000
0001
1000
0010
1000
0000
,
0001
0000
0001
1000
0001
0100
0001
0000
,
1000
0000
1010
0000
1000
0100
1000
0000
,
0001
0000
0101
0000
0001
0010
0001
0000
,
0010
0000
0110
0000
1000
0001
0100
0000
,
0020
0000
1000
1030
,
0001
0100
1000
0100
0001
0010
0001
0000
,
1000
0100
0001
0100
1000
0010
1000
0000
,
0001
0010
1000
0010
0001
0100
0001
0000
,
1000
0010
0001
0010
1000
0100
0001
0100
,
1000
0000
1010
0000
0001
0010
0100
0000
,
1000
0000
0101
0000
0010
1000
0100
0010
,
0001
0100
0001
0100
0010
1000
0010
1000
,
2020
0000
0000
3030
,
0001
0001
0001
0001
,
1000
1000
1000
1000
,
0010
0010
0010
0010
,
0100
0100
0100
0100
,
1000
1010
1000
1100
,
0001
0101
0001
0011
,
1000
1001
0001
1001
,
0100
0110
0010
0110
,
1001
0000
0001
1000
0001
0010
0100
0000
,
1100
0000
0001
0100
0001
0010
0100
0000
,
0011
0000
1000
0100
0010
0100
0010
0000
,
0101
0000
0001
0010
0100
0010
0100
0000
,
1001
0000
1001
0000
0100
0010
0001
0000
,
0101
0000
0101
0000
0010
1000
0100
0000
,
1010
0000
1010
0000
0001
0100
0010
0000
,
1100
0000
1100
0000
0010
0001
0100
0000
,
0000
0001
0010
1000
0000
0001
0100
1000
,
0000
0001
0010
1000
0000
0001
0100
1000
,
0000
1000
0010
0001
0000
1000
0100
0001
,
0000
0001
0010
0100
1000
0000
1001
0000
,
0011
0000
1100
0000
0010
1000
0100
0000
,
1010
0000
0101
0000
0010
0001
0100
0000
,
1001
0000
0110
0000
1000
0100
0001
0000
,
0110
0000
1001
0000
0001
0100
1000
0000
,
1001
0000
0011
0000
0010
0100
1000
0000
,
1001
0000
1010
0000
0010
0100
0001
0000
,
0110
0000
1010
0000
0001
0100
0010
0000
,
0110
0000
0101
0000
1000
0010
0100
0000
,
0001
0010
0001
0100
0010
1000
0100
0000
,
1000
0010
1000
0100
0010
0001
0100
0000
,
0001
0100
1000
0100
0010
1000
0100
0000
,
1000
0100
0001
0100
0010
0100
1000
0000
,
0001
0010
0100
0010
0100
1000
0100
0010
,
0001
1000
0010
1000
0001
0100
0010
0100
,
0001
0010
0100
1000
0001
0010
0100
1000
,
0010
1000
0001
0100
0010
1000
0100
0000
,
1001
0000
0000
0000
;

//---------------dance-single - ----------------
#NOTES:
     dance-single:
     :
     Hard:
     13:
     0.592318,0.609274,0.443108,0.292768,0.265074,524.000000,468.000000,56.000000,37.000000,0.000000,0.000000,0.592318,0.609274,0.443108,0.292768,0.265074,524.000000,468.000000,56.000000,37.000000,0.000000,0.000000:
0000
0000
0000
0000
,
0000
0000
0000
0000
0000
0000
0000
0001
,
2002
0000
0000
0000
3003
0000
0100
0000
0010
0000
0000
1000
0000
0000
0202
0000
,
0000
0000
0303
0000
0010
0100
1000
0100
,
0002
0000
0000
0000
1003
0000
0010
0000
1100
0000
0000
0011
0000
0000
0220
0000
,
0000
0000
0330
0000
0001
0100
1000
0100
,
0010
0000
0000
0000
0010
0000
0001
0000
0010
0000
0000
1000
0000
0000
2200
0000
,
0000
3300
0001
0000
0100
0010
0100
1000
,
0100
0000
0000
0000
0001
0000
0010
0000
0110
0000
0000
1100
0000
0000
2002
0000
,
0000
0000
3003
0000
0001
0010
0100
1000
,
0000
0001
0020
1000
0030
0001
0200
1000
,
0300
0001
0020
1000
0030
0001
0200
1000
,
0300
1000
0020
0001
0030
1000
0200
0001
,
0300
1000
0020
0001
0030
1000
0100
0001
,
1000
0010
1000
0010
0100
0001
0100
0001
,
0010
0100
0010
0100
1000
0001
1000
0001
,
1000
0100
1000
0000
0001
0100
0001
0000
1000
0010
1000
0000
0001
0010
0001
0000
,
0000
1000
0001
0100
0110
0000
1001
0000
,
0001
0000
0010
0001
0000
0001
0100
0000
0010
0000
0100
0000
1000
0000
0100
0000
,
0010
0000
1000
0010
0000
0010
0100
0000
0001
0000
0010
0000
0100
0000
1000
0000
,
0100
0000
0010
0100
0000
0100
1000
0000
0100
0000
0010
0000
0001
0000
0100
0000
,
1000
0000
0100
1000
0000
1000
0100
0000
0001
0000
0010
0000
0100
0000
1000
0000
,
0010
0000
1000
0010
0000
0010
0100
0000
0001
0000
0010
0000
0100
0000
0010
0000
,
0001
0000
1000
0001
0000
0001
0100
0000
0010
0000
1000
0000
0001
0000
0010
0000
,
0100
0000
1000
0100
0000
0100
0010
0000
0001
0000
1000
0000
0001
0000
0100
0000
,
0220
0000
0000
0000
0330
0000
0000
0000
1001
0000
0000
0110
0000
0000
1001
0000
,
1000
0000
0010
1000
0000
1000
0100
0000
0010
0000
0001
0000
0100
0000
0010
0000
,
1000
0000
0001
1000
0000
1000
0100
0000
0010
0000
0100
0000
0010
0000
0001
0000
,
0100
0000
1000
0100
0000
0100
0010
0000
1000
0000
0100
0000
0010
0000
0100
0000
,
1000
0000
0001
1000
0000
1000
0001
0000
0010
0000
0010
0000
0100
0000
0100
0000
,
1000
0000
0100
0001
0000
0001
0100
0000
1000
0000
0010
0000
0100
0000
0001
0000
,
0010
0000
1000
0010
0000
0010
0001
0000
0200
0000
0310
0000
0110
0000
0000
0000
,
1000
0000
0001
0000
0100
0000
0010
0000
1000
0100
1000
0000
0001
0100
0001
0000
,
0220
0000
0000
0330
,
0120
0100
0100
0130
,
1002
1000
1000
1003
,
1200
0010
0010
0310
,
0102
0010
0010
0013
,
2010
0100
0010
3100
,
0012
0100
0010
0103
,
1020
0001
1000
0031
,
1200
0001
1000
0301
,
0011
0000
0000
0000
1000
0000
0100
0000
0010
0000
0000
0011
0000
0000
1010
0000
,
1000
0000
0101
0000
0010
1000
0100
1000
,
1010
0000
0000
0000
0001
0000
0010
0000
0100
0000
0000
1100
0000
0000
0101
0000
,
0001
0000
1010
0000
0001
0010
0100
0010
,
0110
0000
0011
0000
1000
0100
1000
0001
,
0101
0000
1010
0000
0001
0010
0100
1000
,
1100
0000
1010
0000
0100
0010
1000
0001
,
0011
0000
1100
0000
1000
0100
0001
0100
,
1000
0001
0020
1000
0030
0001
0200
1000
,
0300
0001
0020
1000
0030
0001
0200
1000
,
0300
1000
0020
0001
0030
1000
0200
0001
,
0300
0010
0001
0100
1000
0000
1001
0000
,
0110
0000
0000
0000
0100
0000
0010
0000
1000
0010
0000
0010
0100
0000
0001
0000
,
0010
0000
0100
0000
1000
0000
0001
0100
0000
0100
0010
0000
1000
0000
0001
0000
,
1000
0000
0000
0000
1100
0000
0100
0000
0010
0000
0000
0011
0000
0000
1001
0000
,
1000
0000
0001
0000
1000
0000
0100
0010
0000
0010
0100
0000
1000
0000
0001
0000
,
0100
0000
0000
0000
0110
0000
0010
0000
1000
0100
0000
0100
1000
0000
0001
0000
,
0010
0000
0100
0000
0010
0000
0001
1000
0000
1000
0001
0000
0010
0000
0100
0000
,
1000
0000
0100
0000
1000
0000
0010
0000
0100
0000
0000
0101
0000
0000
1010
0000
,
0010
0000
1000
0000
0001
0000
0100
0010
0000
0010
0100
0000
0001
0010
0100
0000
,
1000
0000
0100
0000
1000
0000
0001
0000
0100
0000
0000
0110
0000
0000
1010
0000
,
1000
0000
0001
0000
0100
0000
0010
1000
0000
1000
0010
0000
0100
0000
0001
0000
,
0010
0000
0001
0000
0100
0000
0010
0000
1000
0000
0000
1100
0000
0000
0101
0000
,
0001
0000
0010
0000
0100
0000
1000
0100
0000
0100
0010
0000
0001
0000
0001
0000
,
1000
0000
0010
0000
1000
0000
0100
0000
1000
0000
0000
0101
0000
0000
0011
0000
,
0010
0000
0100
0000
1000
0000
0100
0010
0000
0010
0100
0000
1000
0000
0001
0000
,
0100
0010
0001
0010
0100
1000
0100
0010
,
1000
0100
0010
0000
0100
0010
0001
0000
1000
0010
0100
0000
0001
0010
0100
0000
,
1001
0000
0000
0000
;

//---------------dance-double - ----------------
#NOTES:
     dance-double:
     :
     Hard:
     13:
     0.578753,0.664662,0.276943,0.316506,0.288812,512.000000,477.000000,35.000000,40.000000,0.000000,0.000000,0.578753,0.664662,0.276943,0.316506,0.288812,512.000000,477.000000,35.000000,40.000000,0.000000,0.000000:
// measure 0
00000000
00000000
00000000
00000000
,  // measure 1
00000000
00000000
00000000
00000000
00000000
00000000
00000000
00001000
,  // measure 2
00022000
00000000
00000000
00000000
00033000
00000000
00100000
00000000
00010000
00000000
00000000
11000000
00000000
00000000
02200000
00000000
,  // measure 3
00000000
00000000
03300000
00000000
10000000
01000000
00010000
01000000
,  // measure 4
00100000
00000000
00000000
00000000
00001000
00000000
00010000
00000000
00000010
00000000
00000000
00001100
00000000
00000000
00000202
00000000
,  // measure 5
00000000
00000000
00000303
00000000
00001000
00000100
00000001
00000100
,  // measure 6
00001000
00000000
00000000
00000000
00000010
00000000
00010000
00000000
00000100
00000000
00000000
00011000
00000000
00000000
00201000
00000000
,  // measure 7
00000000
00000000
01300000
00000000
10000000
00100000
00010000
00100000
,  // measure 8
01000000
00000000
00000000
00000000
00010000
00000000
00100000
00000000
00001000
00000000
00000000
00010010
00000000
00000000
00000200
00000000
,  // measure 9
00000000
00000000
00000301
00000000
00000001
00000010
00001000
00010000
,  // measure 10
00000000
00001000
00000200
00000001
00000300
00000001
00000020
00001000
,  // measure 11
00000030
00010000
02000000
10000000
03000000
10000000
00200000
00010000
,  // measure 12
00300000
00001000
02000000
00100000
03000000
00010000
20000000
01000000
,  // measure 13
30000000
01000000
00200000
00001000
00300000
00000100
00010000
00000010
,  // measure 14
00001000
00000001
00001000
00000001
00000010
00000100
00000010
00000100
,  // measure 15
00010000
00000100
00010000
00000100
00100000
00001000
00100000
00001000
,  // measure 16
10000000
00100000
10000000
00000000
00010000
00100000
00010000
00000000
01000000
00001000
01000000
00000000
00001000
00010000
00001000
00000000
,  // measure 17
00000000
00010000
00000010
00000100
00000001
00000000
00001001
00000000
,  // measure 18
00000010
00000000
00000100
00010000
00000000
00010000
00000100
00000000
00001000
00000000
00000010
00000000
00010000
00000000
00001000
00000000
,  // measure 19
00100000
00000000
00010000
10000000
00000000
10000000
00100000
00000000
01000000
00000000
00010000
00000000
00100000
00000000
01000000
00000000
,  // measure 20
10000000
00000000
00010000
01000000
00000000
01000000
00001000
00000000
00010000
00000000
00000010
00000000
00010000
00000000
00001000
00000000
,  // measure 21
00000100
00000000
00000001
00000010
00000000
00000010
00000100
00000000
00010000
00000000
00001000
00000000
00010000
00000000
00000010
00000000
,  // measure 22
00000100
00000000
00000001
00001000
00000000
00001000
00000010
00000000
00010000
00000000
00001000
00000000
00000100
00000000
00001000
00000000
,  // measure 23
00010000
00000000
00001000
00100000
00000000
00100000
00001000
00000000
00010000
00000000
01000000
00000000
00010000
00000000
00001000
00000000
,  // measure 24
00010000
00000000
00000010
00000100
00000000
00000100
00000001
00000000
00000010
00000000
00000100
00000000
00010000
00000000
00001000
00000000
,  // measure 25
00022000
00000000
00000000
00000000
00033000
00000000
00000000
00000000
00110000
00000000
00000000
10010000
00000000
00000000
01000000
00000000
,  // measure 26
00100000
00000000
10000000
00010000
00000000
00010000
00100000
00000000
00001000
00000000
00000010
00000000
00001000
00000000
00010000
00000000
,  // measure 27
00000100
00000000
00100000
00010000
00000000
00010000
01000000
00000000
00100000
00000000
00010000
00000000
00100000
00000000
01000000
00000000
,  // measure 28
00010000
00000000
10000000
01000000
00000000
01000000
00010000
00000000
01000000
00000000
00100000
00000000
00001000
00000000
00010000
00000000
,  // measure 29
00000010
00000000
00000100
00000001
00000000
00000000
00000001
00000000
00000010
00000000
00001000
00000000
00010000
00000000
00100000
00000000
,  // measure 30
10000000
00000000
00010000
01000000
00000000
01000000
00100000
00000000
10000000
00000000
01000000
00000000
00100000
00000000
00001000
00000000
,  // measure 31
00010000
00000000
00000100
00000010
00000100
00000000
00010000
00000000
00000001
00000000
00001000
00000000
00001010
00000000
00000000
00000000
,  // measure 32
00000100
00000000
00000001
00000000
00001000
00000000
00000010
00000000
00010000
00001000
00010000
00000000
00001000
00100000
00001000
00000000
,  // measure 33
02002000
00000000
00000000
03003000
,  // measure 34
00120000
10000000
00100000
10030000
,  // measure 35
02001000
00100000
00001000
03100000
,  // measure 36
00201000
00010000
00001000
00310000
,  // measure 37
00021000
00000010
00001000
00030010
,  // measure 38
00001002
00000100
00001000
00000103
,  // measure 39
00020010
00001000
00000010
00031000
,  // measure 40
00010200
00001000
00010000
00001300
,  // measure 41
00102000
01000000
00100000
01003000
,  // measure 42
00110000
00000000
00000000
00000000
10000000
00000000
00010000
00000000
01000000
00000000
00000000
00011000
00000000
00000000
00001000
00000000
,  // measure 43
00200000
00000000
00301000
00010000
01000000
00010000
00001000
00010000
,  // measure 44
00000010
00000000
00000000
00000000
00001001
00000000
00000001
00000000
00000010
00000000
00000000
00000100
00000000
00000000
00010000
00000000
,  // measure 45
00000020
00000000
00001030
00000010
00001000
00010000
00100000
00000000
,  // measure 46
10010000
00000000
00000000
00000000
01000000
00000000
00010000
00000000
10000000
00000000
00000000
10010000
00000000
00000000
00100000
00000000
,  // measure 47
00001000
00100000
01000000
00000000
00010000
00001000
00000010
00001000
,  // measure 48
00020000
00000000
00000000
00000000
00030010
00000000
00000100
00000000
00000010
00000000
00000000
00001001
00000000
00000000
00001000
00000000
,  // measure 49
00000010
00010000
00001000
00100000
00010000
10000000
10010000
00000000
,  // measure 50
00000000
10000000
00200000
00010000
00300000
00001000
00000200
00000001
,  // measure 51
00000300
00000001
00000020
00001000
00000030
00010000
02000000
10000000
,  // measure 52
03000000
10000000
00020000
00100000
00030000
01000000
00002000
00010000
,  // measure 53
00003000
00010000
00000010
00001000
00001100
00000000
00011000
00000000
,  // measure 54
00101000
00000000
00000000
00000000
00100000
00000000
00010000
00000000
10000000
00100000
00000000
01000000
00010000
00000000
00100000
00000000
,  // measure 55
00001000
00000000
00010000
00000000
00000010
00000000
00000100
00000001
00000000
00000001
00000010
00000000
00000100
00000000
00001000
00000000
,  // measure 56
00000020
00000000
00000000
00000000
00010030
00000000
00001000
00000000
00100000
00010000
00000000
00100000
00001000
00000000
00010000
00000000
,  // measure 57
00000100
00000000
00010000
00000000
00001000
00000000
01000000
00100000
00000000
10000000
00100000
00000000
01000000
00000000
00010000
00000000
,  // measure 58
00200000
00000000
00000000
00000000
01300000
00000000
10000000
00000000
00010000
00100000
00000000
00001000
00100000
00000000
00010000
00000000
,  // measure 59
01000000
00000000
00001000
00000000
00010000
00000000
00000010
00000100
00000000
00000001
00000100
00000000
00000010
00000000
00001000
00000000
,  // measure 60
00000200
00000000
00000000
00000000
00000310
00000000
00000001
00000000
00001000
00000010
00000000
00010000
00000100
00000000
00010000
00000000
,  // measure 61
00001000
00000000
00100000
00000000
01000000
00000000
10000000
00010000
00000000
00010000
10000000
00000000
00100000
01000000
00100000
00000000
,  // measure 62
10000000
00000000
00010000
00000000
00100000
00000000
00001000
00000000
00010000
00000000
00000000
00001100
00000000
00000000
00010000
00000000
,  // measure 63
00000010
00000000
00000100
00000000
00000001
00000000
00000010
00000100
00000000
00000100
00010000
00000000
00001000
00100000
00001000
00000000
,  // measure 64
00020000
00000000
00000000
00000000
00031000
00000000
01000000
00000000
00100000
00000000
00000000
01010000
00000000
00000000
00100000
00000000
,  // measure 65
10000000
00000000
00010000
00000000
00100000
00000000
01000000
10000000
00000000
00100000
01000000
00000000
00001000
00000000
00010000
00000000
,  // measure 66
00000100
00000000
00000100
00000000
00000100
00000000
00001000
00000000
00000010
00000100
00000000
00000001
00000100
00000000
00000001
00000000
,  // measure 67
00000010
00000000
00000100
00000000
00010000
00000000
00001000
00100000
00000000
00001000
01000000
00000000
00010000
00000000
00100000
00000000
,  // measure 68
01000000
10000000
01000000
00000000
10000000
00000000
00100000
00000000
01000000
00010000
01000000
00000000
00001000
00000000
00010000
00000000
,  // measure 69
00000010
00000100
00000010
00000000
00001000
00000001
00001000
00000000
00000010
00010000
00000010
00000000
00010000
00001000
00010000
00000000
,  // measure 70
00011000
00000000
00000000
00000000
;
