#TITLE:Giant Otter Family;
#SUBTITLE:;
#ARTIST:S-C-U;
#TITLETRANSLIT:;
#SUBTITLETRANSLIT:;
#ARTISTTRANSLIT:;
#GENRE:;
#CREDIT:;
#BANNER:Giant_Otter_Family_banner.png;
#BACKGROUND:Giant_Otter_Family_bg.png;
#LYRICSPATH:;
#CDTITLE:;
#MUSIC:Giant Otter Family.ogg;
#OFFSET:-0.430000;
#SAMPLESTART:61.380001;
#SAMPLELENGTH:15.000000;
#LASTBEATHINT:349.000000;
#SELECTABLE:YES;
#BPMS:0.000000=188.000000
;
#STOPS:29.000000=0.319000,
188.000000=0.319000,
283.000000=0.319000
;
#BGCHANGES:;
#KEYSOUNDS:;
#ATTACKS:;

//---------------dance-single - ----------------
#NOTES:
     dance-single:
     :
     Easy:
     7:
     0.337415,0.368254,0.101587,0.186243,0.000000,279.000000,267.000000,12.000000,22.000000,0.000000,0.000000,0.337415,0.368254,0.101587,0.186243,0.000000,279.000000,267.000000,12.000000,22.000000,0.000000,0.000000:
0000
0000
0000
0000
,
0000
0000
0000
0000
,
0000
0000
0000
0000
,
0000
0000
0000
0000
,
0001
0010
0001
1000
,
0100
0010
0100
1000
,
0020
0000
0000
0000
0130
0000
0000
0010
,
0000
1000
0001
0000
0000
0000
1000
0000
,
0100
0010
0100
1000
,
0001
0010
0001
0100
,
0010
1000
0001
1000
,
0100
0010
0001
2001
,
0000
3010
0010
0100
,
0001
0010
0001
1000
,
0000
0100
0000
0010
0000
0220
0000
0000
,
0000
0330
0000
0000
0000
0000
1000
0000
,
0010
0100
0010
1000
,
0100
0010
0001
0100
,
0010
0100
0001
1000
,
0001
0010
0100
2001
,
0100
0000
3100
0001
,
0100
0010
0100
0001
,
0010
0000
0010
1000
,
0100
0000
0100
1000
,
0001
1000
0010
0100
,
0001
1000
0001
0200
,
0010
0000
0310
0020
,
1000
0000
1030
0001
,
0010
0001
1000
0100
,
0010
0001
0100
0010
,
0000
0010
0000
1000
,
0001
1000
0000
0200
,
0000
0000
0300
0020
,
0000
0000
0030
2000
,
0000
0000
3000
0002
,
0000
0000
0003
0010
,
0001
0010
0000
0100
,
1000
0100
0000
1000
,
0010
0100
0000
2002
,
0000
0000
0000
3003
0000
0000
0001
0000
,
0100
0001
0000
1000
,
0010
1000
0000
0010
,
0100
0010
0100
1001
,
0000
0110
0000
1000
,
0100
0010
0100
0010
,
0001
0100
0000
0020
,
0000
0000
0030
1000
,
0001
0000
0101
0010
,
0100
0010
1000
0100
,
0010
0100
1000
0001
,
1000
0010
1000
0100
,
0010
0000
0002
0000
,
0103
0010
2000
0000
,
3100
0000
0010
0000
0001
0000
0000
0010
,
0000
0100
0000
2200
0000
0000
0000
0000
,
3300
0000
0010
0100
,
0001
0100
0010
1000
,
0100
0010
0001
1000
,
0001
0010
0001
1000
,
0100
0000
0010
0100
,
1000
0001
0100
0010
,
0110
0000
0001
0010
,
0001
0100
0001
1000
,
0100
0000
1000
0010
,
1000
0001
1000
0100
,
0010
0000
0001
0100
,
0010
1000
0100
0010
,
0001
0000
0100
0010
,
0100
0001
1000
0100
,
0010
0000
0002
0000
,
0000
0000
0003
0100
0000
0010
0010
0000
,
0000
1000
0010
0100
,
0010
1000
0001
0010
,
0001
1000
0100
0010
,
0001
0010
0100
1000
,
0000
0010
0100
0001
,
1000
0100
0001
0100
,
1000
0000
0010
0000
0000
0100
0000
0001
,
0000
2002
0000
0000
0000
0000
3003
0000
,
0000
0010
0001
0100
,
0010
1000
0010
0001
,
0010
1000
0001
0100
,
0010
1000
0001
0011
,
0000
2000
0010
0000
,
3010
0100
0001
0010
,
0001
0000
0010
0000
0000
0100
0000
1000
,
0000
0001
0000
0100
0000
0010
0000
0000
,
1001
0000
0000
0000
;

//---------------dance-single - ----------------
#NOTES:
     dance-single:
     :
     Medium:
     12:
     0.558730,0.552381,0.287831,0.245503,0.059259,462.000000,428.000000,34.000000,29.000000,0.000000,0.000000,0.558730,0.552381,0.287831,0.245503,0.059259,462.000000,428.000000,34.000000,29.000000,0.000000,0.000000:
0000
0000
0000
0000
,
0000
0000
0000
0000
,
0000
0000
0000
0000
,
0000
0000
0000
0000
,
0001
0000
0101
0000
0010
0100
0010
1000
,
0000
1000
0001
0000
0010
0100
1000
0010
,
0200
0000
0001
0000
0001
0000
0301
0001
,
0000
0000
0020
0000
0200
0330
0000
0000
0000
0000
0000
0000
1100
0000
0000
0000
,
0001
0010
0000
0010
0001
1000
0010
0000
,
1000
0100
0000
0100
1000
0001
0000
0010
,
0001
0000
0000
0000
0100
0000
0010
0000
0100
0000
0000
0000
0001
0000
0000
1000
,
0000
0000
0001
0000
0000
0000
1000
0000
0100
0000
0000
0000
0010
0000
0000
0001
,
0000
1000
0000
0010
0100
0000
2010
0000
,
3002
0000
0023
0000
0130
0000
1000
1000
,
0000
0010
0000
0100
0000
0110
0000
0001
,
1000
0000
0100
0010
0001
0000
1100
0000
,
0001
1000
0000
1000
0010
0100
0001
0000
,
0100
0001
0000
0001
1000
0100
0000
0010
,
0100
0000
0000
0000
1000
0000
0001
0000
0100
0000
0000
0000
0010
0000
0000
1000
,
0000
0000
0001
0000
0000
0000
0100
0000
0100
0000
0000
0000
0011
0000
0000
0001
,
0000
0010
0000
0100
1000
0010
0100
0001
,
1000
0000
0010
0100
0001
0000
0010
0001
,
0100
0010
0000
1010
0000
1000
0000
1001
,
0000
0020
0000
0100
0130
0000
0001
0010
,
0001
1000
0001
0000
1000
0100
0000
1000
,
0001
0000
0010
0100
0010
0000
0001
0100
,
0010
1000
0010
0100
0000
0001
1000
0100
,
0010
0100
0000
1000
1000
0000
0010
1000
,
0001
1000
0010
0000
0100
0001
1000
0001
,
0100
0010
0000
0010
1000
0000
0000
0100
,
0100
0000
0010
0010
0000
0001
0000
0011
,
0000
1100
0000
0001
1000
0000
0010
0000
,
0100
0000
0010
0100
0000
0001
0000
0001
,
0010
0200
0000
0000
1300
0000
1000
0000
,
0010
0000
0100
0001
0000
1000
0000
1000
,
0100
0020
0000
0000
0031
0000
0001
0000
,
0100
0000
0010
0100
0000
0001
0000
0010
,
0000
0100
0000
0010
0001
0000
2000
0000
,
0000
3010
0000
0100
0000
0202
0000
0000
,
0000
0000
0303
0010
,
1000
0000
0100
0010
0100
1000
0000
0001
,
0010
0000
0000
0000
0001
0000
0000
0000
0100
0000
0000
0000
0010
0000
0000
1000
,
0000
0000
0001
0000
1000
0000
0000
0100
0000
0000
0010
0000
0001
0000
0000
0000
,
0000
0001
0100
0010
1000
0000
0010
0100
,
0001
0000
1000
0001
0010
0100
0000
0100
,
0010
0001
0000
1000
0010
0000
0100
0001
,
1000
0010
1000
0100
0010
0001
1000
0001
,
2000
3000
0000
0000
0000
0000
0000
0000
1001
0000
0000
0000
0010
0000
0100
0000
,
0000
0100
0010
1000
0001
0000
0001
0010
,
0000
0010
0001
1000
0000
0100
1000
0100
,
0010
0000
0000
0000
0001
0000
0000
0000
0100
0000
0000
0010
0000
0000
0110
0000
,
0000
0000
0001
0000
0001
0000
0000
0000
1000
0000
0000
0100
0000
0000
0010
0000
,
0000
0001
1000
0000
1020
0000
0230
0000
,
0302
0000
0013
0000
0100
0100
0000
0010
,
0000
0100
0000
1001
0000
0000
0010
0000
,
0100
0010
0100
0000
0110
0000
0001
1000
,
0000
1000
0001
0010
0100
0000
1000
0010
,
0000
0010
1000
0001
0000
0010
0001
0000
,
0100
0000
0010
0000
1000
0000
0000
0000
0001
0000
0000
1000
0000
0000
1001
0000
,
0000
0000
0010
0000
0010
0000
0000
0000
0100
0000
0000
0001
0000
0000
1000
0000
,
0000
0100
0010
0000
0001
0100
0010
1000
,
0200
0000
0310
0000
0001
0010
0000
0001
,
0000
1001
0000
0100
0000
0110
0000
0020
,
0000
1000
1030
0000
0001
0000
0011
0000
,
1000
0100
0010
0100
0000
1000
0001
0000
,
0100
0010
0001
0000
0010
0000
1010
0000
,
0001
0010
0100
0010
0000
0001
1000
0000
,
0010
0100
1000
0000
0100
0000
1001
0000
,
0010
0100
0010
1000
0000
0001
0010
0000
,
0001
1000
0100
0000
1000
0001
0010
0001
,
1000
0000
0100
0000
0010
0000
0001
0000
0000
0000
0002
0000
0200
0303
0000
0000
,
0000
0000
0110
0000
0001
1000
0000
1000
,
0100
0000
0011
0000
1000
0001
0000
0001
,
0010
0100
0000
1000
0001
0000
1000
0001
,
0100
0000
0010
0000
1000
0000
0000
0100
0000
0000
0020
0000
0000
0000
0001
0000
,
0031
0000
0000
0000
0100
0000
0000
0010
0000
0000
1000
0000
0000
0000
0001
0000
,
1000
1200
0320
0032
,
1003
0000
0010
0100
0000
1001
0000
0110
,
0000
2002
0000
0000
0000
0000
3003
0000
,
0000
0000
1010
0000
0001
0010
0000
0010
,
0001
1000
0100
0000
0100
1000
0000
0010
,
0100
0010
0000
1000
0001
1000
0100
0010
,
0001
0000
0000
0000
0010
0000
0000
0100
0000
0000
0110
0000
0000
0000
0001
0000
,
1000
0000
0000
0000
0010
0000
0000
0100
0000
0000
0010
0000
0000
0000
1000
0000
,
0100
1020
0230
0302
,
0013
0000
0100
0100
0000
1000
0000
1010
,
0000
0001
0000
0011
0000
1001
0000
0100
,
0010
0000
0000
0000
;

//---------------dance-single - ----------------
#NOTES:
     dance-single:
     :
     Hard:
     16:
     0.845352,0.846984,0.507937,0.304762,0.321693,699.000000,639.000000,60.000000,36.000000,0.000000,0.000000,0.845352,0.846984,0.507937,0.304762,0.321693,699.000000,639.000000,60.000000,36.000000,0.000000,0.000000:
0000
0000
0000
0000
,
0000
0000
0000
0000
,
0000
0000
0000
0000
,
0000
0000
0000
0000
,
1000
0001
0011
0000
0001
0100
0010
1010
,
0000
1000
0001
0010
0001
0100
1000
0100
,
0010
0000
1000
0000
0100
0000
0010
0000
0001
1000
0001
1000
0010
0000
0100
0000
,
0000
0000
0010
0000
2002
3003
0000
0000
0100
0010
1000
0001
0010
0000
0001
0000
,
0010
2000
3010
0001
0100
1000
0100
0001
,
0100
0000
0002
0000
1003
0000
0010
0000
0001
0000
0010
0000
1000
0000
0001
1000
,
0001
0000
0010
0100
0010
0000
0100
1000
0100
0000
0010
0000
0001
0000
0000
1100
,
0000
0000
0002
0000
0000
0000
0013
0000
0010
0100
1000
0000
0010
0000
0000
0110
,
0000
0001
1000
0010
0100
0010
1000
0100
,
1100
0000
0001
0100
0101
0000
0110
0110
,
0000
1010
0000
0011
0000
0110
0000
1000
,
0001
0000
1000
0000
0001
0000
0010
0000
0100
1000
0001
0010
0001
0000
0100
0000
,
2000
3100
0001
0100
0001
1000
0010
1000
,
0010
0000
0002
0000
0013
0000
1000
0000
0001
0000
1000
0000
0100
0000
0010
0100
,
0010
0000
0001
0100
0001
0000
1000
0010
1000
0000
0001
0000
0010
0000
0000
0101
,
0000
0000
2000
0000
0000
0000
3001
0000
0001
0010
0100
0000
1000
0000
0000
0011
,
0000
0100
0010
1000
0001
1000
0010
0100
,
0001
0000
0010
0000
0001
1000
0010
1000
0001
0000
0100
0000
0010
0000
1000
0000
,
0001
0010
1000
0001
0100
1000
0010
1000
,
0001
0000
0100
0000
1000
0000
0001
0000
0010
0000
0100
0010
0100
0000
0010
0000
,
1000
0001
0100
0010
1000
0100
0001
0100
,
1000
0001
0010
1000
0010
0001
0100
0010
,
1000
0001
0010
0100
1000
0001
0100
0010
,
1000
0001
0000
0001
1100
0000
0010
1000
,
0100
1000
0010
1000
0000
0001
0010
0001
,
0100
0001
0010
0001
1000
0100
0000
0001
,
0101
0000
0010
1010
0000
1100
0000
1000
,
1001
0000
0010
0000
0100
0000
0010
0000
1000
0000
0001
1000
0002
0000
0000
0000
,
0010
0000
0100
0103
0020
1000
0000
1030
,
0200
1000
0000
0010
0310
0000
2100
0000
,
0001
0000
3010
0010
0100
0020
0000
1030
,
0200
1300
0000
0000
0101
0000
0021
0000
,
0100
0000
0031
0100
0001
2000
0000
3010
,
0000
0210
0000
0301
0100
1000
1100
0000
,
0001
0011
0000
1100
0000
1020
0000
0100
,
0100
0100
0130
0001
1000
0001
1000
0100
,
0010
0100
1000
0001
0010
1000
0100
0010
,
0001
0000
0100
0000
1000
0000
0001
0000
0010
0000
0001
0100
0001
0000
1000
0010
,
0000
1000
0100
0000
1000
0000
0010
0100
0000
0001
1000
0000
0020
0000
0000
0000
,
0130
0001
1000
0010
0001
0010
1000
0100
,
0010
0001
0100
0010
1000
0001
0100
1000
,
0001
0010
1000
0100
0001
1000
0010
0001
,
0100
0000
0010
0000
1000
0001
1000
0001
0010
0100
0010
0100
0010
0000
0100
0000
,
2002
3003
0000
0000
0010
0100
0001
1000
0010
0000
0100
0000
0010
0000
0002
0000
,
0013
1000
0100
1000
0010
0100
0010
0002
,
0013
0000
0100
0000
0001
0000
0010
0000
0100
0000
1000
0100
1000
0000
0001
0010
,
0001
0000
1000
0001
1000
0000
0010
0000
0100
0000
0000
0001
0000
0000
0011
0000
,
0000
0000
1000
0000
0010
0000
0100
0000
0001
0000
1000
0010
0000
1000
0100
0000
,
0010
0100
1000
0001
0100
0010
1010
0000
,
0001
0010
0011
0000
1001
1001
0000
1100
,
0000
0101
0000
0110
0000
0010
1000
0001
,
1000
0000
0010
0000
0100
0001
0010
0100
1000
0000
0100
0000
0001
0000
0200
0000
,
1300
0001
0010
1000
0010
0001
0100
2000
,
3100
0000
0010
0000
1000
0000
0001
0000
0010
0000
0001
0100
0001
0000
1000
0010
,
1000
0000
0001
0010
0001
0000
0100
0000
0010
0000
0000
1010
0000
0000
0002
0000
,
0000
0000
0013
0000
0100
0000
1000
0000
0010
0000
0100
0010
0000
1000
0001
0000
,
0010
0001
1000
0100
0010
0100
1000
0001
,
0100
0010
0100
0010
1000
0000
0001
0000
0010
0000
0001
0000
1000
0000
0100
0000
,
0001
1000
0010
0001
0000
1100
0000
1010
,
0000
0000
0100
0000
0001
0000
0010
0001
1000
0000
0010
0000
0100
0000
0010
0000
,
1000
0100
0001
0100
0000
0100
1000
0010
,
0100
0000
0001
0010
0001
0000
1000
0000
0010
0000
1000
0000
0001
0000
0100
0000
,
0010
1000
0001
0010
1000
0010
0001
1000
,
0100
0010
0001
0000
0011
0000
0101
0000
,
0010
1000
0010
0110
0000
1000
0010
0100
,
0001
0000
1000
0100
1000
0000
0010
0000
0100
0000
0001
0000
1000
0000
0100
0000
,
1000
0001
1000
0001
0010
0100
0010
0000
0000
0000
0010
0000
2002
3003
0000
0000
,
0100
0001
1000
0010
0100
0000
1000
0000
0100
0000
0002
0000
0103
0000
0010
0000
,
0100
0001
1000
0100
1000
0020
1030
0001
,
0010
0000
0001
0000
1000
0000
0010
0100
0010
0000
1000
0100
1000
0000
0001
0010
,
0001
0000
1000
0000
0001
0000
0000
0110
0000
0000
1001
0000
0000
0000
0001
0000
,
1000
0100
0010
0000
0001
0000
0100
0001
0000
1000
0001
0000
0010
0000
0100
0000
,
1000
1020
0031
1020
,
0130
0000
0001
0011
0000
0101
0000
1100
,
0000
1020
0000
0100
0200
0000
0330
0000
,
0001
0100
0010
1000
0100
0000
0010
0000
0100
0000
2000
0000
3100
0000
0001
0000
,
0100
0010
0001
1000
0001
0020
0031
0100
,
0010
0000
1000
0000
0001
0000
1000
0100
1000
0000
0001
0010
0001
0000
0100
0010
,
0100
0000
0001
0000
0010
0000
0000
1100
0000
0000
0010
0000
0000
0000
0100
0000
,
0001
1000
0010
0000
1000
0000
0100
1000
0000
0001
1000
0000
0100
0000
0010
0000
,
0001
1000
0001
1000
0010
0000
0100
0000
0101
0000
0000
0000
0010
0000
1000
0000
,
1100
0100
0010
0110
0000
0011
0000
0101
,
0000
0000
1100
0000
0000
0000
1010
0000
0000
0000
1001
0000
0000
0000
0100
0010
,
0001
0000
0000
0000
;

//---------------dance-double - ----------------
#NOTES:
     dance-double:
     :
     Easy:
     7:
     0.307181,0.331429,0.093122,0.220106,0.000000,254.000000,243.000000,11.000000,26.000000,0.000000,0.000000,0.307181,0.331429,0.093122,0.220106,0.000000,254.000000,243.000000,11.000000,26.000000,0.000000,0.000000:
00000000
00000000
00000000
00000000
,
00000000
00000000
00000000
00000000
,
00000000
00000000
00000000
00000000
,
00000000
00000000
00000000
00000000
,
01100000
00000000
00000000
00000000
00010000
00000000
00000000
10000000
,
00000000
00010000
00000000
10000000
00000000
00000000
00100000
00000000
,
00001000
00000000
00010000
00000000
00001000
00000000
00000000
00010000
,
00000000
00001000
00010000
00000000
00000000
00000000
00000010
00000000
,
00000100
00000001
00000100
00000010
,
00001000
00000100
00000000
00010000
,
00001000
00100000
00010000
01000000
,
00100000
00100000
00000000
10000000
,
01000000
00100000
00000000
00020000
,
00230000
00302000
00013000
00000010
,
00000000
00001000
00000000
00000001
00000000
00002002
00000000
00000000
,
00000000
00003003
00000000
00000010
,
00010000
00000100
00010000
00001000
,
00100000
00010000
00000000
10000000
,
00010000
00100000
01000000
10000000
,
00010000
01000000
00000000
00010000
,
00100000
00001000
00010000
00000010
,
00000100
00000001
00000000
00000001
,
00000000
00000010
00000000
00000100
,
00010000
00000100
00000000
00010000
,
00001000
00100000
00000000
00010000
,
10000000
00100000
00000000
10000000
,
01000000
00010000
00000000
00010000
,
01000000
10000000
00000000
00010000
,
00100000
00001000
00000000
00010000
,
00000010
00000000
00000100
00000000
00000000
00000000
00000000
00000001
,
00000000
00000000
00001000
00000000
00000000
00000010
00000000
00000000
,
00000010
00020000
00000000
00031000
,
00000000
00001000
00000000
00002000
,
00000000
00003000
00000000
00100000
,
00000000
00100000
00000000
00200000
,
00000000
00300000
00000000
10000000
,
00000000
00010000
00000000
00100000
,
00000000
00001000
00000000
00020000
,
00000000
00000000
00030000
00000020
,
00000000
00000000
00000030
00001000
,
00000100
00010000
00000100
00010000
,
00001000
00100000
00000000
00020000
,
00000000
10030000
00000000
20200000
,
00000000
30300000
00000000
01000000
,
00010000
00100000
00001000
00010000
,
00001000
00100000
00000000
00010000
,
00000100
00001000
00000010
00000100
,
00000110
00000000
00000001
00000010
,
00000100
00000010
00000001
00001000
,
00000010
00000000
00010000
00000100
,
00001000
00000100
00010000
00001000
,
00100000
00000000
00010000
01000000
,
01000000
00000000
00200000
20300000
,
32000000
00000000
03100000
00000000
00010000
00000000
00000000
00100000
,
00000000
00001000
00000000
00020000
00000000
00000000
00000000
00000000
,
00030000
00000000
00000010
00001000
,
00000100
00001000
00000001
00000010
,
00000100
00000000
00010000
00001000
,
00100000
00010000
10000000
00100000
,
10000000
00000000
00010000
01000000
,
00100000
10000000
00010000
00100000
,
00002000
00000000
00013000
00000000
,
00000100
00000000
00001000
00000001
,
00001000
00000000
00000001
00000010
,
00000001
00001000
00000010
00010000
,
00001000
00000000
00010000
00001000
,
00100000
00010000
10000000
01000000
,
01000000
00000000
11000000
00000000
,
00110000
00000000
01000000
00001000
,
00010000
00000100
00020000
00000000
,
00032000
00000000
00000000
00003000
00000000
00000000
00011000
00000000
,
00000000
00001000
00010000
00000010
,
00001000
00000001
00000010
00000100
,
00000000
00010000
00001000
00100000
,
01000000
10000000
00010000
01000000
,
00000000
00100000
00000000
00100000
,
10000000
00020000
00230000
00302000
,
00000000
00000000
00013000
00000000
00000000
00001000
00000000
00010000
,
00000000
00000020
00000000
00000000
00000000
00000000
00000030
00000000
,
00000000
00001000
00000001
00000010
,
00000100
00010000
00001000
01000000
,
00000000
00010000
00100000
01000000
,
10000000
00010000
01000000
00001000
,
00000000
00022000
00000000
00033000
,
00000000
00101000
00000000
10010000
,
00000000
00000000
00100000
00000000
00000000
01000000
00000000
01000000
,
00000000
00001000
00000000
00001000
00000000
00010000
00000000
00000000
,
00011000
00000000
00000000
00000000
;

//---------------dance-double - ----------------
#NOTES:
     dance-double:
     :
     Medium:
     12:
     0.536961,0.515556,0.338624,0.313228,0.059259,444.000000,404.000000,40.000000,37.000000,0.000000,0.000000,0.536961,0.515556,0.338624,0.313228,0.059259,444.000000,404.000000,40.000000,37.000000,0.000000,0.000000:
00000000
00000000
00000000
00000000
,
00000000
00000000
00000000
00000000
,
00000000
00000000
00000000
00000000
,
00000000
00000000
00000000
00000000
,
00000010
00000000
00010010
00000000
00001000
00000100
00010000
00000100
,
00000000
00100000
00001000
00000000
01000000
00010000
10000000
00000000
,
00100000
01000000
00100000
00000000
10000000
01000000
00100000
00010000
,
00000000
00000000
00000000
00010000
00000000
00000000
02000000
03000000
00000000
00000000
00000000
00000000
00000000
00000000
00000000
00000000
00000000
00000000
00011000
00000000
00000000
00000000
00000000
00000000
,
00010000
00000010
00000000
00000010
00001000
00000100
00010000
00000000
,
00001000
00100000
00000000
00100000
00001000
00010000
00000000
00010000
,
01000000
00000000
00000000
00000000
10000000
00000000
00100000
00000000
01000000
00000000
00000000
00000000
00010000
00000000
00000000
00100000
,
00000000
00000000
00102000
00000000
00000000
00000000
00000000
00000000
00013000
00000000
00000000
00000000
00000010
00000000
00000000
00000100
,
00000000
00000010
00000000
00001000
00001000
00000000
00000002
00000000
,
00000023
00000000
00002030
00000000
00003010
00000000
00000001
00000001
,
00000000
00010000
00000000
00000100
00000000
00002200
00000000
00000000
,
00000000
00000000
00003300
00010000
,
00001000
01000000
00000000
01000000
00001000
00000000
00010000
00000000
,
00000100
00001000
00000000
00001000
00000100
00010000
00000000
00001000
,
00010000
00000000
00000000
00000000
00000010
00000000
00001000
00000000
00000010
00000000
00000000
00000000
00000100
00000000
00000000
00000001
,
00000000
00000000
00000011
00000000
00000000
00000000
00000000
00000000
00001000
00000000
00000000
00000000
00000010
00000000
00000000
00010000
,
00000000
00001000
00000000
00010000
00001000
00100000
00020000
00000000
,
20030000
00000000
30200000
00000000
01300000
00000000
00010000
00010000
,
00000000
10000000
00000000
11000000
00000000
00010000
00000000
00110000
,
00000000
01000000
00000000
00001000
00010000
00000000
00001000
00010000
,
00000010
00010000
00001000
00000000
00000100
00000001
00000000
00000001
,
00000010
00000000
00000001
00001000
00000010
00000000
00010000
00001000
,
00100000
00001000
00010000
00000000
00001000
01000000
00000000
01000000
,
00010000
00000000
00100000
01000000
20000000
00000000
30010000
00100000
,
10000000
00100000
00010000
00000000
10000000
00100000
00010000
00100000
,
10000000
00000000
00010000
00100000
00010000
00000000
00000000
01000000
,
00001000
00000000
00010000
00000100
00000000
00010000
00000000
00011000
,
00000000
00000010
00000000
00001000
00000001
00000000
00000020
00000000
,
00000100
00000000
00000031
00001000
00000010
00010000
00000000
00000100
,
00010000
00000200
00000000
00000000
00001300
00000000
00000020
00000000
,
00010000
00000000
00001030
00000100
00010000
00001000
00000000
00001000
,
00100000
00010000
00000000
00000000
10010000
00000000
02000000
00000000
,
00100000
00000000
03010000
00000000
00100000
01000000
00000000
10000000
,
00000000
10010000
00000000
00100000
00010000
00000000
01010000
00000000
,
00000000
00100000
00000000
00001000
00000000
00022000
00000000
00000000
,
00000000
00000000
00000000
00033000
00000000
00000000
00000010
00010000
,
00001000
00000000
00010000
00000100
00001000
00000001
00000000
00000010
,
00000001
00000000
00000020
00000000
00000000
00000000
00000001
00000000
00000031
00000000
00000000
00000000
00001000
00000000
00000000
00000100
,
00000000
00000000
00010000
00000000
00001000
00000000
00000000
01000000
00000000
00000000
00100000
00000000
10000000
00000000
00000000
00000000
,
00000000
10000000
00100000
01000000
00010000
00000000
00100000
00001000
,
00010000
00000000
00000100
00001000
00000010
00000000
00000100
00000001
,
00000010
00000000
00000100
00010000
00001000
00000000
00010000
00100000
,
01000000
10000000
00010000
10000000
00100000
00000000
01000000
00001000
,
02000000
03000000
00000000
00000000
00000000
00000000
00000000
00000000
00000000
00000000
00000000
00000000
10010000
00000000
00000000
00000000
00000000
00000000
00100000
00000000
00000000
00001000
00000000
00000000
,
00000000
00001000
01000000
00001000
00010000
00000000
00000010
00000100
,
00000000
00000100
00000001
00000100
00000000
00000010
00010000
00000000
,
00001000
00000000
00100000
00000000
00010000
00000000
00000000
00000000
10000000
00000000
00000000
01000000
00000000
00000000
01100000
00000000
,
00000000
00000000
00000000
00000000
00010000
00000000
00000000
00000000
00100000
00000000
00000000
00001000
00000000
00000000
00010000
00000000
,
00000000
00000010
00000100
00000000
00000201
00000000
00000310
00000000
,
00002010
00000000
00003100
00000000
00010000
00000010
00000000
00001000
,
00000000
00000001
00000000
00002002
00000000
00000000
00000000
00000000
,
00003003
00000000
00000000
00000000
00000110
00000000
00010000
00001000
,
00000000
00001000
00100000
00001000
00010000
00000000
00000010
00000100
,
00000000
00000100
00000001
00000010
00000000
00000010
00001000
00000000
,
00010000
00000000
00001000
00000000
01000000
00000000
00000000
00000000
00100000
00000000
00000000
10000000
00000000
00000000
10010000
00000000
,
00000000
00000000
00000000
00000000
00100000
00000000
00000000
00000000
10000000
00000000
00000000
00010000
00000000
00000000
00100000
00000000
,
00001000
01000000
00010000
00000000
00201000
00000000
00310000
00000000
,
10200000
00000000
01300000
00000000
10000000
10000000
00000000
00010000
,
00000000
00110000
00000000
01000000
00000000
01100000
00000000
20000000
,
00000000
00010000
30010000
00000000
00100000
00000000
00101000
00000000
,
00010000
00001000
01000000
00001000
00000000
00010000
00001000
00000000
,
00010000
00000010
00001000
00000000
00000001
00000000
00000011
00000000
,
00001000
00000010
00000100
00000010
00000000
00010000
00000000
00022000
,
00000000
00033000
00001100
00000000
,
00000011
00000000
00000000
00000001
00000000
00001000
00000010
00000000
,
00010000
00001000
00010000
00000000
00001000
00100000
00010000
10000000
,
01000000
00000000
00000000
00100000
00000000
00000000
00010000
00000000
00000000
10000000
00000000
00000000
00000000
00000000
00000000
00100000
00000000
00000000
02000000
03000000
00000000
00000000
00000000
00000000
,
00000000
00000000
00101000
00000000
00010000
00000010
00000000
00000010
,
00000100
00000001
00000010
00000000
00000100
00001000
00000000
00001000
,
00000010
00010000
00000000
00010000
00000100
00001000
00000100
00010000
,
00001000
00000000
00000000
00000000
00100000
00000000
00000000
00010000
00000000
00000000
10010000
00000000
00000000
00000000
00000000
00000000
,
01000000
00000000
00000000
00000000
00010000
00000000
00000000
00100000
00000000
00000000
01000000
00000000
00000000
00000000
10000000
00000000
,
00100000
10020000
00130000
02001000
,
03010000
00000000
00100000
00001000
00000000
00010000
00000000
00000010
,
00000000
00000220
00000000
00000000
00000000
00000330
00000000
00000000
,
00000000
00000000
00000001
00000010
00000100
00001000
00000000
00000010
,
00010000
00000000
00000100
00010000
00001000
00010000
00000000
00000010
,
00001000
00000000
00000001
00001000
00000010
00000000
00010000
00000100
,
00001000
00000000
00000000
00000000
00000010
00000000
00000000
00010000
00000000
00000000
00022000
00000000
00000000
00000000
00000000
00000000
,
00033000
00000000
00000000
00000000
00100000
00000000
00000000
00010000
00000000
00000000
10000000
00000000
00000000
00000000
00100000
00000000
,
01000000
10020000
00130000
02010000
,
03001000
00000000
00010000
00000100
00000000
00001000
00000000
00001001
,
00000000
00000010
00000000
00010010
00000000
00011000
00000000
00000000
,
10010000
00000000
00000000
00000000
;

//---------------dance-double - ----------------
#NOTES:
     dance-double:
     :
     Hard:
     16:
     0.811489,0.846984,0.533333,0.287831,0.287831,671.000000,608.000000,63.000000,34.000000,0.000000,0.000000,0.811489,0.846984,0.533333,0.287831,0.287831,671.000000,608.000000,63.000000,34.000000,0.000000,0.000000:
// measure 0
00000000
00000000
00000000
00000000
,  // measure 1
00000000
00000000
00000000
00000000
,  // measure 2
00000000
00000000
00000000
00000000
,  // measure 3
00000000
00000000
00000000
00000000
,  // measure 4
01000000
00100000
10100000
00000000
00100000
00001000
00010000
00011000
,  // measure 5
00000000
00000010
00001000
00000100
00000001
00000100
00001000
00000010
,  // measure 6
00010000
00000000
00001000
00000000
00100000
00000000
00010000
00000000
10000000
00010000
00100000
01000000
10000000
00000000
00100000
00000000
,  // measure 7
00000000
00000000
00000000
00000000
00000000
00000000
01000000
00000000
00000000
00000000
00000000
00000000
20020000
00000000
30030000
00000000
00000000
00000000
00000000
00000000
00000000
00000000
00000000
00000000
00100000
00000000
00000000
01000000
00000000
00000000
10000000
00000000
00000000
00010000
00000000
00000000
00100000
00000000
00000000
00000000
00000000
00000000
01000000
00000000
00000000
00000000
00000000
00000000
,  // measure 8
10000000
02000000
13000000
01000000
00010000
01000000
10000000
00010000
,  // measure 9
00100000
00000000
02000000
00000000
03100000
00000000
00010000
00000000
10000000
00000000
00010000
00000000
00100000
00000000
00001000
00010000
,  // measure 10
00001000
00000000
00010000
00000010
00010000
00000000
00000010
00000100
00000010
00000000
00001000
00000000
00000001
00000000
00000000
00000011
,  // measure 11
00000000
00000000
00001100
00000000
00000000
00000000
00010000
00000000
00001000
00000000
00000000
00000000
00010000
00000000
00000010
00001000
,  // measure 12
00000000
00000010
00000100
00000000
00000001
00000000
00000010
00000000
00000100
00000000
00000000
00000000
00002001
00000000
00000000
00000000
,  // measure 13
00003010
00000000
00001002
00000000
00000103
00000000
00000010
00001010
,  // measure 14
00000000
00011000
00000000
00010100
00000000
00101000
00000000
00010000
,  // measure 15
00001000
00000000
00100000
00000000
00001000
00000000
00010000
00000000
00000010
00001000
00000100
00000010
00000001
00000000
00000010
00000000
,  // measure 16
00001000
00000020
00000031
00000100
00000010
00000100
00000001
00000100
,  // measure 17
00001000
00000000
00000200
00000000
00000310
00000000
00010000
00000000
00000100
00000000
00010000
00000000
00001000
00000000
00100000
00010000
,  // measure 18
00100000
00000000
00010000
01000000
00010000
00000000
01000000
00100000
01000000
00000000
00100000
00000000
10000000
00000000
00000000
10100000
,  // measure 19
00000000
00000000
00110000
00000000
00000000
00000000
00010000
00000000
00100000
00000000
00000000
00000000
00001000
00000000
00010000
00001000
,  // measure 20
00000000
01000000
00001000
00000000
00010000
00000000
00000100
00000000
00001000
00000000
00000001
00000000
00000010
00000000
00000100
00000000
,  // measure 21
00001000
00000000
00000010
00000000
00001000
00000100
00010000
00000100
00001000
00000000
00000001
00000000
00000010
00000000
00000001
00000000
,  // measure 22
00000100
00001000
00000001
00000010
00001000
00000010
00010000
00001000
,  // measure 23
00010000
01000000
10000000
00010000
10010000
00000000
01000000
00010000
,  // measure 24
00100000
00010000
10000000
00100000
00000000
00100000
10000000
01000000
,  // measure 25
00010000
01000000
10000000
00010000
00100000
00000000
00000010
00010000
,  // measure 26
00001000
00010000
00000010
00001000
00000000
00001000
00000100
00000001
,  // measure 27
00000100
00010000
00000010
00010000
00011000
00000000
00001000
00100000
,  // measure 28
00010000
10000000
00100000
10000000
00000000
10000000
01000000
00010000
,  // measure 29
00001000
00010000
00000010
00000100
00000100
00000010
00000000
00010000
,  // measure 30
00010100
00000000
00000001
00000101
00000000
00001010
00000000
00011000
,  // measure 31
00000000
00000000
00110000
00000000
00000000
00000000
00010000
00000000
01000000
00000000
00100000
10000000
02000000
00000000
00000000
00000000
,  // measure 32
00010000
00000000
13000000
00010000
00100000
00001000
00000000
00001000
,  // measure 33
00010000
00000020
00000000
00001000
00001030
00000000
00000201
00000000
,  // measure 34
00001300
00000000
00000100
00000010
00010000
00000001
00000000
00000010
,  // measure 35
00000100
00020000
00000000
00031000
00011000
00000000
00210000
00000000
,  // measure 36
10300000
00000000
00100000
00010000
10000000
00100000
00000000
10000000
,  // measure 37
00010000
01000000
00001000
00010000
00001000
00000000
00010010
00000000
,  // measure 38
00000000
00000100
00000000
00000001
00000000
00001001
00000000
00000100
,  // measure 39
00000100
00000100
00000010
00000000
00000010
00010000
00001000
00010000
,  // measure 40
01000000
00010000
00001000
00010000
00000100
00001000
00000010
00010000
,  // measure 41
00001000
00000000
00010000
00000000
01000000
00000000
00100000
00000000
00010000
00000000
10000000
00100000
10000000
00000000
00010000
00100000
,  // measure 42
00000000
00010000
01000000
00000000
00100000
00000000
00001000
00010000
00000000
00001000
00100000
00000000
00000200
00000000
00000000
00000000
,  // measure 43
00001300
00000010
00010000
00001000
00000100
00000000
00000001
00000010
,  // measure 44
00001000
00000001
00000100
00001000
00000010
00010000
00001000
00100000
,  // measure 45
01000000
00010000
01000000
10000000
00100000
00010000
00100000
10000000
,  // measure 46
00010000
00000000
00100000
00000000
00010000
10000000
00010000
10000000
01000000
00100000
01000000
00100000
00010000
00000000
00100000
00000000
,  // measure 47
00202000
00000000
00303000
00000000
00000000
00000000
00000000
00000000
00000000
00000000
00000000
00000000
00010000
00000000
00000000
00000010
00000000
00000000
00010000
00000000
00000000
00000010
00000000
00000000
00001000
00000000
00000000
00000000
00000000
00000000
00000100
00000000
00000000
00000000
00000000
00000000
00000001
00000000
00000000
00000000
00000000
00000000
00000200
00000000
00000000
00000000
00000000
00000000
,  // measure 48
00001300
00000010
00010000
00000100
00010000
01000000
00100000
02000000
,  // measure 49
03010000
00000000
00001000
00000000
00100000
00000000
00010000
00000000
10000000
00000000
00100000
10000000
00100000
00000000
01000000
00010000
,  // measure 50
01000000
00000000
00100000
00001000
00100000
00000000
00001000
00000000
00010000
00000000
00000000
00010100
00000000
00000000
00001010
00000000
,  // measure 51
00000000
00000000
00000010
00000000
00000100
00000000
00000000
00000000
00000011
00000000
00000000
00010000
00000000
00000000
00000100
00000000
,  // measure 52
00001000
00000010
00010000
00000000
00020100
00000000
00030010
00000000
,  // measure 53
01002000
00000000
00103000
00000000
00010000
10010000
00000000
10100000
,  // measure 54
00000000
01001000
00000000
00011000
00000000
00010000
00001000
00100000
,  // measure 55
00010000
00000000
10000000
00000000
00010000
00100000
01000000
10000000
00100000
00000000
10000000
00000000
00100000
00000000
00020000
00000000
,  // measure 56
00130000
01000000
00001000
00100000
00000100
00001000
00000100
00020000
,  // measure 57
00030010
00000000
00000100
00000000
00000001
00000000
00000010
00000000
00000100
00000000
00010000
00001000
00010000
00000000
00001000
00100000
,  // measure 58
00001000
00000000
01000000
00010000
01000000
00000000
00100000
00000000
10100000
00000000
00000000
11000000
00000000
00000000
10010000
00000000
,  // measure 59
00000000
00000000
00100000
00000000
00100000
00000000
00000000
00000000
01001000
00000000
00000000
00010000
00000000
00000000
00000100
00000000
,  // measure 60
00001000
00000001
00000010
00000100
00010000
00001000
00100000
00010000
,  // measure 61
10000000
00100000
01000000
00001000
00010000
00000000
01000000
00000000
10000000
00000000
00100000
00000000
00010000
00000000
10000000
00000000
,  // measure 62
01000000
00010000
00100000
00001000
00000100
00001000
00010000
00000010
,  // measure 63
00000100
00000000
00000001
00000000
00001000
00000000
00000001
00000010
00000001
00000000
00000000
00000000
00010100
00000000
00000000
00000000
,  // measure 64
00001000
00000010
00001000
00000100
00000000
00010000
00000010
00000100
,  // measure 65
00000001
00000000
00001000
00000001
00001000
00000000
00000010
00000000
00010000
00000000
00001000
00000000
00100000
00000000
01000000
00000000
,  // measure 66
20000000
00000000
30100000
01000000
00001000
00010000
00000020
00000000
,  // measure 67
00000130
00001001
00000011
00001000
,  // measure 68
00000010
00010000
00001000
01001000
00000000
00010000
00001000
00100000
,  // measure 69
00010000
00000000
10000000
00100000
10000000
00000000
00010000
00000000
00100000
00000000
00001000
00000000
00010000
00000000
01000000
00000000
,  // measure 70
10000000
00000000
00000000
00010000
00000000
00000000
00100000
00000000
00000000
00001000
00000000
00000000
00010000
00000000
00000000
00000000
00000000
00000000
00001000
00000000
00000000
00000000
00000000
00000000
00000000
00000000
00000000
00000000
00000000
00000000
00010000
00000000
00000000
00000000
00000000
00000000
00020020
00000000
00030030
00000000
00000000
00000000
00000000
00000000
00000000
00000000
00000000
00000000
,  // measure 71
00000100
00000001
00000010
00000100
00010000
00000000
00000010
00000000
00001000
00000000
00000200
00000000
00010300
00000000
00001000
00000000
,  // measure 72
00000010
00000001
00001000
00000100
00010000
00002000
01003000
00100000
,  // measure 73
10000000
00000000
00010000
00000000
10000000
00000000
00010000
01000000
00010000
00000000
00100000
00001000
00100000
00000000
00000100
00010000
,  // measure 74
00000100
00000000
00001000
00000000
00000010
00000000
00000000
00000110
00000000
00000000
00001001
00000000
00000000
00000000
00000001
00000000
,  // measure 75
00000010
00000000
00000000
00000000
00000001
00000000
00001000
00000100
00000000
00010000
00001000
00000000
00000000
00000000
00100000
00000000
,  // measure 76
00010000
01000000
01010000
00000000
10000000
00000000
00110000
00000000
,  // measure 77
00001000
00000000
00011000
00011000
00000000
00001001
00000000
00011000
,  // measure 78
00000000
10010000
00000000
00020000
20000000
00000000
30030000
00000000
,  // measure 79
10000000
00100000
01000000
00010000
00100000
00000000
01000000
00000000
10000000
00000000
00200000
00000000
10300000
00000000
00010000
00000000
,  // measure 80
00100000
00001000
00010000
00000010
00000100
00000002
00000013
00000100
,  // measure 81
00001000
00000000
00000010
00000000
00010000
00000000
00000100
00001000
00000100
00000000
00010000
00001000
00010000
00000000
00001000
00100000
,  // measure 82
00001000
00000000
01000000
00000000
00010000
00000000
00000000
00110000
00000000
00000000
10000000
00000000
00000000
00000000
10000000
00000000
,  // measure 83
00010000
00000000
00100000
00000000
00001000
00000000
00010000
00000010
00000000
00001000
00000100
00000000
00010000
00000000
00000100
00000000
,  // measure 84
00000010
00000012
00001003
00020010
,  // measure 85
00031000
00000000
00110000
00110000
00000000
11000000
00000000
01010000
,  // measure 86
00000000
00000000
00011000
00000000
00000000
00000000
00001010
00000000
00000000
00000000
00000011
00000000
00000000
00000000
00000010
00001000
,  // measure 87
00010000
00000000
00000000
00000000
;
