#TITLE:玄兎ノ舞;
#SUBTITLE:;
#ARTIST:PON;
#TITLETRANSLIT:Gento no mai;
#SUBTITLETRANSLIT:;
#ARTISTTRANSLIT:;
#GENRE:;
#CREDIT:;
#BANNER:Gento no mai_banner.png;
#BACKGROUND:Gento no mai.png;
#LYRICSPATH:;
#CDTITLE:;
#MUSIC:Gento no mai.ogg;
#OFFSET:-0.330000;
#SAMPLESTART:51.990002;
#SAMPLELENGTH:10.670000;
#LASTBEATHINT:335.000000;
#SELECTABLE:YES;
#BPMS:0.000000=180.000000
;
#STOPS:
;
#BGCHANGES:;
#KEYSOUNDS:;
#ATTACKS:;

//---------------dance-single - ----------------
#NOTES:
     dance-single:
     :
     Easy:
     7:
     0.265636,0.355610,0.145671,0.197085,0.000000,217.000000,200.000000,17.000000,23.000000,0.000000,0.000000,0.265636,0.355610,0.145671,0.197085,0.000000,217.000000,200.000000,17.000000,23.000000,0.000000,0.000000:
0000
0000
0000
0000
,
0000
0000
0000
0000
,
0000
0000
0000
0000
,
0110
0000
0000
0000
,
2002
0000
3003
0000
,
0010
0100
0000
0100
,
0010
1000
0100
0000
,
1000
0001
0000
0001
,
0010
0100
1000
0000
,
0010
0100
0010
0000
,
1000
0100
1000
0000
,
0010
0000
1000
0000
0100
0000
0000
0020
,
0000
0000
0030
0000
,
0001
0000
0100
0000
,
0001
1000
0001
0000
,
1000
0000
0010
0000
,
1000
0001
1000
0000
,
0001
0100
0010
0000
,
1000
0100
0010
0000
,
0001
0000
0010
0000
,
0001
0100
0010
0000
,
1000
0000
0100
0000
,
1000
0010
0100
0000
,
0010
1000
0001
0000
,
0010
0001
1000
0000
,
0100
0000
0000
1000
0000
0000
0000
0001
,
0000
0000
0000
0100
0000
0000
0000
0000
,
0010
0010
0100
0100
,
0020
0000
0030
0000
,
1000
1000
0001
0001
,
0200
0000
0300
0000
,
0001
0010
0100
1000
,
2002
0000
3003
0000
,
0010
0000
1000
0001
,
0100
0000
0010
0000
,
1000
0000
0100
0010
,
0001
0000
1000
0000
,
0220
0000
0330
0000
,
2002
0000
3003
0000
,
1000
0010
0000
0010
,
1000
2002
3003
0000
,
0001
0100
0000
0100
,
0001
2002
3003
0000
,
0100
0010
0000
0010
,
0100
0001
1000
0000
,
1000
0100
0000
0100
,
2000
0000
3010
0000
,
0110
0000
0000
0000
0001
0000
0000
0010
,
0000
0000
0010
0000
,
0100
0000
1000
0000
,
0100
1000
0100
0000
,
1000
0000
0001
0000
,
0010
0001
0010
0000
,
0001
0000
0000
1000
0000
0000
0000
0010
,
0000
0000
0000
0100
0000
0000
0000
0000
,
0010
0000
0000
0010
0000
0000
0000
0100
,
0000
0000
0000
0100
0000
0000
0001
0000
,
1000
0100
0000
1000
,
0010
1000
0000
1000
,
0001
0010
0000
0010
,
0001
0100
0000
0100
,
0010
1000
0000
0001
,
0010
0001
0000
1000
,
0020
0000
0030
0000
,
0100
0010
0100
0010
,
1000
0100
0000
0100
,
0010
0001
0000
0001
,
0100
0010
0000
0010
,
1000
0001
1000
0000
,
0010
1000
0001
0100
,
0220
0000
0330
0000
,
1001
0000
0000
0000
,
0101
0000
1000
0000
,
0010
0000
1100
0000
,
0001
0000
1001
0000
,
0010
0000
0110
0000
,
0001
0100
0000
0100
,
0010
0100
0001
0000
,
0010
0100
0000
0100
,
1000
0010
0110
0000
,
1000
0000
0001
0000
0010
0000
0100
1000
,
0000
0001
0000
2002
0000
3003
0000
0000
,
0220
0000
0000
0000
,
0330
0000
0000
0000
;

//---------------dance-single - ----------------
#NOTES:
     dance-single:
     :
     Medium:
     11:
     0.499445,0.533414,0.274205,0.308481,0.000000,408.000000,376.000000,32.000000,36.000000,0.000000,0.000000,0.499445,0.533414,0.274205,0.308481,0.000000,408.000000,376.000000,32.000000,36.000000,0.000000,0.000000:
// measure 0
0000
0000
0000
0000
,  // measure 1
0000
0000
0000
0000
,  // measure 2
1010
0000
0011
0000
,  // measure 3
2002
0000
3003
0000
,  // measure 4
0100
0010
0100
0010
0100
0000
0000
0000
,  // measure 5
0001
0010
0100
0010
0000
0001
0000
1000
,  // measure 6
0010
0000
0100
0020
0000
0000
1030
0000
,  // measure 7
0100
1000
0010
0100
0000
0010
1000
0000
,  // measure 8
0001
0000
0010
0200
0000
0000
0310
0000
,  // measure 9
0001
1000
0001
1000
0000
0010
0000
0100
,  // measure 10
0001
0000
1000
0200
0000
0000
0310
0000
,  // measure 11
0001
1000
0010
0100
0000
0001
0010
0200
,  // measure 12
0000
0000
0000
0300
,  // measure 13
1000
0010
1000
0100
,  // measure 14
1000
0000
0001
0000
0010
0000
0001
0100
,  // measure 15
0001
1000
0010
0100
,  // measure 16
0010
0000
1000
0001
1000
0000
1001
0000
,  // measure 17
0010
1000
0100
0010
0000
0001
0100
0010
,  // measure 18
0000
1000
0001
0100
0000
0010
0100
0000
,  // measure 19
0001
0000
0010
0000
0001
1000
0100
0000
,  // measure 20
1000
0000
0010
0000
1000
0001
0100
0000
,  // measure 21
0010
0000
0100
0000
0001
0010
0100
0000
,  // measure 22
1000
0000
0100
1000
0000
0001
1000
0000
,  // measure 23
0010
0100
0001
0100
0000
0010
1000
0100
,  // measure 24
0000
1000
0010
0100
0000
0010
1000
0000
,  // measure 25
1100
0000
0001
0100
0000
0001
0010
0001
,  // measure 26
0000
1000
0010
1000
0000
0001
0100
0000
,  // measure 27
0001
1001
0100
0110
,  // measure 28
0010
1000
0010
1000
0001
0010
0001
0000
,  // measure 29
0101
0010
1010
0100
,  // measure 30
0001
0010
0001
0010
0100
1000
0001
0000
,  // measure 31
1001
0100
1001
0010
,  // measure 32
1000
0100
1000
0010
0100
0001
0010
0000
,  // measure 33
0001
0000
0100
0000
0010
1000
0100
0000
,  // measure 34
1000
0000
0010
0100
0000
0010
0100
0000
,  // measure 35
0001
0000
1000
0100
1000
0000
0001
0000
,  // measure 36
0010
0000
0001
0100
0001
0000
0010
0000
,  // measure 37
0001
0100
0010
1000
0100
0000
1001
0000
,  // measure 38
1000
0010
0100
0001
1000
0000
1001
0000
,  // measure 39
0010
1000
0000
0001
0000
0010
0001
1000
,  // measure 40
0010
0000
0100
0010
0000
0000
0110
0000
,  // measure 41
1000
0000
0100
1000
0000
0010
1000
0000
,  // measure 42
0001
0000
0010
0100
0000
0000
0110
0000
,  // measure 43
1000
0001
1000
0001
0000
0100
0010
0000
,  // measure 44
1000
0001
0010
0200
0000
0000
1300
0000
,  // measure 45
1000
0010
0100
0001
0000
0010
0001
0000
,  // measure 46
0202
0303
2200
3300
,  // measure 47
0010
1000
0010
1000
0000
0001
0100
0020
,  // measure 48
0000
0000
2000
3030
,  // measure 49
0100
0010
1000
0100
,  // measure 50
1000
0001
0010
0001
,  // measure 51
0100
0010
0100
0010
0100
0000
0001
0000
,  // measure 52
0010
0100
0010
0100
0010
0000
0001
0000
,  // measure 53
1000
1000
0000
0010
0000
0100
0000
0110
,  // measure 54
0000
0001
0010
0001
0000
0001
0001
0000
,  // measure 55
1000
0100
1000
0100
0000
1000
0010
1000
,  // measure 56
0000
1010
0000
0100
0000
0011
0000
0000
,  // measure 57
0001
0000
0100
0001
0000
0100
0001
0000
,  // measure 58
1000
0000
0010
1000
0000
0010
1000
0000
,  // measure 59
0001
0000
1000
0010
0000
1000
0001
0000
,  // measure 60
1000
0000
0001
0100
0000
0001
1000
0000
,  // measure 61
0010
0000
0100
0010
0000
1000
0100
0000
,  // measure 62
1000
0000
0010
0100
0000
0001
0010
0000
,  // measure 63
2002
0000
3003
0000
,  // measure 64
0010
0001
0100
1000
,  // measure 65
0001
0000
0100
0001
0000
0010
0001
0000
,  // measure 66
1000
0000
0100
1000
0000
0010
1000
0000
,  // measure 67
0001
0000
0100
0010
0000
0100
0010
0000
,  // measure 68
1000
0000
0100
0010
0000
0100
0010
0000
,  // measure 69
0001
0100
0010
0100
0000
0010
1000
0010
,  // measure 70
0000
1000
0100
2000
0000
0000
0000
0000
,  // measure 71
0002
0000
0000
3003
,  // measure 72
0220
0330
2002
3003
,  // measure 73
0022
0033
2200
3300
,  // measure 74
0022
0033
2002
3003
,  // measure 75
2020
3030
0220
0330
,  // measure 76
0001
0000
0100
0010
0000
0100
0010
0000
,  // measure 77
1000
0001
0010
0200
0000
0000
1300
0000
,  // measure 78
0010
0000
1000
0100
0000
1000
0001
0000
,  // measure 79
0100
0010
1000
0001
0000
0000
1001
0000
,  // measure 80
0010
1000
0100
0010
0001
0010
0100
1000
,  // measure 81
0000
1001
0000
0010
0000
0010
0100
0000
,  // measure 82
2002
0000
0000
0000
,  // measure 83
3003
0000
0000
0000
;

//---------------dance-single - ----------------
#NOTES:
     dance-single:
     :
     Hard:
     16:
     0.853218,0.853463,0.291343,0.377032,0.569832,697.000000,663.000000,34.000000,44.000000,0.000000,0.000000,0.853218,0.853463,0.291343,0.377032,0.569832,697.000000,663.000000,34.000000,44.000000,0.000000,0.000000:
// measure 0
0000
0000
0000
0000
,  // measure 1
0000
0000
0000
0000
,  // measure 2
1100
0000
0101
0000
,  // measure 3
0110
0001
1000
0010
,  // measure 4
1000
0001
0100
0010
1000
0001
0010
0100
1000
0000
0010
0000
1000
0000
0100
0000
,  // measure 5
1000
0000
0100
0010
0001
0000
0100
0000
0000
0000
0100
0001
0010
0000
0100
0000
,  // measure 6
1000
0000
0010
0100
0001
0000
1000
0000
0000
0000
1000
0000
0010
0100
0001
0000
,  // measure 7
0010
0000
0001
1000
0100
0000
0010
0000
0000
0000
0010
0100
1000
0000
0001
0000
,  // measure 8
0100
0000
0001
1000
0010
0000
0100
0000
0000
0000
0100
0000
0010
1000
0001
0000
,  // measure 9
1000
0000
0001
0010
0100
0000
0010
0000
0001
0000
1000
0010
0100
0000
0010
0000
,  // measure 10
1000
0000
0001
1000
0010
0000
0100
0000
0000
0000
0100
0000
0010
1000
0001
0000
,  // measure 11
1000
0000
0010
0100
0001
0000
0010
0000
0100
0000
1000
0001
1000
0001
0200
0000
,  // measure 12
0000
0000
0000
0300
,  // measure 13
0110
0000
0001
0010
0001
0000
0010
0100
,  // measure 14
1000
0100
0001
0100
1000
0010
0100
0001
,  // measure 15
0000
0001
0010
0001
1000
0010
0100
0010
,  // measure 16
1000
0000
0010
0000
0001
0000
0010
0000
1000
0000
0001
1000
0001
0000
0000
0000
,  // measure 17
0110
0000
0010
1000
0100
0000
1000
0000
0000
0000
1000
0001
0010
0000
0001
0000
,  // measure 18
0000
0000
0001
0100
0010
0000
1000
0000
0001
0000
1000
0100
0010
0001
0100
0000
,  // measure 19
0010
0000
1000
0000
0010
0000
1000
0100
0010
0000
0001
0000
0100
0000
0001
0000
,  // measure 20
0010
0000
0100
0000
1000
0000
0010
0100
0001
0000
1000
0000
0100
0000
0010
0000
,  // measure 21
0100
0000
1000
0000
0001
0000
0100
0010
0100
0000
0001
0000
0010
0000
0100
0000
,  // measure 22
1000
0000
0010
0000
0001
0000
0010
0000
1000
0000
0001
1000
0001
0000
0000
0000
,  // measure 23
0110
0000
0100
0001
0010
0000
0001
0000
0000
0000
0001
1000
0010
0000
0100
0000
,  // measure 24
0000
0000
0100
0001
1000
0000
0100
0000
0000
0000
0100
1000
0010
0100
0001
0010
,  // measure 25
0001
0000
1000
0010
0100
0000
0001
0000
0000
0000
0001
0010
0100
0000
1000
0000
,  // measure 26
0000
0000
1000
0010
0100
0000
0001
0000
0000
0000
0001
1000
0010
0100
0001
0000
,  // measure 27
0022
0033
0000
0000
2020
3030
0000
0000
0202
0303
0000
0000
2200
3300
0000
0000
,  // measure 28
0010
0000
0100
0000
0010
0100
0010
0000
1000
0000
0100
0000
1000
0100
1000
0000
,  // measure 29
2002
3003
0000
0000
0022
0033
0000
0000
2200
3300
0000
0000
0202
0303
0000
0000
,  // measure 30
0010
0000
1000
0100
0010
0100
1000
0000
0001
0000
0100
0010
1000
0010
0100
0000
,  // measure 31
0202
0303
0000
0000
2200
3300
0000
0000
0022
0033
0000
0000
2020
3030
0000
0000
,  // measure 32
0100
0000
0001
1000
0010
1000
0001
0000
0100
0000
0001
1000
0010
1000
0001
0000
,  // measure 33
0010
0000
0100
0000
1000
0000
0000
0010
1000
0000
0001
0000
1000
0000
0100
0000
,  // measure 34
0010
0000
0001
0100
0010
0000
1000
0000
0000
0000
1000
0001
0010
0000
0100
0000
,  // measure 35
1000
0000
0010
0000
1000
0000
0010
0100
0001
0000
0010
0000
0001
0000
0100
0010
,  // measure 36
1000
0000
0001
0000
0010
0000
0100
0000
1000
0000
0010
0100
0010
0000
1000
0000
,  // measure 37
0001
0000
0001
0000
0100
0010
0100
0000
0010
0000
0010
0000
1000
0100
1000
0000
,  // measure 38
0001
0100
0010
1000
0100
0010
0001
0100
0010
0000
0000
0000
1001
0000
0000
0000
,  // measure 39
0100
0000
0010
1000
0100
0000
1000
0000
0010
0000
0100
0001
0010
0000
0001
0000
,  // measure 40
1000
0000
0001
0010
0200
0000
0010
0000
0300
0000
0010
0001
1000
0000
0010
0000
,  // measure 41
0100
0000
0001
0010
0100
0000
1000
0000
0010
0000
0100
0010
1000
0000
0001
0000
,  // measure 42
0100
0000
0010
1000
0200
0000
0010
0000
0300
0000
0010
0100
1000
0000
0001
0000
,  // measure 43
0100
0000
0010
1000
0001
0000
0010
0000
0001
0000
1000
0010
0100
0000
0001
0000
,  // measure 44
0010
0000
0100
1000
0001
0100
0010
0000
0000
0000
0010
0000
0100
0001
1000
0000
,  // measure 45
0010
0000
1000
0100
0010
0000
0100
0000
1000
0000
0010
0100
0001
0000
0010
0000
,  // measure 46
0001
0000
0100
0000
1000
0000
0100
0000
0001
1000
0010
0100
0001
0000
0000
0000
,  // measure 47
0011
0000
0010
0100
1000
0000
0100
0000
0010
0000
0001
1000
0001
0000
0200
0000
,  // measure 48
0000
0000
2000
3300
,  // measure 49
0100
0000
0001
0000
0010
0000
0100
0000
1000
0000
0010
1000
0000
0010
1000
0000
,  // measure 50
0001
0000
0100
0000
0010
0000
0100
0000
0001
0000
0010
0100
0000
0010
0100
0000
,  // measure 51
0001
0000
1000
0010
0100
0000
0010
0000
1000
0000
0100
0010
0001
0000
0100
0000
,  // measure 52
0010
0000
1000
0100
1000
0000
0001
0010
0001
0000
1000
0000
1001
0000
0000
0000
,  // measure 53
0010
0000
0100
0001
0010
0000
0001
0000
0000
0000
0001
0010
0100
0000
1000
0000
,  // measure 54
0000
0000
1000
0010
0100
0000
0001
0000
0000
0000
0001
1000
0010
0100
0001
0000
,  // measure 55
1000
0000
0100
0010
0100
0000
1000
0000
0000
0000
1000
0010
0100
0001
0010
0000
,  // measure 56
0000
0000
0010
0001
0100
0000
0010
0000
1000
0100
1000
0010
0100
0001
0010
0000
,  // measure 57
0001
0010
0100
1000
0000
1000
0010
0100
,  // measure 58
0000
0001
0010
0100
0010
0001
2000
0000
,  // measure 59
3010
0100
1000
0100
0000
0001
0010
1000
,  // measure 60
0000
1000
0010
0001
0100
0010
0110
0000
,  // measure 61
1000
0001
0010
0100
0000
0010
0001
1000
,  // measure 62
0000
0001
0100
1000
0100
0010
1000
0002
,  // measure 63
0010
0000
0100
0100
0000
0010
0013
0000
,  // measure 64
2100
0000
0010
0010
0000
0100
3100
0000
,  // measure 65
0010
0000
0001
0000
1000
0000
0100
0000
1000
0000
0001
0010
0100
0000
1000
0000
,  // measure 66
0010
0000
0100
0000
0001
0000
1000
0100
1000
0000
0001
0010
0001
0000
0000
0000
,  // measure 67
0100
0000
0010
0000
1000
0000
0001
0000
0010
0000
0001
0010
0100
0000
1000
0000
,  // measure 68
0010
0000
1000
0000
0001
0000
0010
0001
0010
0000
0100
1000
0100
0000
0000
0000
,  // measure 69
1000
0000
0001
0010
0100
0000
1000
0010
0100
0000
0001
1000
0100
0010
0001
1000
,  // measure 70
0020
0000
0200
0330
,  // measure 71
1000
0001
0100
0010
1000
0001
0100
0010
1000
0001
0010
0100
1000
0000
0000
0000
,  // measure 72
2002
3003
0220
0330
,  // measure 73
0001
0000
0010
0000
0100
0000
1000
0000
0010
0100
0010
1000
0001
0000
0010
0000
,  // measure 74
0220
0330
2002
3003
,  // measure 75
1000
0000
0010
0000
0100
0000
0001
0000
0010
0001
0100
0010
1000
0000
0001
0000
,  // measure 76
0100
0000
0010
1000
0100
0000
1000
0000
0000
0000
1000
0010
0100
0000
0001
0000
,  // measure 77
0010
0000
0001
0100
0010
0000
1000
0000
0000
0000
1000
0010
0100
0000
0001
0000
,  // measure 78
0010
0000
0001
0100
0001
0000
1000
0000
0010
0000
1000
0100
1000
0000
0001
0000
,  // measure 79
0100
0000
0010
1000
0100
0000
0010
0001
0100
0000
0010
0000
1001
0000
0000
0000
,  // measure 80
0011
0000
0010
0000
0100
1000
0100
0000
0010
0000
0011
0000
0001
1000
0100
0000
,  // measure 81
0000
0000
1010
0000
0000
0000
0101
0000
0000
0000
0001
0010
0100
0000
1000
0000
,  // measure 82
2002
0000
0000
3003
,  // measure 83
0110
0000
0000
0000
;
