#TITLE:Garuda;
#SUBTITLE:;
#ARTIST:kors k;
#TITLETRANSLIT:;
#SUBTITLETRANSLIT:;
#ARTISTTRANSLIT:;
#GENRE:JUKE/FOOTWORK;
#CREDIT:;
#BANNER:Garuda_banner.png;
#BACKGROUND:Garuda.png;
#LYRICSPATH:;
#CDTITLE:;
#MUSIC:Garuda.ogg;
#OFFSET:-0.610000;
#SAMPLESTART:24.600000;
#SAMPLELENGTH:12.000000;
#SELECTABLE:YES;
#BPMS:0.000000=160.000000
,77.000000=320.000000
,79.000000=160.000000
,203.000000=320.000000
,205.000000=160.000000
,246.000000=320.000000
,254.000000=160.000000
;
#STOPS:60.000000=1.125000,
186.000000=1.125000,
220.000000=0.125000,
220.333328=0.125000,
220.666672=0.125000,
221.000000=0.125000,
221.333328=0.125000,
221.666672=0.125000,
222.000000=0.125000,
222.333328=0.125000,
222.666672=0.125000,
225.000000=0.125000,
225.333328=0.125000,
225.666672=0.125000,
226.000000=0.125000,
226.333328=0.125000,
226.666672=0.125000,
227.000000=0.125000,
227.333328=0.125000,
227.666672=0.125000
;
#BGCHANGES:;
#KEYSOUNDS:;
#ATTACKS:;

//---------------dance-single - ----------------
#NOTES:
     dance-single:
     :
     Easy:
     7:
     0.277142,0.338772,0.048500,0.135800,0.024250,200.000000,195.000000,5.000000,14.000000,0.000000,0.000000,0.277142,0.338772,0.048500,0.135800,0.024250,200.000000,195.000000,5.000000,14.000000,0.000000,0.000000:
0000
0000
0000
0000
,
0000
0000
0000
0000
,
0000
0000
0000
0000
,
0000
0000
0000
0000
,
1000
0010
0001
0000
,
0001
0010
1000
0000
,
0001
0100
1000
0000
,
1000
0100
0001
0000
,
0010
0010
0010
0000
,
0100
0100
0100
0000
,
1000
1000
1000
0000
,
0001
0001
0002
0000
,
0103
0010
0100
0010
,
1000
0001
1000
0000
,
0001
0010
0100
1000
,
2002
3003
0000
0000
0000
0000
0000
0000
0100
0000
0000
0000
0000
0000
0000
0000
0100
0000
0000
0000
0000
0000
0000
0000
0010
0000
0000
0000
0000
0000
0000
0000
,
0010
0000
1000
0000
1000
0000
0001
0010
,
0001
1000
1000
0100
,
0100
0000
0010
0000
0010
0000
0001
1000
,
0001
0200
0000
0310
,
0010
1000
0010
0100
,
0001
1000
0001
0000
0010
0000
0001
0000
,
1000
0100
2000
0000
,
0000
3000
0001
0001
,
0001
0100
0001
0010
,
1000
0000
0010
0001
,
1000
0100
0001
0100
,
1000
0000
0000
0000
0000
0000
0010
0000
0100
0000
0010
0000
,
0100
0000
0000
0000
0000
0000
0001
0000
1000
0000
0001
0000
,
1000
0000
0010
1000
,
0001
0100
0010
0010
,
0110
0000
0002
0000
,
0013
0000
0010
0001
,
1000
0000
0200
0000
,
1300
0000
1000
0001
,
0010
0000
0100
1000
,
0100
0000
0010
0001
,
0010
0000
0001
1000
,
0001
0100
0010
0000
,
1001
0000
0100
0100
,
0100
0000
0010
0010
,
0010
0000
1000
1000
,
1000
0000
0001
0001
,
0001
0000
1000
0100
,
0001
0100
1000
0010
,
0100
0000
0001
0100
,
1000
0000
0000
0000
0000
0000
0000
0000
0100
0000
0000
0000
0000
0000
0000
0000
0220
0330
0000
0000
0000
0000
0000
0000
0010
0000
0000
0000
0000
0000
0000
0000
,
0010
0010
0010
1000
,
0100
0000
1000
0100
1000
0000
0001
0000
,
1000
0001
1000
0100
,
0010
0000
0001
1000
0001
0000
0200
0000
,
0000
0310
0010
1000
,
0001
0000
0010
0000
0001
1000
0001
0000
,
1000
0100
0010
0100
,
2000
0000
0000
3000
,
0001
0001
0001
0001
,
0000
1000
1000
1000
,
1000
0000
0010
0000
,
0010
0000
0000
0000
0000
0000
0010
0000
0100
0000
0000
0000
,
0010
0000
1000
0001
,
1000
0001
0200
0000
,
0310
0000
2002
0000
,
0000
0000
0000
0000
,
0000
0000
3003
0000
;

//---------------dance-single - ----------------
#NOTES:
     dance-single:
     :
     Medium:
     12:
     0.557056,0.677544,0.290999,0.174600,0.383149,402.000000,372.000000,30.000000,18.000000,0.000000,0.000000,0.557056,0.677544,0.290999,0.174600,0.383149,402.000000,372.000000,30.000000,18.000000,0.000000,0.000000:
0000
0000
0000
0000
,
0000
0000
0000
0000
,
0000
0000
0000
0000
,
0000
0000
0000
0000
,
0001
0010
1000
0001
0100
0000
1000
0010
,
1000
0100
0001
1000
0010
0001
1000
0001
,
0100
0010
1000
0001
0010
0000
0001
0010
,
0100
1000
0001
1000
0010
0100
0001
0000
,
1000
0000
0000
0010
0000
0000
0010
0000
1000
0000
0000
0100
0000
0000
0100
0000
,
1000
0000
0000
0001
0000
0000
0001
0000
0100
0000
0001
0000
0100
0000
1000
0000
,
0100
0000
0000
0010
0000
0000
0010
0000
1000
0000
0000
0001
0000
0000
0001
0000
,
0010
0000
0000
0100
0000
0000
0100
0000
1000
0000
0010
0000
0001
0000
0010
0000
,
0100
0001
0100
0001
1000
0010
1000
0010
,
1000
0100
0001
0100
1000
0010
0100
0001
,
0010
0001
1000
0100
0010
0100
1000
0001
,
2002
3003
0000
0000
0000
0000
0000
0000
0110
0000
0000
0000
0000
0000
0100
0000
0000
0000
0000
0000
0100
0000
0000
0000
0010
0000
0000
0000
0000
0000
0010
0000
,
0000
0000
0010
0000
1000
0000
0000
1000
0000
0000
1000
0000
0001
0000
0010
0000
,
1000
0000
0010
0000
0001
0000
0000
0001
0000
0000
0001
0000
0100
0000
0000
0100
,
0000
0000
0100
0000
0010
0000
0000
0010
0000
0000
0010
0000
1000
0000
0100
0000
,
0001
0100
2000
0000
0000
0010
3000
0100
,
0001
0000
0000
0001
0000
0000
0001
0000
1000
0000
0000
1000
0000
0000
1000
0000
,
0010
0000
0100
0000
0001
0000
0100
0000
0010
0000
0000
0010
0000
0000
0010
0000
,
1000
0000
0000
1000
0000
0000
1000
0000
0202
0000
0000
0000
0000
0000
0000
0000
,
0000
0000
0000
0303
0000
0000
0110
0000
0000
1000
0000
0001
,
1000
0000
0001
1000
0000
0010
0100
0000
0010
0100
0000
0001
,
1000
0000
0000
1001
0000
0000
1010
0000
0000
0100
0000
0001
,
0100
0000
0001
0100
0000
0010
1000
0000
0010
1000
0000
0010
,
2000
0000
0000
3100
0000
0000
1000
0000
0100
0000
0001
0000
,
0100
0000
1000
0000
0010
0000
0001
0000
0010
0000
1000
0000
,
0220
0000
0000
0000
0330
0000
0000
0000
0001
0000
0000
0010
0000
0000
0001
0000
,
1000
0000
0000
0100
0000
0000
0010
0000
0100
0000
0000
1000
0000
0000
0001
0000
,
2002
0000
3003
0000
0100
0010
1000
0001
,
0010
0000
0011
0000
1000
0010
0001
0010
,
0100
0000
0001
1000
0010
1000
0100
0010
,
0001
0000
1100
0000
1000
0010
0100
0010
,
1000
0001
0010
0000
0001
0100
1000
0001
,
0020
0000
1030
0000
1000
0100
0001
1000
,
0020
0000
0031
0000
0100
0010
1000
0100
,
0010
0000
0001
0100
0001
0010
0100
1000
,
0010
0000
0110
0000
1000
0100
0010
0100
,
1000
0000
0001
0100
0010
0100
0001
1000
,
0010
0000
0001
0000
1000
0000
0000
0000
0100
0000
0000
0100
0000
0000
0100
0000
,
0001
0000
0000
0001
0000
0000
0001
0000
0010
0000
0000
0010
0000
0000
0010
0000
,
0001
0000
0100
0000
1000
0000
0100
0000
0010
0000
0000
1000
0000
0000
0010
0000
,
1000
0000
0000
0100
0000
0000
1000
0000
0001
0000
0000
0100
0000
0000
0001
0000
,
0010
0001
1000
0100
0010
0001
1000
0100
,
1000
0000
0000
0000
0000
0000
0001
0000
0000
0000
0000
0000
0100
0000
0000
0000
0000
0000
0010
0000
0000
0000
0000
0000
0220
0000
0330
0000
0000
0000
0000
0000
0000
0000
0000
0000
1001
0000
0000
0000
0000
0000
0000
0000
0000
0001
0000
0000
,
0000
0000
0001
0000
0011
0000
0000
0010
0000
0000
0010
0000
0110
0000
0000
0100
,
0000
0000
0100
0000
1000
0000
0010
0000
0001
0000
0010
0000
0100
0000
0000
0110
,
0000
0000
0010
0000
1000
0000
0000
1001
0000
0000
0001
0000
0010
0000
0000
0110
,
0000
1000
0001
0100
1000
0100
0020
0000
,
0000
0000
1000
0000
0030
0000
1001
0000
0001
0000
0000
0101
0000
0000
0010
0000
,
1000
0000
0000
1100
0000
0000
0010
0000
0001
0000
0100
0000
1000
0000
0100
0000
,
0010
0000
0000
1010
0000
0000
1000
0000
0001
0000
0000
0011
0000
0000
1000
0000
,
0020
0100
1000
0031
,
1000
0100
0001
1000
0010
0001
0010
0100
1000
0010
0000
0000
,
0110
0000
0000
0001
0010
1000
0001
0100
1000
0010
0100
0001
,
1000
0000
0000
1001
0000
0000
0010
0000
0100
0010
0100
0000
,
0001
0000
1000
0001
1000
0000
0001
0000
0011
0000
1001
0000
,
1100
0000
0000
0110
0000
0000
1000
0100
1000
0000
0100
0000
,
0010
0001
0010
0000
0001
0000
0010
0001
0100
0001
1000
0010
,
0100
0000
2002
0000
,
0000
0000
0000
0000
,
0000
0000
3003
0000
;

//---------------dance-single - ----------------
#NOTES:
     dance-single:
     :
     Hard:
     16:
     0.782927,1.262695,0.514099,0.135800,0.775998,565.000000,512.000000,53.000000,14.000000,0.000000,0.000000,0.782927,1.262695,0.514099,0.135800,0.775998,565.000000,512.000000,53.000000,14.000000,0.000000,0.000000:
// measure 0
0000
0000
0000
0000
,  // measure 1
0000
0000
0000
0000
,  // measure 2
0000
0000
0000
0000
,  // measure 3
0000
0000
0000
0000
,  // measure 4
0001
0010
1000
0100
0110
0000
0100
1000
,  // measure 5
0001
0000
0100
0000
0010
0000
1000
0000
0001
0000
0010
0100
0010
0000
0001
0000
,  // measure 6
0100
0001
1000
0100
0110
0000
0010
0100
,  // measure 7
1000
0000
0001
0000
1000
0000
0010
0000
0100
0000
0001
1000
0001
0000
0010
0000
,  // measure 8
0001
0000
0100
0001
0000
1000
0001
0000
1000
0000
0010
1000
0000
0001
1000
0000
,  // measure 9
0010
0000
0100
0001
0000
0100
0010
0000
1000
0000
0100
0000
0001
0000
0100
0000
,  // measure 10
1000
0000
0010
1000
0000
0001
1000
0000
0001
0000
0010
0001
0000
1000
0001
0000
,  // measure 11
0100
0000
0010
1000
0000
0010
0100
0000
0001
0000
0010
0000
1000
0000
0010
0000
,  // measure 12
0001
0000
0100
0001
0000
1000
0010
0000
0100
0000
0010
1000
0000
0001
0010
0000
,  // measure 13
0100
0000
1000
0100
0000
0010
0100
0000
0010
0000
0100
0000
1000
0000
0001
0000
,  // measure 14
0100
0010
0100
0010
0100
0010
0100
0010
1000
0001
1000
0001
1000
0001
1000
0001
,  // measure 15
0020
0000
0030
0000
0000
0000
0000
0000
0000
0000
0000
0000
1100
0000
0000
0000
0000
0000
0100
0000
0000
1000
0000
0000
0000
0000
0000
0001
0000
0000
0010
0000
0000
0000
0000
0000
0001
0000
0000
0000
0000
0000
0100
0000
0000
0010
0000
0000
,  // measure 16
0000
1000
0001
0000
0100
0000
0010
0100
0000
0001
0010
0000
0001
0000
0100
0000
,  // measure 17
1000
0000
0100
0000
0110
0000
0010
1000
0000
0001
1000
0000
0010
0000
0100
0001
,  // measure 18
0000
0010
0001
0000
1000
0000
0100
0010
0000
0100
1000
0000
0001
0000
0010
0000
,  // measure 19
1000
0000
0010
0000
0012
0000
0000
0000
0000
0000
1003
0000
0000
0010
1000
0000
,  // measure 20
0100
0000
0010
0100
0000
1000
0001
0000
0100
0000
0010
0100
0000
0001
1000
0000
,  // measure 21
0100
0000
0010
0000
0001
0000
1000
0000
0010
0000
1000
0100
0000
1000
0001
0000
,  // measure 22
0100
0000
0001
0010
0000
0100
1000
0000
0020
0000
0000
0000
0100
0000
0130
0000
,  // measure 23
0001
0000
0000
1000
0000
0000
0100
0000
0000
0010
0000
0000
0011
0000
0000
0000
0000
0000
0100
0000
0010
0000
1000
0000
,  // measure 24
0001
0010
1000
0010
0001
1000
0010
0100
0010
1000
0100
0001
,  // measure 25
0100
0000
0000
2010
0000
0000
3001
0000
0000
0100
0010
1000
,  // measure 26
0100
0010
0100
1000
0010
0100
0010
1000
0001
0010
0001
0100
,  // measure 27
0001
0000
0000
0011
0000
0000
1100
0000
1000
0010
0100
0000
,  // measure 28
0101
0000
0011
0000
1001
0000
0110
0000
1000
0001
0010
0000
,  // measure 29
0101
0000
0000
0000
2001
0000
0000
0000
3010
0000
0100
0001
0000
0100
0010
0000
,  // measure 30
1000
0000
0100
0010
0000
0100
0001
0000
0100
0000
1000
0010
0000
0001
0010
0000
,  // measure 31
0200
0010
0310
0000
0001
0100
1000
0001
,  // measure 32
1001
0000
0100
0010
1000
0001
0010
1000
,  // measure 33
0001
0000
0100
1000
0100
0000
1000
0000
0001
0000
0010
0000
1000
0000
0001
0000
,  // measure 34
1001
0000
0000
0000
0010
0000
0100
0000
1000
0000
0010
0100
0001
0000
0010
0000
,  // measure 35
0001
0000
1000
0100
1000
0000
0010
0000
1000
0000
0100
0000
0001
0000
0100
0000
,  // measure 36
0110
0000
0100
1000
0001
1000
0001
0010
,  // measure 37
1000
0000
0010
0001
0010
0000
0100
0000
1000
0000
0010
0000
0100
0000
0010
0000
,  // measure 38
0110
0000
0100
1000
0100
0001
0010
0100
,  // measure 39
0010
0000
0100
0010
0100
0000
0001
0000
0001
0000
0010
0000
1000
0000
0010
0000
,  // measure 40
0200
0000
1300
0010
0001
0010
0100
0010
,  // measure 41
1000
0000
0001
0010
0100
0000
1000
0000
0010
0000
0100
0010
0000
1000
0010
0000
,  // measure 42
0100
0000
0001
0100
0000
0010
0100
0000
0001
0000
0010
0100
0000
0010
1000
0000
,  // measure 43
0010
0000
0010
0000
0100
0000
0100
0000
1000
0000
0001
0010
0000
0100
0010
0000
,  // measure 44
0001
0000
0100
0010
0000
0100
0001
0000
0010
0000
0001
0100
0000
0010
0100
0000
,  // measure 45
0001
0000
0001
0000
1000
0000
1000
0000
0010
0100
0010
0100
0010
0100
0010
0100
,  // measure 46
0001
0000
0000
1000
0000
0000
0001
0000
0000
1000
0000
0000
0001
0000
0000
1000
0000
0000
0001
0000
0000
1000
0000
0000
0200
0000
0300
0000
0000
0000
0000
0000
0000
0000
0000
0000
0011
0000
0000
0000
0000
0000
0001
0000
0000
0100
0000
0000
,  // measure 47
0000
0010
0100
0000
0110
0000
0010
1000
0000
0100
1000
0000
1100
0000
1000
0001
,  // measure 48
0000
0010
0001
0000
1000
0000
0010
0000
0001
0000
0010
0000
0110
0000
0100
0001
,  // measure 49
0000
1000
0010
0000
1100
0000
0100
0010
0000
0100
0001
0000
0100
0000
1000
0001
,  // measure 50
0000
0010
0001
0000
0100
0000
0001
0000
0100
0000
1000
0000
0120
0000
0000
0000
,  // measure 51
0000
0000
1030
0000
0000
0001
1000
0000
0001
0000
0010
0001
0000
1000
0100
0000
,  // measure 52
0010
0000
0100
1000
0000
0100
0010
0000
0001
0000
0100
0000
1000
0000
0100
0000
,  // measure 53
0110
0000
0010
1000
0000
0001
1000
0000
1001
0000
0100
0001
0000
1000
0010
0000
,  // measure 54
0200
0000
0010
0010
0010
0000
0301
0000
,  // measure 55
1010
0101
0011
1100
1010
0101
1001
0101
1100
0110
0000
0000
,  // measure 56
0010
0000
0000
1100
0101
0011
1001
1010
0101
0011
0110
1100
,  // measure 57
1001
0000
0000
0100
0010
0100
0101
0000
1000
0010
1000
0000
,  // measure 58
0011
0000
0001
1000
0001
0000
1010
0000
0001
0010
0110
0000
,  // measure 59
1100
0000
0000
0020
0000
0000
1030
0100
0001
0100
0010
1000
,  // measure 60
0010
0001
0100
1000
0100
0010
0100
0001
0010
0100
0010
0100
,  // measure 61
2000
3001
0220
0000
,  // measure 62
0000
0000
0000
0000
,  // measure 63
0000
0000
0330
0000
;
