#TITLE:がんばれゴエモンメドレー;
#SUBTITLE:;
#ARTIST:かまあげうどん;
#TITLETRANSLIT:Ganbare Goemon medley;
#SUBTITLETRANSLIT:;
#ARTISTTRANSLIT:Kamaage Udon;
#GENRE:GOEMON;
#CREDIT:;
#BANNER:Ganbare_Goemon_medley_banner.png;
#BACKGROUND:Ganbare_Goemon_medley.png;
#LYRICSPATH:;
#CDTITLE:;
#MUSIC:Ganbare Goemon medley.ogg;
#OFFSET:0.350000;
#SAMPLESTART:13.950000;
#SAMPLELENGTH:11.140000;
#LASTBEATHINT:260.500000;
#SELECTABLE:YES;
#BPMS:0.000000=151.000000
,119.000000=113.000000
,158.750000=190.000000
,244.000000=140.000000
;
#STOPS:
;
#BGCHANGES:;
#KEYSOUNDS:;
#ATTACKS:;

//---------------dance-single - ----------------
#NOTES:
     dance-single:
     :
     Easy:
     5:
     0.187789,0.244936,0.113484,0.141855,0.000000,139.000000,127.000000,12.000000,15.000000,0.000000,0.000000,0.187789,0.244936,0.113484,0.141855,0.000000,139.000000,127.000000,12.000000,15.000000,0.000000,0.000000:
0000
0000
0000
0000
,
0000
0000
0000
0000
,
0000
0000
0000
0000
,
0000
0000
0000
0000
,
0000
0000
0000
0000
,
0000
0000
0000
0000
,
0000
0000
0000
0000
,
1001
0000
0000
0000
,
0220
0000
0330
0000
,
1000
0000
0001
0010
,
0001
0000
1000
0010
,
1000
0000
0010
0100
,
0010
0000
1000
0100
,
0010
0000
0001
0000
,
2002
0000
3003
0000
,
0200
0000
0300
0000
,
0010
0000
0100
0001
,
0010
0000
0001
1000
,
0100
0000
1000
0010
,
0100
0000
0001
1000
,
0010
0000
0110
0000
,
2002
0000
3003
0000
,
0020
0000
0030
0000
,
0001
0000
0001
0000
,
1000
0000
1000
0000
,
0002
0000
1003
0000
,
0100
0100
0010
0000
,
0010
0010
0100
0000
,
0001
0000
0001
0000
,
0100
1000
0010
0002
,
0000
0003
0000
0000
0000
0000
0000
0000
,
0000
0000
0000
0000
,
0000
1000
0000
0000
0000
0001
0000
0000
,
0000
0100
0000
0000
0000
0010
0000
0000
,
0000
1000
0000
0100
0000
1000
0000
0000
,
0000
0001
0000
0010
0000
0001
0000
0000
,
0000
0100
0000
0010
0000
0100
0000
0000
,
0000
0001
0000
0010
0000
0001
0000
0000
,
0000
1000
0000
0010
0000
1000
0000
0000
,
0000
0001
0000
0010
0000
0200
0000
0000
,
0300
0000
0000
0000
,
1000
0000
1000
0000
,
0001
0000
0001
0000
,
0010
0000
0100
0000
,
0010
0000
0100
0000
,
1000
0000
0100
0000
,
1000
0000
0001
0000
,
0010
0000
0001
0000
,
0100
0000
0010
0000
,
0110
0000
1001
0000
,
0220
0000
0330
0000
,
1001
0000
0110
0000
,
2002
0000
3003
0000
,
0100
0000
0001
0010
,
0001
0000
1000
0010
,
1000
0000
0100
0000
,
0010
0000
0001
0000
,
0100
0000
0010
0100
,
0010
0000
1000
0100
,
1000
0000
0010
0000
,
0100
0000
0001
0000
,
0010
0000
0010
0001
,
0010
0000
0100
1000
,
0100
0000
1000
0000
,
0010
0000
0100
1001
;

//---------------dance-single - ----------------
#NOTES:
     dance-single:
     :
     Medium:
     11:
     0.436372,0.459255,0.104027,0.160769,0.061470,323.000000,312.000000,11.000000,17.000000,0.000000,0.000000,0.436372,0.459255,0.104027,0.160769,0.061470,323.000000,312.000000,11.000000,17.000000,0.000000,0.000000:
0000
0000
0000
0000
,
0000
0000
0000
0000
,
0000
0000
0000
0000
,
0000
0000
0000
0000
0000
0000
0000
0000
0010
0000
0000
0000
,
0000
0000
0000
0000
0000
0000
0000
0000
0000
0000
0001
0000
,
0000
0000
0000
0000
0010
0000
0000
0000
0000
0000
0000
0000
0000
0000
0000
0000
0100
0000
0000
0000
0000
0000
0000
0000
0000
0000
0000
1000
0000
0000
0000
0000
0000
0000
0000
0000
0000
0000
0000
0000
0000
0000
0000
0000
0000
0000
0000
0000
,
0000
0000
0000
0000
,
2002
0000
0000
3003
,
0100
0010
0100
0001
0010
0100
1000
0000
,
0000
0001
0100
0001
0010
0001
1000
0001
,
0000
1000
0010
1000
0001
1000
0100
1000
,
0000
0010
0100
0010
1000
0010
0100
0010
,
0000
0100
0001
0100
0010
0100
0001
0100
,
0002
0000
0013
0100
1000
0000
1001
0000
,
0100
0010
0100
0001
0010
0100
1000
0100
,
0020
0000
0032
0000
,
0003
1000
0010
1000
0100
0010
0100
1000
,
0000
0001
0100
0001
0010
0100
0010
0001
,
0000
0100
0010
0100
0001
0100
1000
0100
,
0000
0010
1000
0010
0100
0010
0001
0010
,
0100
0000
0001
0010
0100
0000
1001
0000
,
0010
0100
0010
1000
0100
0010
0001
0010
,
0200
0000
2300
0000
,
3010
0100
0000
0010
0000
1000
0000
0001
,
0010
0100
0010
0000
0001
0100
0001
0000
,
1000
0010
1000
0000
0001
0010
0100
0000
,
1000
0000
1100
0000
0001
0010
0001
0000
,
0010
0001
1000
0001
0010
0100
1000
0000
,
0000
0001
0100
0001
0010
0100
0010
0001
,
0000
0100
0010
0001
1000
0001
0020
0000
,
0000
1030
0000
0100
0000
0010
0000
0001
,
0000
0010
0000
0100
0000
2000
0000
3000
,
0000
0001
0100
0001
0000
1000
0100
1000
,
0000
0001
0010
0001
0000
1000
0010
1000
,
0000
0001
0010
1000
0000
1000
0010
0001
,
0000
1000
0100
0001
0000
0001
0100
1000
,
0000
0001
0010
0000
0100
1000
0010
0000
,
0100
0001
1000
0000
0100
0010
0001
0000
,
1000
0001
0100
0010
0000
1000
0100
0010
,
0000
0001
0100
0010
0000
2002
0000
0000
,
3003
0000
0000
0000
,
0010
0010
0100
0100
,
0001
0000
0001
0000
1000
0100
1000
0000
,
0010
0010
1000
1000
,
0001
0000
0001
0000
0010
0100
0010
0000
,
0000
0001
0000
0001
0010
0100
1000
0100
,
0000
1000
0000
1000
0010
0100
0001
0010
,
0000
0001
0000
0001
1000
0100
1000
0000
,
0010
0100
0010
0000
1000
0100
0010
0000
,
0001
0001
0001
0000
1000
1000
1000
0000
,
0220
0000
0000
0330
,
0001
1000
0100
0000
1000
0001
0100
0000
,
0010
0100
0001
1000
0010
0000
0000
0000
,
1100
0000
0010
0001
,
0101
0000
0010
1000
,
0001
0100
0001
0000
1000
0100
1000
0000
,
0002
0023
0230
1300
,
1010
0000
0000
0000
0100
0001
0010
0000
,
0011
0000
0000
0000
1000
0001
0100
0000
,
0010
0000
0100
0000
0001
0010
0100
0000
,
1000
0001
0100
0010
2000
0000
3100
0000
,
1000
0000
0010
0100
0000
0010
0100
0000
0000
0001
0000
0000
,
0010
0000
0001
1000
0000
0001
0010
0000
0000
0001
0000
0000
,
1000
0000
0100
0010
0000
0100
0010
0000
0000
0001
0000
0000
,
0100
0000
0010
1000
0000
0001
0010
0000
0000
0110
0000
0000
;

//---------------dance-single - ----------------
#NOTES:
     dance-single:
     :
     Hard:
     14:
     0.607949,0.642956,0.226968,0.208054,0.330994,450.000000,426.000000,24.000000,22.000000,0.000000,0.000000,0.607949,0.642956,0.226968,0.208054,0.330994,450.000000,426.000000,24.000000,22.000000,0.000000,0.000000:
// measure 0
0000
0000
0000
0000
,  // measure 1
0000
0000
0000
0000
0000
0000
0000
0000
0000
0000
0100
0000
,  // measure 2
0000
0000
0000
0000
0000
0000
0000
0000
0000
0000
0000
0000
0000
0000
0000
0000
0000
0000
0000
0000
0000
0100
0000
0000
0000
0000
0000
0000
0000
0000
0000
0000
0000
0000
0000
0000
0000
0000
0000
0000
0000
0000
0000
0000
0100
0000
0000
0000
,  // measure 3
0000
0000
0000
0000
0220
0000
0000
0000
0000
0000
0000
0000
,  // measure 4
0000
0000
0000
0000
0000
0000
0330
0000
0000
0000
0001
0000
,  // measure 5
0000
0000
0000
0000
0010
0000
0000
0000
0000
0000
0000
0000
0000
0000
0000
0000
0100
0000
0000
0000
0000
0000
0000
0000
0000
0000
0000
1000
0000
0000
0000
0000
0000
0000
0000
0000
0000
0000
0000
0000
0000
0000
0000
0000
0000
0000
0000
0000
,  // measure 6
0000
0000
0000
0000
,  // measure 7
2002
0000
0000
0000
3003
0000
0000
0000
0010
0000
0100
0010
0100
0000
0000
0000
,  // measure 8
0000
0000
0001
0010
0001
0000
1000
0000
0100
0010
0100
0000
2000
0000
0000
0000
,  // measure 9
3000
0001
0010
0100
0010
1000
0010
0001
,  // measure 10
0000
0000
1000
0000
0010
0000
0100
0000
0010
0001
0010
0001
0010
0000
1000
0000
,  // measure 11
0000
0001
0100
0010
0100
1000
0100
0001
,  // measure 12
0000
0000
1000
0000
0100
0000
0010
0000
0100
0001
0100
0001
0100
0000
1000
0000
,  // measure 13
0001
0000
0000
0001
0010
0000
0100
0000
0020
0000
0000
0000
0000
0000
0000
0000
,  // measure 14
0030
0001
0100
0010
1000
0100
0010
0001
,  // measure 15
1000
0000
0000
1000
0001
0000
0100
0010
2000
0000
0000
0000
0000
0000
0000
0000
,  // measure 16
3000
0010
0100
0010
1000
0100
0001
0200
,  // measure 17
0000
0000
1300
0000
0010
0000
1000
0000
0001
0100
0001
0100
0001
0000
0010
0000
,  // measure 18
0000
0001
0100
1000
0100
0001
0010
0200
,  // measure 19
0000
0000
1300
0000
0010
0000
1000
0000
0100
0010
0100
0010
0100
0000
1000
0000
,  // measure 20
0001
0000
0000
0010
0001
0000
1000
0000
2002
0000
0000
0000
3003
0000
0000
0000
,  // measure 21
0100
1000
0010
0001
0010
1000
0100
0010
,  // measure 22
0001
0000
0000
1000
0001
0000
0100
0010
0100
0000
0000
0000
1001
0000
0000
0000
,  // measure 23
0000
0000
0100
1000
0000
0000
0010
0001
0000
0000
0100
0001
0000
0000
1000
0010
,  // measure 24
1000
0001
0010
1000
0010
0001
0100
0010
,  // measure 25
1000
0000
0100
1000
0010
0000
0100
0000
0001
1000
0001
1000
0010
0000
0000
0000
,  // measure 26
1010
0000
0000
0000
0011
0000
0000
0000
1100
0000
1000
0100
0010
0000
0000
0000
,  // measure 27
0011
0000
0001
0010
0100
0000
1000
0000
0010
0000
0100
0010
2000
0000
0000
0000
,  // measure 28
3020
0100
0100
0100
0100
0100
0100
0130
,  // measure 29
0000
0001
0010
0000
0001
1000
0100
0000
1000
0010
0100
0001
0020
0000
0000
0000
,  // measure 30
0030
0001
0010
0100
1000
0001
0010
0100
,  // measure 31
1000
0100
0010
0001
1000
0100
0010
1001
,  // measure 32
0000
0100
0010
1000
0001
0100
0010
1000
,  // measure 33
0001
0010
1000
0001
0100
0010
0001
0110
,  // measure 34
0000
1000
0010
0100
0001
1000
0010
0100
,  // measure 35
0001
1000
0010
0001
1000
0100
0001
0110
,  // measure 36
0000
0000
0001
0000
0010
0001
0000
0000
0010
1000
0000
0000
0010
0001
0000
0000
,  // measure 37
0010
1000
0000
0000
0001
0010
0000
0000
1000
0100
0000
0000
1000
0010
0000
0000
,  // measure 38
0001
0100
0010
0000
0100
0010
1000
0000
0001
0000
0010
0000
0100
1000
0001
0000
,  // measure 39
0100
0000
0010
0000
1000
0100
0010
0000
0001
0000
2002
0000
0000
0000
0000
0000
,  // measure 40
3003
0000
0000
0000
0000
0010
0000
0000
,  // measure 41
0100
0010
0100
0010
1000
0100
1000
0100
,  // measure 42
0010
0001
0010
0001
1000
0001
1000
0000
,  // measure 43
0010
1000
0010
1000
0001
0010
0001
0010
,  // measure 44
0100
1000
0100
1000
0001
0100
0010
0000
,  // measure 45
0000
2001
0000
3010
0100
1000
0100
0010
,  // measure 46
0000
1002
0000
0013
0100
0001
0100
0010
,  // measure 47
0000
2001
0000
3100
0010
0001
1000
0001
,  // measure 48
0100
1000
0001
0010
1000
0000
0110
0000
,  // measure 49
1010
1010
1010
0000
0011
0011
0011
0000
,  // measure 50
0220
0000
0330
0000
,  // measure 51
0100
1000
0010
0001
0100
0010
0100
0010
,  // measure 52
1000
0000
0001
0000
1000
0001
0010
0000
0200
0000
0000
0000
0300
0000
0000
0000
,  // measure 53
1000
0010
0100
0010
1000
0001
0010
0000
,  // measure 54
0001
0100
0010
0100
0001
0010
0100
0000
,  // measure 55
1000
0100
0001
0000
0001
0100
1000
0000
,  // measure 56
0001
0000
0010
0000
0100
0000
1000
0000
0010
0100
0010
0100
0010
0000
1000
0000
,  // measure 57
0001
0100
0010
0100
0001
0010
0100
0000
,  // measure 58
1000
0100
0010
0100
1000
0010
0100
0000
,  // measure 59
0001
0010
1000
0000
1000
0010
0001
0000
,  // measure 60
0100
0000
0010
0000
1000
0000
0001
0000
0010
0100
0010
0100
0010
0000
0000
0000
,  // measure 61
0001
0000
1000
0010
0000
0100
0001
0000
0010
0100
0000
1000
,  // measure 62
0010
0000
0000
0000
0100
0010
0100
0000
0000
0000
0001
0000
1000
0000
0000
0000
1000
0000
0010
0000
0000
0000
0010
0000
,  // measure 63
0100
0000
0001
0010
0000
0100
1000
0000
0010
0100
0000
0001
,  // measure 64
0010
0000
0001
0100
0000
1000
0010
0000
0000
1001
0000
0000
;
