#TITLE:GRADIUS -FULL SPEED-;
#SUBTITLE:;
#ARTIST:Mr.T;
#TITLETRANSLIT:;
#SUBTITLETRANSLIT:;
#ARTISTTRANSLIT:;
#GENRE:GRADIUS;
#CREDIT:;
#BANNER:GRADIUS_-FULL_SPEED-_banner.png;
#BACKGROUND:GRADIUS_-FULL_SPEED-.png;
#LYRICSPATH:;
#CDTITLE:;
#MUSIC:GRADIUS -FULL SPEED-.ogg;
#OFFSET:-0.530000;
#SAMPLESTART:2.030000;
#SAMPLELENGTH:12.000000;
#LASTBEATHINT:325.997131;
#SELECTABLE:YES;
#DISPLAYBPM:160.000000:220.000000;
#BPMS:0.000000=160.000000
,203.000000=440.000000
,205.000000=220.000000
,241.000000=160.000000
,262.000000=220.000000
,276.000000=80.000000
,277.000000=200.000000
;
#STOPS:203.000000=0.375000,
237.000000=0.091000,
237.333328=0.091000,
237.666672=0.091000,
238.000000=0.091000,
238.333328=0.091000,
238.666672=0.091000,
241.000000=0.273000,
261.000000=0.375000
;
#BGCHANGES:;
#KEYSOUNDS:;
#ATTACKS:;

//---------------dance-single - ----------------
#NOTES:
     dance-single:
     :
     Easy:
     6:
     0.230641,0.304277,0.099865,0.274629,0.004161,194.000000,182.000000,12.000000,33.000000,0.000000,0.000000,0.230641,0.304277,0.099865,0.274629,0.004161,194.000000,182.000000,12.000000,33.000000,0.000000,0.000000:
// measure 0
0000
0000
0000
0000
,  // measure 1
1001
0000
0010
0000
,  // measure 2
0010
0000
0100
0000
,  // measure 3
0100
0000
1000
0000
,  // measure 4
0001
1000
0001
0100
,  // measure 5
0020
0000
0030
0000
,  // measure 6
0200
0000
0300
0000
,  // measure 7
0002
0000
0003
0010
,  // measure 8
0000
0001
0000
1000
,  // measure 9
0100
1000
0001
0000
,  // measure 10
0100
0000
0220
0000
0000
0330
0000
0000
,  // measure 11
1000
0000
0010
1000
,  // measure 12
0001
0000
0010
0000
,  // measure 13
0001
0100
0001
0000
,  // measure 14
1000
0000
2002
0000
0000
3003
0000
0000
,  // measure 15
0100
0010
0100
0000
,  // measure 16
0001
0000
2002
0000
0000
3003
0000
0000
,  // measure 17
0100
0000
0000
0010
0000
0000
0100
0000
,  // measure 18
0010
0000
0000
0100
0000
0000
0000
0000
,  // measure 19
0001
0010
0000
0010
,  // measure 20
0100
1000
0000
1000
,  // measure 21
1001
0000
0110
0000
,  // measure 22
0001
0000
0001
0000
,  // measure 23
0001
0000
1000
0000
,  // measure 24
2000
0000
0000
3000
0000
0000
0100
0000
,  // measure 25
0000
0100
0000
0010
,  // measure 26
0000
0010
0000
0002
,  // measure 27
0000
0103
0010
0100
,  // measure 28
0000
0010
0000
2000
,  // measure 29
0000
3100
0010
0001
,  // measure 30
0000
1001
0000
0200
,  // measure 31
0000
0310
1000
0010
,  // measure 32
0000
0100
0000
0001
,  // measure 33
0010
0100
1000
0100
,  // measure 34
0010
0001
0000
0200
,  // measure 35
0000
0301
0010
0001
,  // measure 36
0000
1000
0000
0010
,  // measure 37
0000
0100
0000
0000
0000
0000
0200
0000
,  // measure 38
0000
0310
0000
0020
,  // measure 39
0000
0130
0000
2000
,  // measure 40
0000
3001
0000
0020
,  // measure 41
0000
0000
0000
0030
0000
0000
0000
0000
0100
0000
0000
0000
,  // measure 42
0000
0000
0000
1000
,  // measure 43
0001
1000
0010
2000
,  // measure 44
0000
3000
0000
0001
,  // measure 45
0010
0001
1000
0002
,  // measure 46
0000
0003
0000
0100
,  // measure 47
0010
1000
0000
0100
,  // measure 48
0010
0001
0000
2002
,  // measure 49
0000
3003
0100
0220
,  // measure 50
0000
0330
0000
0000
,  // measure 51
0000
0001
0000
0010
,  // measure 52
0000
0001
1000
0100
,  // measure 53
0000
1000
0000
0010
,  // measure 54
0100
0020
0000
0030
,  // measure 55
1000
0002
0000
0003
,  // measure 56
0010
0002
0000
0003
,  // measure 57
0100
0020
0000
0130
,  // measure 58
0000
0020
0000
0130
,  // measure 59
0000
0001
1000
0002
,  // measure 60
0003
0000
0000
0000
,  // measure 61
0000
1000
0100
0010
,  // measure 62
0100
1000
0001
0010
,  // measure 63
0100
0001
0100
1000
,  // measure 64
0010
1000
0001
0010
,  // measure 65
0100
0000
1000
0000
,  // measure 66
1000
0000
0010
0000
,  // measure 67
0010
0000
0100
0000
,  // measure 68
0100
0000
0001
0000
,  // measure 69
1001
0100
0000
0100
,  // measure 70
0000
0100
0000
0100
,  // measure 71
0000
0020
0000
0000
,  // measure 72
0030
1000
0000
0001
,  // measure 73
0000
0010
0000
0001
,  // measure 74
0000
1000
0000
0010
,  // measure 75
0000
1000
0000
0100
,  // measure 76
0000
0010
0000
0001
,  // measure 77
0000
0100
0000
0010
,  // measure 78
0000
1000
0000
0001
,  // measure 79
0000
2002
0000
3003
,  // measure 80
0000
0100
0000
0010
,  // measure 81
0000
0110
0000
0000
;

//---------------dance-single - ----------------
#NOTES:
     dance-single:
     :
     Medium:
     12:
     0.468415,0.574745,0.199730,0.324562,0.282951,394.000000,370.000000,24.000000,39.000000,0.000000,0.000000,0.468415,0.574745,0.199730,0.324562,0.282951,394.000000,370.000000,24.000000,39.000000,0.000000,0.000000:
// measure 0
0000
0000
0000
0000
,  // measure 1
0001
0000
0000
1000
0000
0000
0010
0000
0000
1000
0000
0000
0100
0000
0010
0000
,  // measure 2
0100
0000
0000
1000
0000
0000
0001
0000
0000
0010
0000
0000
0001
0000
0100
0000
,  // measure 3
0010
0000
0000
1000
0000
0000
0001
0000
0000
1000
0000
0000
0100
0000
0010
0000
,  // measure 4
0001
0000
0000
0100
0000
0000
0010
0000
0000
1000
0000
0000
0100
0000
0010
0000
,  // measure 5
0100
1000
0100
0000
0010
0001
0100
0010
,  // measure 6
1000
0001
1000
0000
0010
0100
0001
0010
,  // measure 7
0001
1000
0010
0000
0100
0000
0010
1000
,  // measure 8
0000
0010
0001
0000
0010
0100
0010
0000
,  // measure 9
1000
0000
1100
0000
0001
0010
0000
0001
,  // measure 10
0100
0220
0330
1000
,  // measure 11
0001
0000
0000
0100
0000
0000
0010
0000
0000
0000
1000
0000
0100
0000
0010
0000
,  // measure 12
0001
0000
0000
0010
0000
0000
0100
0000
1000
0000
0000
0010
0000
0000
0100
0000
,  // measure 13
0001
0000
1001
0000
0100
0010
1000
0000
,  // measure 14
0001
2200
3300
0001
,  // measure 15
0010
0001
0000
0100
0001
0010
0100
0000
,  // measure 16
1000
0000
0000
0002
0000
0000
0000
0000
0000
0000
0000
0000
0003
0000
0000
0000
,  // measure 17
0100
0000
0000
0010
0000
0000
1010
0000
0000
0000
0000
0000
0100
0000
0000
0000
,  // measure 18
0001
0000
0000
0010
0000
0000
0202
0000
0000
0000
0000
0000
0303
0000
0000
0000
,  // measure 19
0001
0010
0100
0000
1000
0010
0100
0000
,  // measure 20
0001
1000
0100
0000
1000
0010
0100
0001
,  // measure 21
0010
0000
1001
0000
0100
0010
0100
0000
,  // measure 22
0001
0010
0100
1000
,  // measure 23
0000
0010
0000
0000
0000
0000
0100
0000
0010
0100
0000
0000
,  // measure 24
0010
0100
0010
2000
0000
0000
3001
0000
,  // measure 25
0001
0010
0100
0010
0002
0000
1003
0000
,  // measure 26
0010
0100
0010
1000
0100
0000
1020
0000
,  // measure 27
0000
0000
0130
0001
0100
0000
0001
0010
,  // measure 28
0001
0000
0000
0000
1000
0000
0000
0100
0000
0000
0010
0000
0200
0000
0000
0000
,  // measure 29
1300
0000
0010
0100
0001
0000
0010
0100
,  // measure 30
1000
0000
0000
0000
1000
0000
0000
0001
0000
0000
0100
0000
0020
0000
0000
0000
,  // measure 31
1030
0000
0000
0000
0001
0000
0010
0000
0100
0000
0000
0000
1000
0000
0000
0010
,  // measure 32
0000
0000
1000
0000
0001
0000
0000
0010
0000
0000
0001
0000
1000
0000
0010
0000
,  // measure 33
0100
0000
0001
0000
0010
0000
0100
0000
1000
0000
0000
0000
0001
0000
0000
0100
,  // measure 34
0000
0000
0010
0000
0000
1000
0000
0000
0001
0000
0000
0000
0120
0000
0000
0000
,  // measure 35
0000
0000
1030
0100
1000
0000
0001
0010
,  // measure 36
0100
0000
0000
0000
0010
0000
0100
0000
1000
0000
0000
0000
0010
0000
0000
0010
,  // measure 37
0000
0000
0000
0220
0000
0000
0000
0000
0000
0000
0000
0000
0330
0000
0000
0000
0000
0000
0001
0000
0000
0000
0010
0000
,  // measure 38
0000
0100
0000
1000
0000
0010
0000
0100
0000
0001
0000
1000
,  // measure 39
0000
0100
0000
1000
0000
0010
0000
0100
0000
0001
0000
1000
,  // measure 40
0000
0100
0000
0010
0000
0001
0000
1000
0000
0000
0010
0100
,  // measure 41
0010
0100
0000
0010
0000
0100
0000
0000
2002
0000
0000
0000
,  // measure 42
0000
0000
3003
0001
,  // measure 43
0010
0000
0001
0000
0000
1000
0000
0000
0020
0000
0000
0000
,  // measure 44
0000
0030
0100
0010
,  // measure 45
1000
0000
0100
0000
0000
1000
0000
0000
0020
0000
0000
0000
,  // measure 46
0000
0030
0100
0001
,  // measure 47
0010
0000
0002
0000
0000
0000
1003
0000
0000
0010
0000
0000
,  // measure 48
1000
0000
0200
0000
0000
0000
1300
0000
0000
2020
0000
0000
,  // measure 49
0000
0000
0000
3030
0000
0001
0000
0010
0000
0022
0000
0000
,  // measure 50
0000
0000
0000
0033
0000
0000
1000
0000
0001
0000
0000
0000
,  // measure 51
0000
0000
0110
0000
0000
1000
0000
0000
,  // measure 52
0010
0000
1100
0000
0000
0001
0000
0000
,  // measure 53
0010
0000
0001
0000
1000
0100
1000
0000
,  // measure 54
0001
0010
0200
0000
0000
0000
1300
0000
,  // measure 55
0010
1000
0200
0000
0000
0310
0000
0000
,  // measure 56
0001
0010
0200
0000
0000
1300
0000
0000
,  // measure 57
0010
1000
0020
0000
0100
0000
0130
0000
,  // measure 58
0100
0001
0200
0000
0010
0000
0310
0000
,  // measure 59
0000
0000
0000
1000
0001
0010
0100
1000
0001
0100
0000
0000
,  // measure 60
0220
0330
0000
0000
,  // measure 61
0000
0000
0001
0010
0001
0100
0010
1000
,  // measure 62
0100
1000
0010
0100
0001
0010
0001
1000
,  // measure 63
0001
0100
0010
1000
0010
0100
0001
0010
,  // measure 64
0001
1000
0100
0001
0100
1000
0100
0010
,  // measure 65
0001
1000
0000
0000
0010
0000
0110
0000
,  // measure 66
0010
1010
1000
1100
,  // measure 67
0001
0101
0010
0001
,  // measure 68
1000
0001
0100
0000
0010
1000
0001
1000
,  // measure 69
0010
0000
0000
0100
0000
0000
0000
0000
0001
0000
0000
0000
,  // measure 70
0100
0000
0000
1000
0000
0000
0000
0000
0100
0000
0000
0000
,  // measure 71
0010
0220
0000
0000
,  // measure 72
0330
0000
0000
0001
0000
0000
0010
0000
0100
0000
0000
1000
,  // measure 73
0010
0000
0000
0100
0000
0000
0000
0000
0001
0000
0000
0000
,  // measure 74
0010
0000
0000
0001
0000
0000
0010
0000
0100
0000
0000
0000
,  // measure 75
1000
0000
0010
0000
0000
0000
0100
0000
0001
0000
0000
0000
,  // measure 76
0010
0000
0001
0000
0000
0000
1000
0000
0001
0000
0000
0000
,  // measure 77
1001
0000
0000
0000
0000
0000
0020
0000
0000
0000
0000
0000
0000
0000
0000
0030
1000
0000
0000
0000
0000
0000
0000
0000
,  // measure 78
0002
0000
0000
0023
0000
0000
0000
0000
1030
0000
0000
0000
,  // measure 79
0010
2002
0000
0000
,  // measure 80
3003
0000
0000
0100
0000
0000
0000
0000
0010
0000
0000
0000
,  // measure 81
0100
1001
0000
0000
;

//---------------dance-single - ----------------
#NOTES:
     dance-single:
     :
     Hard:
     16:
     0.705001,0.832210,0.166442,0.266307,1.056906,593.000000,573.000000,20.000000,32.000000,0.000000,0.000000,0.705001,0.832210,0.166442,0.266307,1.056906,593.000000,573.000000,20.000000,32.000000,0.000000,0.000000:
// measure 0
0000
0000
0000
0000
,  // measure 1
1000
0000
0100
1000
0000
0001
0000
1000
0000
0100
0000
0010
0000
0001
0100
0001
,  // measure 2
0010
0001
0000
0100
0000
0010
0000
1000
0000
0100
0000
0010
0000
0001
0100
0001
,  // measure 3
0100
0001
0000
0010
0000
0001
0000
0100
0000
0010
0000
1000
0000
0100
1000
0001
,  // measure 4
1000
0100
0000
0010
0000
0001
0000
1000
0000
0001
0000
0100
0000
0010
0100
0010
,  // measure 5
1000
0000
0100
1000
0000
0001
0000
1000
0000
0100
0000
1000
0000
0010
0100
0000
,  // measure 6
0001
0000
0100
0001
0000
1000
0000
0100
0000
0010
0000
0001
0000
1000
0001
0000
,  // measure 7
1000
0000
0010
0100
0000
0010
0000
1000
0000
0000
0100
0000
0010
0001
0000
0000
,  // measure 8
0000
0000
0100
0001
0100
0000
0000
0000
0000
0000
0010
1000
0010
0000
0000
0000
,  // measure 9
0010
0000
0000
0000
0010
0000
0000
0001
1000
0000
0010
0000
0100
0000
0010
0000
,  // measure 10
1000
0000
0000
0001
1000
0000
0000
0000
0000
0000
0010
1000
0001
0100
0001
0100
,  // measure 11
0010
0000
0000
0001
0000
0000
0010
0000
1000
0000
0100
0000
0010
0100
0010
0100
,  // measure 12
0010
0000
0001
0010
0000
0100
0000
0010
1000
0000
0010
0100
0000
0010
0001
0000
,  // measure 13
1000
0000
0000
0000
1000
0000
0000
0001
0100
0000
0010
0000
0000
0000
1000
0000
,  // measure 14
0001
0000
0000
1000
0100
0000
0000
0000
0000
0000
0010
0100
0010
0001
0010
0001
,  // measure 15
1000
0000
0001
0100
0000
0000
0001
0000
0010
0000
0001
0000
0000
0000
1000
0000
,  // measure 16
0001
0000
0000
0100
0020
0000
0000
0000
0000
0000
0000
0000
0030
0000
0000
0000
,  // measure 17
1010
0000
0000
0101
0000
0000
0022
0000
0000
0000
0033
0000
1000
0000
0000
0000
,  // measure 18
0011
0000
0000
0110
0000
0000
2200
0000
0000
0000
0000
0000
3300
0000
0000
0000
,  // measure 19
0001
0010
0100
1000
0000
0000
0001
0000
1000
0010
0100
0001
0000
0000
1000
0000
,  // measure 20
0100
1000
0001
0010
0000
0000
0001
0000
0100
0001
1000
0010
0000
0000
0100
0000
,  // measure 21
0200
0000
0020
0330
,  // measure 22
0001
0000
0001
0000
1000
0000
0001
0010
0000
0001
0010
0000
0001
0000
0001
0000
,  // measure 23
1000
0100
0000
0000
1000
0000
0010
0100
0010
1000
0000
1000
0010
0000
0100
0000
,  // measure 24
0100
0000
0001
0000
0010
0001
0020
0000
0000
0000
0000
0000
0031
0000
0000
0100
,  // measure 25
1000
0000
0100
0000
0001
0000
0001
0000
0010
0000
0010
0000
0100
0000
0000
1000
,  // measure 26
0100
0001
0001
0100
0000
0000
0220
0000
,  // measure 27
0330
0000
0000
0000
0001
0010
0100
1000
0000
0000
0000
0000
0010
0100
0001
1000
,  // measure 28
0000
0000
0000
0000
0001
0000
0000
0010
0000
0000
0100
0000
2000
0000
0000
0000
,  // measure 29
3010
0000
0000
0000
1000
0100
0010
0001
0000
0000
0010
0000
0001
0100
0010
1000
,  // measure 30
0000
0000
0100
0000
1000
0000
0000
0010
0000
0000
0100
0000
0002
0000
0000
0000
,  // measure 31
1003
0000
0000
0000
1000
0100
0010
0001
0000
0000
0100
0000
0010
0000
0000
1000
,  // measure 32
0000
0000
0001
0000
0010
0000
0000
0100
0000
0000
1000
0000
0001
0000
0100
0000
,  // measure 33
0010
0100
0010
0100
0001
0000
0010
0000
0100
1000
0100
1000
0010
0000
0000
1000
,  // measure 34
0000
0000
0100
0000
0000
0010
0000
0000
1001
0000
0000
0000
0020
0000
0000
0000
,  // measure 35
1030
0000
0000
0000
0100
1000
0010
0100
0000
0000
0001
0000
0010
0001
0000
0001
,  // measure 36
0000
0000
1000
0000
0010
0100
0000
0100
0000
0000
0010
0000
1000
0001
0000
1000
,  // measure 37
0000
0000
0000
0001
0000
0000
0200
0000
0000
0000
0000
0000
0000
0000
0000
0000
0000
0000
0000
0000
0000
0000
0000
0000
0300
0000
0000
0000
0000
0000
0000
0000
0000
0000
0000
0000
0001
0000
0000
0000
0010
0000
0000
0000
0001
0000
0000
0000
,  // measure 38
0010
0001
0010
0100
0000
1000
0000
0010
0000
1000
0010
1000
,  // measure 39
0010
1000
0010
0100
0000
0001
0000
0010
0000
0001
1000
0001
,  // measure 40
1000
0000
0010
0100
0010
0100
0001
0000
0010
0000
0100
0100
,  // measure 41
0100
0010
0000
0100
0000
0010
0000
0000
2002
0000
0000
0000
,  // measure 42
0000
0000
0000
0000
0000
0000
3003
0000
0000
0100
0010
1000
,  // measure 43
0010
0000
0100
0000
0000
0001
0010
0000
0002
0000
0000
0000
,  // measure 44
1000
0000
1003
0000
0000
0010
0100
0000
0000
0010
1000
0100
,  // measure 45
1000
0000
0001
0000
0000
1000
0010
0000
0200
0000
0000
0000
,  // measure 46
0001
0000
0301
0000
0010
0001
0000
0000
0000
1000
0010
0100
,  // measure 47
0010
0000
1000
0000
0000
0100
0010
0000
0000
0001
0010
0100
,  // measure 48
0010
0000
0001
0000
0000
1000
0010
0000
0000
0220
0000
0000
,  // measure 49
0000
0000
0000
0330
0000
0000
0000
0000
0001
0000
0010
0000
0001
0000
0100
0000
0010
0000
2000
0000
0000
0000
0000
0000
,  // measure 50
0000
0000
0000
0000
0000
0000
0000
0000
3001
0000
0000
0000
0100
0000
0000
0000
0010
0000
0000
0000
0100
0000
0000
0000
0010
0000
0000
0000
1000
0000
0000
0000
0100
0000
0000
0000
2000
0000
0000
3000
0000
0000
0000
0000
0000
0000
0000
0000
,  // measure 51
0000
0000
0101
0000
0010
0100
0001
0000
,  // measure 52
0011
0000
1000
0000
0010
0100
0001
0000
,  // measure 53
1000
0100
0010
0000
0100
1000
0010
0000
,  // measure 54
1000
0001
1000
0001
0020
0000
0000
0000
0100
0000
0000
0000
0130
0000
0000
0000
,  // measure 55
0010
0100
0010
0100
1000
0000
0000
0000
0001
0000
0010
0000
0001
0000
0000
0000
,  // measure 56
1000
0100
1000
0100
0020
0000
0000
0000
0031
0000
0100
0000
0001
0000
0000
0000
,  // measure 57
0010
0001
1000
0001
2000
0000
0000
0000
0010
0000
0000
0000
3010
0000
0000
0000
,  // measure 58
0100
0001
0100
0001
0020
0000
0000
0000
0100
0000
0000
0000
0130
0000
0000
0000
,  // measure 59
1000
0000
0000
0001
0000
0000
0010
0000
0011
0000
1100
0000
1001
0000
0011
0000
1001
0000
0100
0000
0010
0000
0100
0000
,  // measure 60
0220
0000
0330
0000
0000
0000
0000
0000
0000
0000
0000
0000
,  // measure 61
0000
0000
0000
0000
0001
0010
0001
0000
1000
0010
1000
0000
0001
0100
0001
0000
,  // measure 62
1000
0100
1000
0000
0010
1000
0010
0000
0100
0001
0100
0000
0001
0010
0001
0000
,  // measure 63
1000
0100
1000
0000
0010
0100
0001
0000
0010
0100
1000
0000
0001
0100
0010
0000
,  // measure 64
1000
0100
0010
0000
0010
0100
1000
0000
0001
0010
0100
0000
0010
0100
1000
0000
,  // measure 65
0001
0000
0000
0100
0000
0000
0010
0000
0000
1000
0000
0000
0000
0000
0000
0000
0000
0000
0000
0000
0000
0000
0000
0000
0001
0000
0000
0000
0000
0000
0000
0000
0001
0000
0000
0000
1000
0000
0000
0000
0000
0000
0000
0000
1000
0000
0000
0000
,  // measure 66
0100
0000
0100
0010
0000
0010
0100
0000
0100
0001
0000
0001
,  // measure 67
1000
0000
1000
0010
0000
0010
0001
0000
0001
1000
0000
1000
,  // measure 68
0001
0000
1000
0001
0010
0100
1000
0010
0100
0001
1000
0001
,  // measure 69
0100
0000
0000
0010
0000
0100
0010
0000
1000
0010
0000
0100
,  // measure 70
0010
0000
0001
0010
0000
1000
0100
0000
0010
0100
0000
1000
,  // measure 71
0100
0220
0000
0000
,  // measure 72
0330
0000
0000
0001
0000
1000
0100
0000
0010
0000
0000
0100
,  // measure 73
1000
0000
0000
0001
0000
0010
0001
0000
1000
0010
0000
0100
,  // measure 74
0001
0000
1000
0001
0000
0010
0100
0000
1000
0000
0000
0010
,  // measure 75
1000
0000
0001
0000
0000
0100
0010
0000
1000
0000
0000
0001
,  // measure 76
1000
0000
0100
0000
0000
0010
0100
0000
1000
0000
0000
1000
,  // measure 77
0100
0000
0000
1000
0000
0010
1000
0000
0001
1000
0000
0100
,  // measure 78
1000
0000
0001
0010
0000
0100
1000
0000
0010
1000
0000
0001
,  // measure 79
0010
2002
0000
0000
,  // measure 80
3003
0000
0000
0000
;
