#TITLE:冬椿 ft. Kanae Asaba;
#SUBTITLE:;
#ARTIST:Xceon;
#TITLETRANSLIT:Fuyutsubaki ft. Kanae Asaba;
#SUBTITLETRANSLIT:;
#ARTISTTRANSLIT:;
#GENRE:HYPER ENKA POP;
#CREDIT:;
#BANNER:Fuyutsubaki_banner.png;
#BACKGROUND:Fuyutsubaki.png;
#LYRICSPATH:;
#CDTITLE:;
#MUSIC:Fuyutsubaki ft. Kanae Asaba.ogg;
#OFFSET:0.350000;
#SAMPLESTART:51.905998;
#SAMPLELENGTH:12.380000;
#LASTBEATHINT:311.500000;
#SELECTABLE:YES;
#BPMS:0.000000=155.000000
;
#STOPS:
;
#BGCHANGES:;
#KEYSOUNDS:;
#ATTACKS:;

//---------------dance-single - ----------------
#NOTES:
     dance-single:
     :
     Easy:
     5:
     0.213915,0.250917,0.121411,0.283293,0.000000,185.000000,170.000000,15.000000,35.000000,0.000000,0.000000,0.213915,0.250917,0.121411,0.283293,0.000000,185.000000,170.000000,15.000000,35.000000,0.000000,0.000000:
0000
0000
0000
0000
,
0000
0000
0000
0000
,
0000
0000
0000
0000
,
0000
0000
0000
0000
,
0000
0000
0000
0000
,
1001
0000
0100
0000
,
0001
0000
0010
0000
,
0100
0000
1000
0000
,
0001
1000
2002
3003
,
1000
0000
0010
0100
,
0001
0000
0010
0001
,
1000
0000
0001
0000
,
0010
0100
0220
0330
,
0001
0000
1000
0000
,
0010
0000
0100
0000
,
0001
0000
1000
0000
,
0010
0100
0220
0330
,
1000
0000
0100
0010
,
0001
0000
0010
0000
,
0001
0000
0100
0010
,
1000
0000
1010
0000
,
0100
0000
0001
0010
,
0001
0000
0100
0000
,
0010
0000
1000
0100
,
1000
0000
1001
0000
,
0200
0000
0310
0010
,
2000
0000
0000
0000
0000
3000
0000
0000
,
0002
0000
0013
0010
,
0200
0000
0000
0000
0000
0300
0000
0000
,
2000
0000
3001
0001
,
0020
0000
0000
0000
0000
0030
0000
0000
,
0200
0000
1300
1000
,
0002
0000
0000
0000
0000
0003
0000
0000
,
2002
0000
3003
0000
,
0100
0000
0010
1000
,
0001
0000
0010
0000
,
0001
0000
1000
0000
,
0010
0100
0010
0000
,
1000
0000
0100
1000
,
0001
0000
0100
0000
,
0110
0000
0001
0000
,
1000
0001
2002
3003
,
0100
0000
0001
1000
,
0001
0000
0010
0001
,
0100
0000
0010
0000
,
2020
0000
0000
0000
0000
3030
0000
0000
,
0100
0000
1000
0001
,
1000
0000
0010
0000
,
1100
0000
0001
0000
,
0010
0001
0010
0000
,
0200
0000
0000
0300
,
2000
0000
0000
3000
,
0020
0000
0000
0030
,
0002
0000
0000
0003
,
0100
0000
0010
0100
,
0010
0000
1000
0001
,
2000
0000
3001
0000
,
0010
0001
1000
0000
,
0010
0000
0100
0000
,
0001
0000
2002
3003
,
1000
0000
0010
1000
,
0100
0000
1000
0001
,
0100
0000
0001
0000
,
0010
0001
0022
0033
,
1000
0000
0001
0010
,
0100
0000
0010
0100
,
1000
0000
0010
0000
,
0100
0001
2002
3003
,
0010
0000
0010
0001
,
0100
0000
0100
0010
,
1000
0000
1000
0001
,
0100
0000
0110
0000
,
0001
1000
0100
0000
,
1000
0001
0100
0000
,
0010
1000
0001
0000
,
0020
0000
0230
0000
,
2300
0000
3002
0000
,
0000
0000
0003
0000
;

//---------------dance-single - ----------------
#NOTES:
     dance-single:
     :
     Medium:
     8:
     0.323763,0.376375,0.226634,0.493739,0.008094,280.000000,252.000000,28.000000,61.000000,0.000000,0.000000,0.323763,0.376375,0.226634,0.493739,0.008094,280.000000,252.000000,28.000000,61.000000,0.000000,0.000000:
0000
0000
0000
0000
,
0000
0000
0000
0000
,
0000
0000
0000
0000
,
0000
0000
0000
0000
,
0000
0000
0000
1000
,
0101
0001
1100
0010
,
0220
0330
0001
1000
,
2002
3003
2020
3030
,
0200
0301
2002
3003
,
0010
0000
0001
1000
0001
0000
0100
0000
,
0010
0000
1000
0000
0100
1000
0001
0000
,
0200
0000
0310
1000
,
0001
0010
0022
0033
,
1000
0000
0001
0100
0001
0000
0010
0000
,
0100
0000
1000
0000
0010
0100
0010
0000
,
2002
3003
0220
0330
,
1000
0001
2002
3003
,
0100
0000
0010
0100
0010
0000
1000
0000
,
0100
0200
0000
0300
,
0010
0000
0001
1000
0001
0000
0100
0000
,
0010
1000
0002
0003
,
0100
0000
0010
1000
0010
0000
1000
0000
,
0200
0010
0310
0000
,
0001
0000
0100
0010
0100
0000
0001
0000
,
1000
0010
2020
0000
,
3030
0000
0100
0000
0001
0000
1000
0200
,
0000
0000
0300
0000
,
0010
0000
0001
0000
1000
0000
0001
0020
,
0000
0000
0100
0130
,
1000
0000
0001
0000
0100
0000
0010
2000
,
0000
0000
0000
3000
,
0001
0000
1000
0000
0100
0000
0010
0002
,
0000
0000
1003
0000
,
0100
0000
0000
0010
0000
0000
0100
0000
0020
0000
0000
0000
0030
0000
0000
0000
,
1000
0000
0100
1000
0001
0000
1000
0000
,
0001
0000
0010
0000
0001
0100
0010
0000
,
2000
0000
3002
0000
,
0013
0100
0220
0330
,
0001
0000
1000
0010
1000
0000
0100
0000
,
0020
0000
0000
0000
0031
1000
0001
0000
,
2020
3030
0202
0303
,
0010
0001
2002
3003
,
0010
0000
0000
0100
0010
0000
1000
0000
,
0100
0000
0000
1000
0010
0000
0100
0000
,
0001
0010
0100
1000
,
2002
0000
0000
0000
0000
3003
0000
0000
,
0110
0000
0000
0010
1000
0000
0100
0000
,
1000
0001
0010
0001
,
0101
0000
1010
0000
,
1000
0001
2002
3003
,
0200
0000
0320
0000
,
2030
0000
3200
0000
,
0320
0000
0032
0000
,
1003
0001
2002
3003
,
0100
0010
0100
0000
,
0001
0010
0001
0000
,
1100
0000
1001
0000
,
0100
0001
0202
0303
,
0010
1000
0001
0100
,
0001
0000
0000
0010
0000
0000
0100
0000
2000
0000
0000
0000
3000
0000
0000
0000
,
0010
0000
0100
0010
1000
0000
0100
0000
,
0010
0000
0001
1000
0001
0000
0100
0000
,
0002
0000
2003
0000
,
3100
0010
0220
0330
,
0001
0000
1000
0100
1000
0000
0001
0000
,
0200
0000
0000
0000
0301
0010
0001
0000
,
1001
0000
1010
0000
,
0001
1000
0001
1000
0200
0000
0300
0000
,
0010
0000
0001
0000
1000
0000
0010
0100
,
0000
0010
1000
0100
,
1000
0000
0001
0000
0100
0000
0010
1000
,
0000
0100
1000
1001
,
0100
0000
0010
0000
1000
0000
0001
0010
,
0000
0001
1000
0010
,
0100
0000
0001
0000
1000
0000
0100
0010
,
0000
0001
0010
0100
,
1000
0000
0001
0000
0010
0100
2000
0000
,
0000
0000
3000
0000
;

//---------------dance-single - ----------------
#NOTES:
     dance-single:
     :
     Hard:
     13:
     0.610525,0.658656,0.396610,0.356140,0.198305,528.000000,479.000000,49.000000,44.000000,0.000000,0.000000,0.610525,0.658656,0.396610,0.356140,0.198305,528.000000,479.000000,49.000000,44.000000,0.000000,0.000000:
0000
0000
0000
0000
,
0000
0000
0000
0000
,
0000
0000
0000
0000
,
0000
0000
0000
0000
,
0010
0100
2002
3003
,
0110
0000
1000
0001
1001
0000
0010
0001
,
2000
0000
3010
0100
0001
1000
0100
0010
,
0022
0033
2020
3030
,
0001
0100
1000
0100
0002
0000
1003
0100
,
0020
0000
0031
0100
0020
0000
1030
0100
,
1000
0000
0001
0000
0100
0000
0010
0000
1000
0100
1000
0000
0001
0000
0010
0000
,
0001
1000
0010
0100
0001
0010
0100
1000
,
0010
0100
0001
1000
0100
0010
0110
0000
,
2000
0000
3010
0100
0002
0000
0103
0010
,
1000
0000
0001
0000
0010
0000
0100
0000
0010
0001
0010
0000
0100
0000
1000
0000
,
0010
0100
0010
0000
0000
0000
0010
0000
1000
0000
0000
0000
1001
0000
0000
0000
,
0100
1000
0010
0001
0100
0000
0110
0000
,
0001
0010
0001
1000
0000
1100
0000
0010
,
0000
0011
0000
0001
1000
0010
0100
0010
,
1000
0000
0001
0000
0010
0000
0001
0000
0000
0000
0001
0000
1000
0000
0010
0100
,
0010
1000
0100
0010
0001
0000
1001
0000
,
0100
0010
1000
0010
0000
0110
0000
0100
,
0001
0010
0001
1000
0010
1000
0100
0010
,
0100
1000
0100
0001
0100
1000
0010
0100
,
0001
0100
1000
0100
0001
0000
0110
0000
,
1010
0000
0000
1000
0001
0000
0000
0001
0010
0000
0100
0000
1000
0000
0010
0000
,
1000
0100
0010
0001
2000
0001
3001
0000
,
0010
0000
0000
0010
0100
0000
0000
0100
1000
0000
0010
0000
1000
0000
0001
0000
,
0100
0010
0100
0001
2000
0010
3010
0000
,
0100
0000
0000
0100
0001
0000
0000
0001
0010
0000
0001
0000
1000
0000
0010
0000
,
0100
0001
1000
0001
0020
0100
0130
0000
,
1100
0000
0001
0000
0100
0010
0100
0001
,
1000
0010
0001
0010
1000
0001
0010
0100
,
1000
0000
0000
1010
0000
0000
0001
0000
0011
0000
0000
0000
0200
0000
0000
0000
,
0301
0000
0010
0000
0100
0000
1000
0000
0010
0100
0001
0000
1000
0000
0010
0000
,
0100
0000
0010
0000
1000
0000
0001
0000
1000
0100
0010
0000
0100
0000
1000
0000
,
0020
0000
0130
0001
2001
0000
3100
0000
,
0012
0000
0103
0000
2010
0000
3100
0010
,
0001
0000
1000
0000
0001
0000
0010
0000
0100
0010
0100
0000
1000
0000
0010
0000
,
0100
0000
0001
0000
1000
0000
0100
0000
0010
0100
0010
0000
0001
0000
0100
0000
,
0010
0100
0001
1000
0100
0000
0110
0000
,
1000
0010
0001
0010
1000
0000
1001
0000
,
0011
0000
0000
0000
0000
0000
1000
0010
0100
0000
0000
0000
0001
0000
0000
0000
,
0101
0000
0000
0000
0000
0000
0010
1000
0001
0000
0000
0000
0010
0000
0000
0000
,
0100
1100
0001
0011
,
2002
0000
0000
0003
0000
3010
1010
0000
,
0101
0000
0000
0000
0000
0000
0010
0001
1000
0000
0000
0000
0100
0000
0000
0000
,
1000
0011
2200
3300
,
0101
0000
0000
0000
0000
0000
1000
0001
0010
0000
0000
0000
0001
0000
0000
0000
,
1001
0110
2002
3003
,
0020
0000
0031
1000
0002
0000
1003
0010
,
2000
0000
0000
3010
0100
0010
1000
0000
,
1001
0000
0000
0010
0001
0000
1000
0000
,
0010
0100
2002
3003
,
0010
0000
0001
0000
1000
0010
0000
0010
0000
0010
0000
0010
0100
0000
0000
0000
,
0001
0000
1000
0000
0010
0100
0000
0100
0000
0100
0000
0100
0001
0000
0000
0000
,
2020
3030
0022
0033
,
1100
0000
0101
0000
0010
1000
0001
0100
,
0010
1000
0001
0000
0100
0000
0000
0000
0001
0000
1000
0000
1001
0000
0000
0000
,
0011
0000
0000
1100
0000
0000
0001
0000
2002
0000
0000
0000
3003
0000
0000
0000
,
0010
0100
0010
0000
1000
0000
0100
0000
1000
0000
0001
0010
0000
0001
1000
0000
,
0010
0000
1000
0100
0000
0010
0001
0000
1000
0001
1000
0000
0010
0000
0100
0000
,
0001
1000
0010
0000
0100
0000
0001
0000
1000
0000
0010
0100
0001
0000
0000
0000
,
0011
1100
2002
3003
,
0100
0010
0100
0000
0001
0000
0010
0000
0001
0000
1000
0100
0000
1000
0010
0000
,
0100
0000
0001
0010
0000
0000
0001
0000
1000
0010
1000
0000
0100
0000
0010
0000
,
0001
0000
1000
0000
0010
0000
1000
0000
0001
0100
0010
0000
0100
0000
0000
0000
,
0010
1000
0100
0001
0010
0000
1001
0000
,
0010
0000
0001
1000
0001
0000
0100
0000
0010
0000
1000
0000
0010
0000
0100
0000
,
0000
0100
0001
0010
0001
1000
0100
0010
,
0001
0000
1000
0010
1000
0000
0001
0000
1000
0000
0001
0000
0100
0000
0010
0000
,
0000
0010
1000
0100
0020
0001
0031
0000
,
1000
0000
0001
0100
0001
0000
1000
0000
0010
0000
0100
0000
0001
0000
0010
0000
,
0000
0010
0100
1000
0010
0100
0001
0100
,
0010
0000
1000
0100
0010
0000
0100
0000
1000
0000
0001
0000
0100
0000
0010
0000
,
1000
0001
0100
0000
0010
0000
0100
0000
0001
1000
0010
0000
0100
0000
0001
0000
,
0020
0230
0302
2000
,
0000
0000
3003
0000
;

//---------------dance-double - ----------------
#NOTES:
     dance-double:
     :
     Hard:
     13:
     0.583930,0.594005,0.372328,0.275199,0.178070,505.000000,459.000000,46.000000,34.000000,0.000000,0.000000,0.583930,0.594005,0.372328,0.275199,0.178070,505.000000,459.000000,46.000000,34.000000,0.000000,0.000000:
// measure 0
00000000
00000000
00000000
00000000
,  // measure 1
00000000
00000000
00000000
00000000
,  // measure 2
00000000
00000000
00000000
00000000
,  // measure 3
00000000
00000000
00000000
00000000
,  // measure 4
00010000
00001000
00022000
00033000
,  // measure 5
00110000
00000000
10000000
00010000
01000000
00000000
00100000
01000000
,  // measure 6
00001000
00000000
00010000
00000100
00001000
00000010
00000100
00000000
,  // measure 7
00002002
00003003
00020020
00030030
,  // measure 8
00010000
00001000
00000100
00001000
00010000
00000000
00011000
00000000
,  // measure 9
00200000
00000000
00310000
01000000
00100000
10000000
01000000
10000000
,  // measure 10
00100000
10000000
00010000
10000000
00100000
01000000
00010000
00000000
,  // measure 11
00101000
00000000
00010000
00000100
00001000
00000100
00010000
00000010
,  // measure 12
00001000
00000001
00000010
00000001
00000100
00000000
00000001
00000100
,  // measure 13
00001000
00000000
00000100
00000010
00010000
00000000
00001000
00100000
,  // measure 14
01000000
00000000
01000000
10000000
00100000
10000000
00010000
00000000
,  // measure 15
00100000
00001000
00100000
00000000
00000000
00000000
00001000
00000000
00010000
00000000
00000000
00000000
00010100
00000000
00000000
00000000
,  // measure 16
00001000
00000010
00000001
00000010
00001000
00000000
00001010
00000000
,  // measure 17
00000001
00000010
00000001
00001000
00000000
00001010
00000000
00000100
,  // measure 18
00000000
00010100
00000000
00001000
00100000
00010000
00100000
00000000
,  // measure 19
00010000
01000000
10000000
01000000
00000000
01000000
00100000
10000000
,  // measure 20
01000000
00100000
00010000
00100000
00001000
00000000
00011000
00000000
,  // measure 21
00000010
00010000
00001000
00000100
00000000
00000001
00000010
00000100
,  // measure 22
00000000
00010100
00000000
00001000
00100000
00001000
00010000
00000000
,  // measure 23
00001000
01000000
00001000
00010000
00000000
00100000
10000000
00010000
,  // measure 24
10000000
01000000
00100000
00001000
00010000
00000000
00011000
00000000
,  // measure 25
00010100
00000000
00000000
00000100
00001000
00000000
00000000
00001000
00000010
00000000
00000100
00000000
00000001
00000000
00000010
00000000
,  // measure 26
00000002
00000000
00001000
00000000
00000100
00000000
00001003
00000010
,  // measure 27
00010000
00000000
00000000
00010000
00001000
00000000
00000000
00001000
01000000
00000000
00100000
00000000
10000000
00000000
01000000
00000000
,  // measure 28
20000000
00000000
00010000
00000000
00100000
00000000
30010000
01000000
,  // measure 29
00100000
00000000
00000000
00100000
00010000
00000000
00000000
00010000
00001000
00000000
00010000
00000000
00000010
00000000
00000100
00000000
,  // measure 30
00000002
00000000
00000010
00000000
00001000
00000000
00000013
00000100
,  // measure 31
00001000
00000000
00000000
00001000
00010000
00000000
00000000
00010000
00100000
00000000
00010000
00000000
10000000
00000000
00100000
00000000
,  // measure 32
01000000
00010000
00100000
00001000
00010000
00000100
00001000
00000010
,  // measure 33
00000100
00000000
00000000
00001001
00000000
00000000
00000010
00000000
00010000
00000000
00000000
00000000
00011000
00000000
00000000
00000000
,  // measure 34
01000000
00000000
00010000
00000000
00100000
00000000
00010000
00000000
10000000
00100000
01000000
00000000
00010000
00000000
00100000
00000000
,  // measure 35
00001000
00000000
00010000
00000000
00000010
00000000
00001000
00000000
00000100
00010000
00000010
00000000
00000100
00000000
00000001
00000000
,  // measure 36
00000020
00000000
00000130
00001000
00000001
00000000
00001001
00000000
,  // measure 37
00000110
00011000
02200000
03300000
,  // measure 38
10000000
00000000
00010000
00000000
00100000
00000000
00010000
00000000
10000000
00010000
01000000
00000000
00100000
00000000
01000000
00000000
,  // measure 39
00001000
00000000
00010000
00000000
00001000
00000000
00100000
00000000
00001000
00010000
00000100
00000000
00001000
00000000
00000010
00000000
,  // measure 40
00000100
00000001
00000100
00001000
00000100
00000000
00000110
00000000
,  // measure 41
00000010
00010000
00001000
00010000
00000100
00000000
00010000
00000000
,  // measure 42
00101000
00000000
00000000
00000000
00000000
00000000
01000000
10000000
00010000
00000000
00000000
00000000
01000000
00000000
00000000
00000000
,  // measure 43
01001000
00000000
00000000
00000000
00000000
00000000
00010000
00000010
00001000
00000000
00000000
00000000
00000001
00000000
00000000
00000000
,  // measure 44
00001000
00001010
00000001
00000101
,  // measure 45
00002002
00000000
00000003
00000000
00000000
00013000
00011000
00000000
,  // measure 46
00011000
00000000
00000000
00000000
00000000
00000000
00100000
00010000
01000000
00000000
00000000
00000000
00100000
00000000
00000000
00000000
,  // measure 47
01020000
00130000
00021000
00030100
,  // measure 48
00010010
00000000
00000000
00000000
00000000
00000000
00000100
00000001
00001000
00000000
00000000
00000000
00000011
00000000
00000000
00000000
,  // measure 49
00001010
00011000
02020000
03030000
,  // measure 50
00100000
00000000
10000000
00010000
01000000
00000000
00010000
00100000
,  // measure 51
00002000
00000000
00000000
00013000
00000100
00010000
00001000
00000000
,  // measure 52
00101000
00000000
00000000
00010000
00000010
00000000
00000100
00000000
,  // measure 53
00001001
00011000
20020000
30030000
,  // measure 54
00100000
00000000
01000000
00000000
10000000
00010000
00000000
00010000
00000000
00010000
00000000
00010000
00100000
00000000
00000000
00000000
,  // measure 55
00001000
00000000
00010000
00000000
00000010
00000100
00000000
00000100
00000000
00000100
00000000
00000100
00000001
00000000
00000000
00000000
,  // measure 56
00002002
00003003
00020200
00030300
,  // measure 57
00002010
00000000
00003100
00000000
00000010
00000001
00001000
00000010
,  // measure 58
00010000
00000100
00001000
00000010
00010000
00001000
00100000
00010000
,  // measure 59
10000000
00000000
00000000
01010000
00000000
00000000
00100000
00000000
00001000
00000000
00000000
00000000
00011000
00000000
00000000
00000000
,  // measure 60
00000100
00000000
00001000
00000000
00000100
00000000
00000010
00000001
00000000
00000001
00001000
00000000
00000010
00000000
00010000
00000000
,  // measure 61
00001000
00000000
00100000
00010000
00000000
00000000
00010000
00000000
10000000
00100000
10000000
00000000
00010000
00000000
00100000
00000000
,  // measure 62
00010000
00000000
01000000
00001000
00000000
00000000
00010000
00000000
00000100
00001000
00000000
00000001
00000100
00000000
00000010
00000000
,  // measure 63
00002000
00000000
00003100
00000000
00012000
00000000
01003000
00010000
,  // measure 64
00100000
00000000
00010000
10000000
00000000
00000000
10000000
00000000
00100000
01000000
00100000
00000000
10000000
00000000
00010000
00000000
,  // measure 65
00100000
00000000
00001000
01000000
00000000
00000000
01000000
00000000
00010000
00100000
00001000
00000000
00010000
00000000
00000010
00000000
,  // measure 66
00000100
00000000
00000001
00000010
00000000
00000000
00000001
00000000
00010000
00000100
00010000
00000000
00000020
00000000
00000000
00000000
,  // measure 67
00000130
00000001
00000010
00000100
00001000
00000000
00011000
00000000
,  // measure 68
00001000
00000000
00100000
00010000
00100000
00000000
00001000
00000000
01000000
00000000
00010000
00000000
00100000
00000000
00010000
00000000
,  // measure 69
00000000
00010000
10000000
00100000
00010000
00001000
00000100
00000000
,  // measure 70
00000001
00000000
00000010
00000001
00000010
00000000
00000100
00000000
00010000
00000000
00000010
00000000
00010000
00000000
00001000
00000000
,  // measure 71
00000000
00001000
00010000
00000100
00001000
00000001
00000100
00000000
,  // measure 72
00000001
00000000
00001000
00000100
00010000
00000000
00001000
00000000
00100000
00000000
00010000
00000000
10000000
00000000
01000000
00000000
,  // measure 73
00000000
01000000
10000000
01000000
00010000
00001000
00000100
00000000
,  // measure 74
00000001
00000000
00001000
00000010
00001000
00000000
00000001
00000000
00000010
00000000
00001000
00000000
00010000
00000000
01000000
00000000
,  // measure 75
10000000
00100000
01000000
00010000
00001000
00000100
00000001
00000100
,  // measure 76
00002000
00203000
20300000
00020000
,  // measure 77
00000000
30030000
00000000
00000000
;
