#TITLE:Follow the path;
#SUBTITLE:;
#ARTIST:Sota F.;
#TITLETRANSLIT:;
#SUBTITLETRANSLIT:;
#ARTISTTRANSLIT:;
#GENRE:;
#CREDIT:;
#BANNER:Follow_the_path_banner.png;
#BACKGROUND:Follow_the_path.png;
#LYRICSPATH:;
#CDTITLE:;
#MUSIC:Follow the path.ogg;
#OFFSET:-0.170000;
#SAMPLESTART:52.970001;
#SAMPLELENGTH:15.000000;
#LASTBEATHINT:297.000000;
#SELECTABLE:YES;
#BPMS:0.000000=150.000000
;
#STOPS:
;
#BGCHANGES:;
#KEYSOUNDS:;
#ATTACKS:;

//---------------dance-single - ----------------
#NOTES:
     dance-single:
     :
     Easy:
     5:
     0.212014,0.236653,0.072199,0.224620,0.000000,185.000000,176.000000,9.000000,28.000000,0.000000,0.000000,0.212014,0.236653,0.072199,0.224620,0.000000,185.000000,176.000000,9.000000,28.000000,0.000000,0.000000:
0000
0000
0000
0000
,
0000
0000
0000
0000
,
0000
0000
0000
0000
,
0000
0000
0000
0000
,
0010
0000
0100
0001
,
0010
0000
0100
1000
,
0010
0000
1000
0000
,
2002
0000
3003
0000
,
0100
0000
0001
0010
,
0100
0000
1000
0010
,
1000
0000
0010
0100
,
0001
0000
1000
1000
,
0001
0000
1000
0100
,
0010
0000
0001
0100
,
0010
0000
0100
0000
,
0010
0000
0110
0000
,
2000
0000
3100
0010
,
0200
0000
1300
0010
,
0200
0000
0310
1000
,
0002
0000
1003
1000
,
0000
0010
0100
0001
,
0020
0000
0031
0100
,
0020
0000
0130
0001
,
2000
0000
3001
0000
,
0001
0000
0000
0010
0000
0000
0000
0000
,
0001
0000
0000
0100
0000
0000
0000
0000
,
0010
0000
0000
1000
0000
0000
0000
0000
,
0100
0000
0000
1000
0000
0000
0000
0000
,
1000
0000
0000
0010
0000
0000
0000
0000
,
0100
0000
0000
0001
0000
0000
0000
0000
,
0010
0000
0000
0001
0000
0000
0000
0000
,
1000
0000
0000
0100
0000
0000
0000
0000
,
2002
0000
0000
0000
0000
3003
0000
0000
,
0010
0000
0001
1000
,
0100
0000
1000
0010
,
0100
0000
0001
0000
,
1000
0000
2002
3003
,
0100
0000
0001
0010
,
0100
0000
0010
0000
,
0100
0000
1000
0001
,
2002
0000
0000
0000
0000
3003
0000
0000
,
0100
0000
0010
0100
,
0001
0000
0010
0001
,
1000
0000
0010
0100
,
0001
0000
1000
0200
,
0000
1300
0000
0010
,
0100
0000
0001
0010
,
0100
0000
1000
0000
,
0220
0000
0000
0000
0000
0330
0000
0000
,
0001
0100
1000
0000
,
1000
0100
0001
0000
,
1000
0100
0001
0000
,
0001
0100
1000
0000
,
0000
0010
1000
0010
,
0000
0001
0010
0001
,
0200
0000
0310
1000
,
2002
0000
0000
0000
0000
3003
0000
0000
,
0000
0000
0000
0000
,
0100
0001
0010
0000
,
0100
0100
0100
0100
,
1000
0010
0100
0000
,
0001
0001
0001
0001
,
0010
0001
1000
0000
,
0010
0010
0010
0010
,
1000
0100
0010
0000
,
0002
0000
1003
0010
,
2000
0000
3001
0100
,
0002
0000
2003
0000
,
3020
0000
0130
0000
,
1001
0000
0000
0000
,
0010
0000
0001
0100
,
0010
0000
0010
0100
,
1000
0000
0001
0000
,
2002
0000
0000
3003
;

//---------------dance-single - ----------------
#NOTES:
     dance-single:
     :
     Medium:
     10:
     0.377041,0.414143,0.232642,0.232642,0.056155,329.000000,300.000000,29.000000,29.000000,0.000000,0.000000,0.377041,0.414143,0.232642,0.232642,0.056155,329.000000,300.000000,29.000000,29.000000,0.000000,0.000000:
0000
0000
0000
0000
,
0000
0000
0000
0000
,
0000
0000
0000
0000
,
0000
0000
0000
0000
,
0001
0000
0100
0001
0000
0010
0000
0010
,
0000
0100
0000
1000
0000
0001
0100
0000
,
0010
0000
0000
1000
0000
0000
0001
0200
,
0000
0000
0000
0300
,
0110
0000
0001
0000
0010
0000
0100
1000
,
0000
0001
1000
0010
0000
0100
0010
0000
,
1000
0000
0100
0000
0010
0001
1000
0001
,
0000
0100
0001
0000
0010
0000
0110
0000
,
1000
0000
0001
0000
0010
0000
0001
1000
,
0000
0100
0000
1000
0000
0010
1000
0000
,
0100
0000
0010
0000
0001
1000
0001
0010
,
0000
0100
0000
2002
0000
0000
3003
0000
,
0000
0100
0100
0000
0010
0100
0001
0000
,
0000
0010
0010
0000
0100
1000
0010
0000
,
0000
1000
1000
0000
0001
0100
0010
0000
,
0000
0100
0100
0000
0001
1000
0001
1000
,
0000
0000
0110
0000
0001
0010
0100
0000
,
1000
0000
0100
0000
1000
0010
0100
0000
,
0001
0000
0010
0000
0001
1000
0100
0000
,
1000
0000
0010
0000
1000
0001
1000
0001
,
0010
0000
0000
0100
0000
0000
2000
0000
0000
0000
0000
0000
3000
0000
0000
0000
,
0010
0000
0000
0100
0000
0000
0002
0000
0000
0000
0000
0000
0013
0000
0000
0000
,
0010
0000
0000
0100
0000
0000
2000
0000
0000
0000
0000
0000
3000
0000
0000
0000
,
0010
0000
0000
1000
0000
0000
0200
0000
0000
0000
0000
0000
0310
0000
0000
0000
,
0001
0000
0000
0010
0000
0000
0220
0000
0000
0000
0000
0000
0330
0000
0000
0000
,
1000
0000
0000
0010
0000
0000
0110
0000
0000
0000
0000
0000
0001
0000
0000
0000
,
0010
0000
0000
0001
0000
0000
2200
0000
0000
0000
0000
0000
3300
0000
0000
0000
,
1000
0000
0000
0010
0000
0000
0101
0000
0000
0000
1000
0000
0001
0000
0000
0000
,
0000
0000
0000
0000
,
1001
0000
0010
0100
0000
0001
0010
0100
,
0000
1000
0010
0100
0000
0001
0100
0000
,
0001
0000
0010
0000
0001
1000
0100
1000
,
0000
0001
0010
0000
0001
1000
0010
0000
,
1000
0000
0100
1000
0000
0010
0100
0010
,
0000
1000
0100
1000
0001
0000
0010
0000
,
0001
0000
1000
0010
0000
0100
0000
0220
,
0000
0000
0000
0330
,
1000
0000
0100
0010
0000
0001
1000
0001
,
0000
0100
0001
0000
0010
0100
1000
0000
,
0010
0000
0100
0001
0000
1000
0100
0010
,
0000
0100
0100
0000
1000
0000
0001
0000
,
0000
0000
0110
0000
0001
1000
0001
0010
,
0000
0100
1000
0000
0010
0100
0001
0000
,
1000
0000
0001
0010
0000
0100
0000
2002
,
0000
0000
0000
3003
,
0010
1000
0010
0000
0001
0000
1000
0000
,
0010
0001
0010
0000
1000
0000
0001
0000
,
0100
0001
0100
0000
1000
0000
0001
0000
,
0100
1000
0100
0000
0001
0000
1000
0000
,
0000
0000
0110
0000
1000
0100
0010
0000
,
0001
0000
0100
0000
0001
0010
0100
0000
,
1000
0000
0001
0000
1000
0001
0010
0100
,
2000
0000
0000
0000
3001
0100
0010
0000
,
0220
0000
0000
0330
,
1000
0000
0000
0100
0000
0000
1000
0000
0000
0000
0001
0000
0010
0000
0000
0000
,
0011
0000
1001
0000
1000
0100
0010
0000
,
0100
0000
0000
1000
0000
0000
0001
0000
0000
0000
0100
0000
0010
0000
0000
0000
,
0101
0000
0011
0000
1000
0001
0010
0000
,
0001
0000
0000
0010
0000
0000
0001
0000
0000
0000
0010
0000
0100
0000
0000
0000
,
1100
0000
1001
0000
0010
0100
0001
0000
,
1000
0000
0000
0001
0000
0000
0010
0000
0000
0000
0001
0000
1000
0000
0000
0000
,
0010
0000
0000
0100
0000
0000
0010
0000
1000
0000
0000
0000
1100
0000
0000
0000
,
0010
0000
0000
0001
0000
0000
0100
0000
0010
0000
0000
0000
0110
0000
0000
0000
,
0022
0033
2020
3030
,
2200
3300
0202
0303
,
2002
0000
0000
3003
,
0010
0000
0000
0100
0000
0010
0100
0010
,
0000
1000
0100
0000
0010
0000
0001
0000
,
1001
0000
0100
0010
0000
1000
0000
2100
,
0000
0000
0001
3001
;

//---------------dance-single - ----------------
#NOTES:
     dance-single:
     :
     Hard:
     12:
     0.567280,0.591633,0.401107,0.280775,0.220609,495.000000,445.000000,50.000000,35.000000,0.000000,0.000000,0.567280,0.591633,0.401107,0.280775,0.220609,495.000000,445.000000,50.000000,35.000000,0.000000,0.000000:
// measure 0
0000
0000
0000
0000
,  // measure 1
0000
0000
0000
0000
,  // measure 2
0000
0000
0000
0000
,  // measure 3
0000
0000
0000
0000
,  // measure 4
0110
0000
0001
0020
0000
1030
0010
0002
,  // measure 5
0000
0103
1000
0100
0010
0000
0110
0000
,  // measure 6
1010
0000
1000
0200
0000
0310
0100
2000
,  // measure 7
0000
3001
0010
1000
0001
0000
1001
0000
,  // measure 8
0010
0001
1000
0000
0010
1000
0001
0100
,  // measure 9
0000
0001
0010
0100
0000
1000
0100
0001
,  // measure 10
0100
1000
0010
0000
1000
0001
0100
0010
,  // measure 11
0000
1000
0001
0010
1000
0010
0001
0000
,  // measure 12
1001
0000
0100
0010
1000
0001
0010
0100
,  // measure 13
0000
1000
0100
0010
0100
1000
0001
0100
,  // measure 14
0010
0000
0101
0000
1000
0001
0010
0011
,  // measure 15
0000
1100
0000
1020
0000
0130
0110
0000
,  // measure 16
0100
0000
0001
0000
0001
0000
0000
1000
0000
0010
0100
0000
0001
0000
0010
0000
,  // measure 17
0100
0000
1000
0000
1000
0000
0000
0010
0000
0100
0001
0000
0010
0000
0100
0000
,  // measure 18
1000
0000
0001
0000
0001
0000
0000
0100
0000
0001
0010
0000
0100
0000
1000
0000
,  // measure 19
0010
0000
0100
0000
0100
0000
0000
0001
0000
1000
0001
0000
0020
0000
0200
0000
,  // measure 20
0330
0000
0000
0000
0110
0000
0000
1000
0000
0001
0100
0000
0001
0000
0010
0000
,  // measure 21
0100
0000
1000
0000
1000
0000
0000
0010
0000
0100
0001
0000
0010
0000
0100
0000
,  // measure 22
1000
0000
0010
0000
0010
0000
0000
0100
0000
0001
1000
0000
0100
0000
0010
0000
,  // measure 23
0001
0000
0100
0000
0100
0000
0000
0001
0000
1000
0000
0001
0010
0000
0100
0000
,  // measure 24
2000
0000
0000
3200
0000
0000
0002
0000
0000
0000
0300
0000
0000
0000
0103
0000
,  // measure 25
2000
0000
0000
3020
0000
0000
0002
0000
0000
0000
0030
0000
0013
0000
0000
0000
,  // measure 26
0200
0000
0000
0302
0000
0000
0020
0000
0000
0000
0003
0000
0000
0000
0230
0000
,  // measure 27
0320
0000
0000
0230
0000
0000
2300
0000
0000
0000
3001
0000
1000
0000
0000
0000
,  // measure 28
1010
0000
0000
0011
0000
0000
0202
0000
0000
0000
0003
0000
0000
0000
0310
0000
,  // measure 29
0110
0000
0000
1001
0000
0000
2100
0000
0000
0000
0000
0000
3010
0000
0000
0000
,  // measure 30
0101
0000
0000
0011
0000
0000
1020
0000
0000
0000
0000
0000
0000
0000
0130
0000
,  // measure 31
0110
0000
0000
1010
0000
0000
1001
0000
0000
0000
0001
0000
0010
0000
1000
0000
,  // measure 32
0020
0001
1000
0031
,  // measure 33
1100
0000
0001
1000
0000
0010
0100
0001
,  // measure 34
0000
0010
0100
1000
0100
0001
0100
1000
,  // measure 35
0010
0000
0100
0001
0000
0001
0010
0100
,  // measure 36
0000
1000
1010
0000
0001
0010
1000
0010
,  // measure 37
0001
0100
0010
1000
0000
0001
0100
0010
,  // measure 38
0000
1000
0100
0001
0100
1000
0100
0010
,  // measure 39
0100
0000
1000
1001
0000
0110
0000
0202
,  // measure 40
0000
0000
0300
0000
1000
1000
1003
0000
,  // measure 41
0010
0100
1000
0100
0001
0010
1000
0010
,  // measure 42
0001
1000
0100
0001
0100
1000
0010
0001
,  // measure 43
0010
0000
0110
0100
0001
1000
0100
0010
,  // measure 44
0000
0110
0100
1000
0010
0200
0002
0000
,  // measure 45
0303
0000
1010
1000
0001
0010
1000
0010
,  // measure 46
0001
1000
0100
0001
1000
0010
0001
0000
,  // measure 47
1001
0000
0010
0110
0000
1100
0000
0202
,  // measure 48
0000
0000
0003
0000
0010
0010
0310
0000
,  // measure 49
1000
0000
0001
0000
0010
0100
0000
1000
0001
0000
1000
0000
0100
0000
0010
0000
,  // measure 50
0001
0000
0100
0000
0001
0010
0000
0100
1000
0000
0001
0000
0100
0000
0010
0000
,  // measure 51
1000
0000
0010
0000
0100
0001
0000
1000
0010
0000
1000
0000
0100
0000
0001
0000
,  // measure 52
0100
0000
1000
0000
0001
0010
0000
0100
1000
0000
0010
0000
0001
0000
0020
0000
,  // measure 53
0030
0000
0000
0000
0100
0010
0000
0100
0001
0000
0010
0000
1000
0000
0010
0000
,  // measure 54
0001
0000
1000
0000
0001
0010
0000
0100
1000
0000
0100
0000
0001
0000
0100
0000
,  // measure 55
1000
0000
0001
0000
0100
0010
0000
0100
0010
0000
1000
0000
0001
0000
0010
0000
,  // measure 56
0001
0000
1000
0000
0100
0010
0000
0010
0100
0000
1000
0001
1000
0000
0010
0000
,  // measure 57
0200
0000
0000
0300
,  // measure 58
0011
0000
0000
1000
0001
0000
0010
0000
0100
0000
1000
0000
0001
0000
1000
0000
,  // measure 59
1010
0000
1001
0000
1100
0000
0001
0010
,  // measure 60
0100
0000
0000
1010
0000
0000
0100
0000
0001
0000
1000
0000
0010
0000
0100
0000
,  // measure 61
0001
0000
0010
0000
0100
1000
0000
1000
0001
0000
1000
0000
0100
0000
0001
0000
,  // measure 62
0100
0000
0000
1100
0000
0000
0010
0000
0100
0000
0001
0000
0010
0000
0001
0000
,  // measure 63
0101
0000
1001
0000
0011
0000
1000
0010
,  // measure 64
0100
0000
0000
0001
0010
0000
0100
0000
1000
0000
0010
0000
0001
0000
0010
0000
,  // measure 65
1000
0000
0000
0001
1000
0000
0001
0000
0010
0000
1000
0000
0010
0000
0001
0000
,  // measure 66
1000
0000
0000
0001
1000
0000
0001
0000
1000
0000
0100
0000
0001
0000
0100
0000
,  // measure 67
1000
0000
0000
1010
0000
0000
0100
0000
0001
0000
0000
0011
0000
0000
1000
0000
,  // measure 68
0100
0000
0010
0000
0100
1000
0000
1000
0001
0000
0100
0010
0100
0000
0001
0000
,  // measure 69
2000
0000
0000
3000
,  // measure 70
0011
0000
0100
1000
0000
0010
0100
0010
,  // measure 71
0000
1000
0100
0001
0100
1000
0001
0100
,  // measure 72
0010
0000
0100
0110
0000
1001
0000
0210
,  // measure 73
0000
0000
0000
0000
0301
0010
1000
0000
;
