#TITLE:Fly to Next World;
#SUBTITLE:;
#ARTIST:Qrispy Joybox;
#TITLETRANSLIT:;
#SUBTITLETRANSLIT:;
#ARTISTTRANSLIT:;
#GENRE:;
#CREDIT:;
#BANNER:Fly_to_Next_World_banner.png;
#BACKGROUND:Fly_to_Next_World.png;
#LYRICSPATH:;
#CDTITLE:;
#MUSIC:Fly To Next World.ogg;
#OFFSET:-1.040000;
#SAMPLESTART:55.820000;
#SAMPLELENGTH:15.000000;
#LASTBEATHINT:336.000000;
#SELECTABLE:YES;
#BPMS:0.000000=184.000000
;
#STOPS:
;
#BGCHANGES:;
#KEYSOUNDS:;
#ATTACKS:;

//---------------dance-single - ----------------
#NOTES:
     dance-single:
     :
     Easy:
     6:
     0.254035,0.313808,0.095886,0.087169,0.000000,204.000000,193.000000,11.000000,10.000000,0.000000,0.000000,0.254035,0.313808,0.095886,0.087169,0.000000,204.000000,193.000000,11.000000,10.000000,0.000000,0.000000:
0000
0000
0000
0000
,
0000
0000
0000
0000
,
0000
0000
0000
0000
,
0000
0000
0000
0000
,
0001
0000
0001
0000
,
1000
0000
1000
0000
,
0010
0000
0100
0000
,
0020
0000
0000
0030
,
0100
0000
0001
0100
,
0001
0000
1000
0000
,
0010
0000
0100
0001
,
1000
0000
0100
0000
,
1000
0000
0010
1000
,
0010
0000
0100
0000
,
0001
0000
1000
0000
,
0001
0000
1001
0000
,
0010
0000
0010
0100
,
0010
0000
1000
0000
,
0100
0000
1000
0001
,
0100
0000
0010
0000
,
0100
0000
0001
0010
,
0001
0000
1000
0000
,
0010
0000
0100
0000
,
0001
0000
1001
0000
,
0200
0000
0310
0010
,
0100
0000
0001
0000
,
1000
0000
0100
0010
,
0100
0000
0001
0000
,
1000
0000
0010
1000
,
0100
0000
1000
0000
,
0001
0100
0010
0000
,
1000
0000
1010
0000
,
0001
0001
0001
0001
,
1000
0010
0100
0000
,
0010
0010
0010
0010
,
1000
0100
1000
0000
,
1000
1000
1000
1000
,
0001
0010
0100
0000
,
1000
0000
0001
0000
,
0100
0000
0010
0000
,
0010
0000
0000
0000
,
0220
0000
0000
0000
0000
0330
0000
0000
,
0001
0000
0010
0001
,
1000
0000
0100
0000
,
1000
0000
0010
0100
,
0001
0000
1001
0000
,
0100
0000
0010
1000
,
0001
0000
0010
0000
,
0001
1000
0100
0000
,
1000
0001
0100
0000
,
0010
1000
0100
0000
,
1000
0000
0101
0000
,
0010
0100
0001
0000
,
0010
0000
1100
0000
,
1000
0010
0001
0000
,
0001
0010
1000
0000
,
0010
0000
0110
0000
,
0100
0000
0110
0000
,
0001
0001
0010
0010
,
0001
1000
0100
0000
,
1000
1000
0010
0010
,
0100
0001
0010
0000
,
0001
0001
1000
1000
,
0010
0100
0010
0000
,
1000
0010
1000
0000
,
0001
0010
0001
0000
,
0100
0010
1000
0010
,
0200
0000
0301
0000
,
0001
0010
0001
1000
,
0200
0000
1300
0000
,
0100
1000
0010
0000
,
0100
0001
0010
0000
,
0010
0001
1000
0100
,
1000
0000
0110
0000
,
0020
0000
0000
0000
0000
0000
0000
2030
,
0000
0000
0000
0000
,
3002
0000
0000
0000
0000
0000
0000
0203
,
0000
0000
0000
0300
,
0010
0000
0000
0000
1000
0000
0000
0001
,
0000
0000
0010
0000
,
0110
0000
0000
0000
;

//---------------dance-single - ----------------
#NOTES:
     dance-single:
     :
     Medium:
     10:
     0.458259,0.511027,0.305091,0.270223,0.000000,368.000000,333.000000,35.000000,31.000000,0.000000,0.000000,0.458259,0.511027,0.305091,0.270223,0.000000,368.000000,333.000000,35.000000,31.000000,0.000000,0.000000:
// measure 0
0000
0000
0000
0000
,  // measure 1
0000
0000
0000
0000
,  // measure 2
0000
0000
0000
0000
,  // measure 3
0000
0000
0000
0000
,  // measure 4
1000
0000
0010
0100
0000
0010
0100
0000
,  // measure 5
0001
0000
0010
0100
0000
0010
0100
0000
,  // measure 6
1001
0000
0110
0000
,  // measure 7
2002
0000
0000
0000
0000
3003
0000
0000
,  // measure 8
0100
0000
0010
1000
0000
0001
0100
0000
,  // measure 9
0001
0010
0000
0100
1000
0000
0001
0000
,  // measure 10
1000
0000
0010
0100
0000
0001
0010
0000
,  // measure 11
0001
0010
0100
1000
,  // measure 12
0010
0000
0100
0001
0000
1000
0010
0000
,  // measure 13
1000
0100
0000
1000
0001
0000
0010
0000
,  // measure 14
0101
0000
1010
0000
,  // measure 15
1001
0000
0110
0010
,  // measure 16
1000
0001
0000
0010
0002
0000
1003
0000
,  // measure 17
0010
0100
0000
0001
2000
0000
3100
0000
,  // measure 18
0010
0001
0000
0010
0200
0000
1300
0000
,  // measure 19
0010
0100
0000
0001
0020
0000
0130
0000
,  // measure 20
1000
0010
0000
1000
0010
0100
0000
0010
,  // measure 21
1000
0001
0000
0010
0200
0000
0310
0000
,  // measure 22
0011
0000
1100
0000
,  // measure 23
1001
0000
0110
0100
,  // measure 24
0010
1000
0010
1000
0000
0001
0100
0000
,  // measure 25
0001
0010
0001
0000
1000
0100
1000
0000
,  // measure 26
0010
0000
0100
0010
1000
0010
0100
0000
,  // measure 27
0001
0000
1000
0010
0100
0010
1000
0000
,  // measure 28
0001
0100
0001
0000
1000
0010
1000
0000
,  // measure 29
0001
0010
0001
0000
1000
0100
1000
0000
,  // measure 30
0010
0100
0010
0000
1000
0001
1000
0000
,  // measure 31
0001
0010
0100
1000
,  // measure 32
0010
0100
0010
0100
0020
0000
1030
0000
,  // measure 33
0001
0100
0010
2000
0000
0000
3001
0000
,  // measure 34
0010
0001
0010
0001
0020
0000
0130
0000
,  // measure 35
0010
0001
1000
0200
0000
0000
1300
0000
,  // measure 36
0010
0100
0001
0100
0020
0000
1030
0000
,  // measure 37
0001
0010
0100
2000
0000
0000
3010
0000
,  // measure 38
1010
0000
0011
0000
,  // measure 39
1100
1000
0101
0001
,  // measure 40
0110
0000
0000
0000
,  // measure 41
2002
0000
0000
0000
0000
3003
0000
0000
,  // measure 42
0100
0010
0000
1000
0100
0000
0010
0001
,  // measure 43
0000
1000
0010
0000
0200
0000
0301
0000
,  // measure 44
0010
0001
0000
1000
0100
0000
1000
0000
,  // measure 45
0010
0110
1000
1001
,  // measure 46
0001
0010
0000
0001
0100
0000
0010
1000
,  // measure 47
0000
0100
1000
0000
0020
0000
0130
0000
,  // measure 48
1001
0000
0110
0000
,  // measure 49
0011
0000
1100
0000
,  // measure 50
0010
0001
0000
1000
0100
0000
1000
0010
,  // measure 51
0000
0100
0001
0000
1000
0000
1001
0000
,  // measure 52
0010
0100
0000
0001
0100
0000
0010
0000
,  // measure 53
1000
0100
1000
0000
0001
0010
0001
0000
,  // measure 54
1000
0010
0000
0100
0001
0000
0010
0001
,  // measure 55
0000
1000
0100
0000
2000
0000
3010
0000
,  // measure 56
0110
0010
1010
1000
,  // measure 57
1001
0001
0220
0330
,  // measure 58
0001
0010
0000
0010
0001
1000
0000
1000
,  // measure 59
0100
1000
0001
0020
0000
0000
0031
0000
,  // measure 60
1000
0100
0000
0100
0010
0001
0000
0001
,  // measure 61
0100
0010
1000
0200
0000
0000
0310
0000
,  // measure 62
0001
0100
0000
0100
0010
1000
0000
1000
,  // measure 63
0100
1000
0010
0200
0000
0000
0301
0000
,  // measure 64
1000
1010
0001
0011
,  // measure 65
1001
0000
0110
0000
,  // measure 66
0100
0001
0100
0000
0010
1000
0010
0000
,  // measure 67
1000
0100
1000
0000
0001
0010
0001
0000
,  // measure 68
1000
0010
0100
0000
0001
0010
0100
0000
,  // measure 69
0100
1000
0001
0000
0001
0100
0010
0000
,  // measure 70
1000
0000
1010
0000
0010
0100
0010
0000
,  // measure 71
0100
0000
0101
0000
0001
0010
0001
0000
,  // measure 72
1000
0010
1000
0000
0010
0100
0010
0000
,  // measure 73
0100
0001
0100
0000
0001
0010
0001
0000
,  // measure 74
2000
0000
0000
0000
0000
0000
0000
3200
,  // measure 75
0000
0000
0000
0300
,  // measure 76
2000
0000
0000
0000
0000
0000
0000
3002
,  // measure 77
0000
0000
0000
0003
,  // measure 78
0200
0000
0000
0000
0000
0000
0000
0320
,  // measure 79
0000
0000
0000
0030
,  // measure 80
2002
0000
0000
0000
,  // measure 81
0000
0000
0000
0000
,  // measure 82
0000
0000
0000
0000
,  // measure 83
0000
0000
0000
3003
;

//---------------dance-single - ----------------
#NOTES:
     dance-single:
     :
     Hard:
     12:
     0.635087,0.657035,0.331241,0.331241,0.004358,510.000000,472.000000,38.000000,38.000000,0.000000,0.000000,0.635087,0.657035,0.331241,0.331241,0.004358,510.000000,472.000000,38.000000,38.000000,0.000000,0.000000:
0000
0000
0000
0000
,
0000
0000
0000
0000
,
0000
0000
0000
0000
,
0000
0000
0000
0000
,
0010
0001
0100
0010
0000
0010
1000
0100
,
0000
0000
1000
0000
0001
0000
0000
0000
0100
0000
0000
0010
0000
0000
0100
0000
,
0110
0000
1001
0000
,
0210
0000
0310
0000
1000
0100
0010
0001
,
1000
0010
1000
0001
0010
0001
1000
0100
,
1000
0001
0100
0001
0100
0000
0110
0000
,
0010
1000
0010
0100
0001
0100
0010
1000
,
0001
0010
0001
0100
0010
1000
0100
1000
,
0010
1000
0010
0100
0001
0100
0010
1000
,
0001
0010
0100
1000
0100
0010
0001
0000
,
2001
3010
1002
0103
,
0120
1030
0210
0301
,
0010
1000
0000
1000
0100
1000
0000
1000
,
0001
0010
0000
0010
0001
0100
0000
0100
,
0010
1000
0000
1000
0010
0001
0000
0001
,
0010
0100
0000
0100
0001
1000
0000
1000
,
0100
0010
0000
0010
0100
1000
0000
1000
,
0001
0010
0000
0010
0001
1000
0001
0000
,
0210
0010
0000
0310
2000
0001
0000
3001
,
0020
0100
0000
0130
1000
0001
1001
0000
,
0100
0010
1000
0100
0000
1000
0001
0010
,
0000
0001
0100
0010
1000
0100
1000
0010
,
0100
0001
0100
0001
1000
0010
0000
1010
,
0000
0100
0001
0010
0100
1000
0002
0000
,
0013
0001
0010
0100
1000
0100
1000
0001
,
0010
0100
1000
0100
0010
0001
0100
0001
,
1000
0010
0100
0001
1000
0100
0010
0001
,
0200
0010
0010
0310
,
2000
0001
0001
0001
0001
3001
0000
0001
,
0100
0010
1000
0200
0000
0000
1300
0000
,
0020
0100
0100
0100
0100
0130
0000
0100
,
0001
1000
0100
0020
0000
0000
1030
0000
,
0020
0001
0001
0001
0001
0031
0000
0001
,
0100
0010
1000
0200
0000
0000
0310
0000
,
0011
0110
1100
1001
,
0110
1010
0101
0011
,
1100
0000
0000
0000
,
2002
0000
3003
0010
,
0100
0001
0100
0010
1000
0010
1000
0100
,
1000
0001
0010
0001
0100
0010
1000
0100
,
1000
0001
1000
0010
0100
0010
1000
0100
,
0010
0001
0100
0010
1000
0100
0001
0100
,
1000
0010
1000
0001
0010
0001
1000
0100
,
1000
0001
0100
0001
0010
0100
0010
0000
,
0120
1030
0210
0301
,
0012
1003
2100
3001
,
0010
0001
0100
0010
1000
0100
1000
0010
,
0100
0001
0010
0100
1000
0001
0200
0000
,
0301
0010
0001
1000
0010
1000
0001
0100
,
0010
0120
1030
2001
,
3010
0100
0010
1000
0100
1000
0001
0010
,
0001
0100
0010
0100
0001
1000
0100
0010
,
0001
0101
1000
1010
,
0110
1001
0110
1001
,
1000
0010
0000
0010
0100
0001
0000
0001
,
0010
0001
0100
0020
0000
1000
1030
0000
,
0100
0001
0000
0001
1000
0010
0000
0010
,
0100
0001
0010
0200
0000
0010
0310
0000
,
0001
0010
0000
0010
0100
1000
0000
1000
,
0010
0100
0001
0020
0000
0100
0130
0000
,
1000
0100
1000
0100
0010
0001
0010
0001
,
1000
0010
1000
0010
0100
0001
0010
0000
,
0011
0000
1000
0010
0100
0010
1000
0000
,
0101
0000
0010
1000
0001
1000
0010
0000
,
0110
0000
1000
0001
0010
0100
1000
0000
,
1001
0000
0100
0010
1000
0001
0020
0000
,
0031
0100
0001
0100
0010
1000
0010
1000
,
0100
0010
0100
0010
0001
1000
0001
1000
,
0010
1000
0001
0100
0001
0010
0100
1000
,
0010
0100
0001
1000
0100
0010
0002
0000
,
1003
0010
0100
0020
0000
0100
0130
0000
,
0001
0010
0100
2000
0000
0001
3001
0000
,
0100
0010
1000
0020
0000
0100
0130
0000
,
0001
0100
0010
0200
0000
0001
0301
0000
,
1000
0010
0001
0020
0000
1000
1030
0000
,
0001
0100
1000
0200
0000
0001
0301
0000
,
2020
0000
0000
0000
,
0000
0000
0000
0000
,
0000
0000
0000
0000
,
0000
0000
0000
3030
;
