#TITLE:Fly Above;
#SUBTITLE:;
#ARTIST:Sota Fujimori;
#TITLETRANSLIT:;
#SUBTITLETRANSLIT:;
#ARTISTTRANSLIT:;
#GENRE:DREAM TRANCE;
#CREDIT:;
#BANNER:Fly Above_banner.png;
#BACKGROUND:Fly_Above.png;
#LYRICSPATH:;
#CDTITLE:;
#MUSIC:Fly Above.mp3;
#OFFSET:-1.140000;
#SAMPLESTART:74.709999;
#SAMPLELENGTH:13.000000;
#LASTBEATHINT:311.500000;
#SELECTABLE:YES;
#BPMS:0.000000=150.000000
;
#STOPS:
;
#BGCHANGES:-0.200=Fly Above.avi=1.000=0=0=0=StretchNoLoop====,
99999=-nosongbg-=1.000=0=0=0 // don't automatically add -songbackground-
;
#KEYSOUNDS:;
#ATTACKS:;

//---------------dance-single - ----------------
#NOTES:
     dance-single:
     :
     Easy:
     5:
     0.196516,0.265479,0.197601,0.364803,0.000000,181.000000,155.000000,26.000000,48.000000,0.000000,0.000000,0.196516,0.265479,0.197601,0.364803,0.000000,181.000000,155.000000,26.000000,48.000000,0.000000,0.000000:
0000
0000
0000
0000
,
0000
0000
0000
0000
,
0000
0000
0000
0000
,
0000
0000
0000
0000
,
0000
0000
0000
0000
,
0000
0000
0000
0000
,
0010
0000
0010
0000
,
1000
0000
1000
0000
,
0001
0000
0001
0000
,
0100
0000
0110
0000
,
2000
0000
0000
3000
,
0002
0000
0000
0003
,
0200
0000
0000
0300
,
0020
0000
0000
0030
,
1000
0000
1001
0000
,
0001
0000
1001
0000
,
0100
0000
0110
0000
,
2002
0000
0000
3003
,
1000
0010
0100
0000
,
0001
0010
0100
0000
,
2000
0000
3001
0000
,
0210
0000
0301
0000
,
0001
0000
0010
0100
,
1000
0000
0010
0100
,
0001
0000
1001
0000
,
1000
0000
1010
0000
,
0022
0000
0000
0000
0000
0033
0000
0000
,
1000
0010
0100
0000
,
0002
0000
1003
0000
,
0010
0100
0010
0000
,
2200
0000
0000
0000
0000
3300
0000
0000
,
1000
0001
0010
0000
,
0002
0000
0103
0000
,
2000
0000
3010
0000
,
0220
0000
0000
0000
0000
0330
0000
0000
,
1000
0010
0100
0000
,
0001
0010
0100
0000
,
2000
0000
3001
0000
,
2002
0000
0000
0000
0000
3003
0000
0000
,
0100
0010
1000
0000
,
0002
0000
0103
0000
,
1001
0000
1010
0000
,
0101
0000
0000
0000
,
0000
0000
0000
0000
,
0000
0000
0000
0000
,
0000
0000
0000
0000
,
0010
1000
1010
0000
,
0001
0100
0101
0000
,
1000
0001
0010
0000
,
0200
0000
1300
0000
,
1000
0010
0100
0000
,
0001
1000
0010
0000
,
0200
0000
0301
0000
,
0022
0000
0000
0000
0000
0033
0000
0000
,
2000
0000
3020
0000
,
0130
0001
0010
0000
,
1100
0000
0101
0000
,
2002
0000
3003
0000
,
0100
0010
1000
0000
,
0001
0010
0100
0000
,
1000
0001
1010
0000
,
0100
0010
0202
0303
,
2000
0000
3100
0010
,
0002
0000
0103
0000
,
0020
0000
1030
0100
,
2000
0000
3002
0000
,
0203
0000
0310
1000
,
0200
0000
0320
0000
,
0031
1000
0001
0000
,
2002
0000
0000
0000
0000
3003
0000
0000
,
0200
0000
0310
0010
,
2000
0000
3001
0000
,
0011
0000
0010
0001
,
2000
0000
3200
0000
,
2300
0000
3001
0010
,
0001
0000
0101
0000
,
2000
3010
0002
0103
,
0010
0000
0000
0010
0000
0100
0000
0000
;

//---------------dance-single - ----------------
#NOTES:
     dance-single:
     :
     Medium:
     8:
     0.285545,0.353973,0.220402,0.258402,0.022800,263.000000,234.000000,29.000000,34.000000,0.000000,0.000000,0.285545,0.353973,0.220402,0.258402,0.022800,263.000000,234.000000,29.000000,34.000000,0.000000,0.000000:
0000
0000
0000
0000
,
0000
0000
0000
0000
,
0000
0000
0000
0000
,
0000
0000
0000
0000
,
0000
0000
0000
0000
,
0000
0000
0000
0000
,
0001
0000
0000
0100
0000
0000
0001
0000
0000
0000
0000
0000
1100
0000
0000
0000
,
1000
0000
0000
0010
0000
0000
1000
0000
0000
0000
0000
0000
0011
0000
0000
0000
,
1000
0000
0000
0001
0000
0000
1000
0000
0000
0000
0000
0000
0110
0000
0000
0000
,
0010
0000
0000
0100
0000
0000
0010
0000
0000
0000
0000
0000
1001
0000
0000
0000
,
2000
0000
0000
3000
,
0001
0000
0000
0010
0000
0000
0100
0000
,
1000
0010
0100
0001
,
0010
0000
0001
0100
0000
0010
1000
0000
,
0002
0000
0000
0003
,
1000
0000
0010
0100
0000
0000
0001
0000
,
1001
0000
0100
0110
,
0010
0000
1000
0001
0000
0000
0000
0000
,
0022
0000
0033
1000
,
0010
0000
0100
0010
0000
0000
0110
0000
,
0002
0000
0013
1000
,
0010
0000
0100
0001
0000
0000
1000
0000
,
2200
3300
0001
0010
,
0001
0000
1000
0100
0000
0000
0010
0000
,
0001
1000
0100
0010
,
0001
0000
0100
0000
1000
0000
0100
0010
,
0200
0000
0000
0300
,
0001
0000
0010
0001
0000
0000
1100
0000
,
1000
0000
0000
0010
0000
0000
0101
0000
,
0001
0000
0000
0010
0000
0000
0100
0000
,
2002
0000
0000
3003
,
1000
0000
0010
0100
0000
0000
0001
0000
,
0012
0000
0000
0013
0000
0000
0000
0000
,
2100
0000
0000
3100
0000
0000
0100
0000
,
0220
0000
0000
0000
0000
0330
0000
0000
,
0010
0000
0001
0100
0000
0000
0010
0000
,
1000
0000
0000
1100
0000
0000
0000
0000
,
0001
0000
0000
0101
0000
0000
1000
0000
,
2020
0000
0000
0000
0000
3030
0000
0000
,
0100
0000
0001
1000
0000
0000
0010
0000
,
1000
0000
0000
0011
0000
0000
0000
0000
,
1000
0000
0000
0001
0000
0000
1000
0000
0000
0010
0000
0000
0100
0000
0010
0000
,
0000
0000
0000
0000
,
0000
0000
0000
0000
,
0000
0000
0000
0000
,
0000
0000
0000
0000
,
1001
0000
1000
0010
0000
0000
0010
0000
,
0100
0000
0001
1000
0000
0000
1000
0000
,
0001
0000
0010
0000
0001
1000
0001
0000
,
0100
0000
0000
0110
0000
0000
0010
0000
,
1000
0000
0001
0000
1000
0100
1000
0000
,
0001
0000
1000
0000
0001
0100
0001
0000
,
1000
0000
0010
0100
0000
0000
0001
0000
,
2002
0000
3003
0100
,
0020
0000
0000
0000
1030
0100
1000
0000
,
0001
0000
0010
0001
0000
0000
1001
0000
,
0100
0000
0010
0000
1000
0001
0100
0000
,
0010
0000
1000
0100
0000
0000
0101
0000
,
0001
0000
0010
0001
0000
0000
0011
0000
,
1000
0000
0010
1000
0000
0000
1010
0000
,
0100
0000
0001
1000
0000
0000
0110
0000
,
0001
0000
1000
0000
0010
0100
0000
0000
,
0002
0000
0013
0100
,
2000
0000
0000
0000
3100
0000
0010
0001
,
0020
0030
0001
1000
,
0200
0310
0020
0031
,
2000
0000
3001
0100
,
0020
0000
0230
0000
,
0301
0010
1000
0010
,
0001
0100
1000
0100
,
0102
0000
0013
1000
,
0020
0000
0000
0000
0130
0000
0001
1000
,
0002
0000
0103
0010
,
2000
3100
0002
0013
,
0200
0000
0301
0010
,
0002
0000
1003
0000
,
0100
0010
0100
0000
0001
1000
0001
0000
,
1000
0000
0010
0100
0000
0110
0000
0000
;

//---------------dance-single - ----------------
#NOTES:
     dance-single:
     :
     Hard:
     11:
     0.487489,0.530959,0.448403,0.167201,0.079801,449.000000,390.000000,59.000000,22.000000,0.000000,0.000000,0.487489,0.530959,0.448403,0.167201,0.079801,449.000000,390.000000,59.000000,22.000000,0.000000,0.000000:
// measure 0
0000
0000
0000
0000
,  // measure 1
0000
0000
0000
0000
,  // measure 2
0000
0000
0000
0000
,  // measure 3
0000
0000
0000
0000
,  // measure 4
0000
0000
0000
0000
,  // measure 5
0000
0000
0000
0000
,  // measure 6
1000
0000
0000
0010
0000
0000
1010
0000
0000
0000
0100
0000
0001
0010
0001
0000
,  // measure 7
1000
0000
0000
0100
0000
0000
1100
0000
0000
0001
0000
0000
0010
0000
0100
0000
,  // measure 8
0010
0000
0000
0001
0000
0000
1001
0000
0000
0100
0000
0000
0010
0000
1000
0000
,  // measure 9
0001
0000
0000
0101
0000
0000
1000
0000
0000
1100
0000
0000
0010
0000
0010
0000
,  // measure 10
0002
0000
0000
0103
0000
0010
1000
0100
,  // measure 11
0010
0000
0001
0200
0000
0000
0310
1000
,  // measure 12
0001
0000
0011
0000
1000
0100
0001
0100
,  // measure 13
1000
0001
0100
0010
0000
0100
0110
0000
,  // measure 14
1002
0000
0103
0010
0000
0100
0001
0010
,  // measure 15
0100
1000
0100
0010
0000
0010
0001
1000
,  // measure 16
0010
0000
0110
0000
0100
0001
1000
0010
,  // measure 17
1000
0100
0001
0200
0000
0000
0310
0000
,  // measure 18
0012
0000
0000
0103
0000
1000
0001
0010
,  // measure 19
0100
1000
0001
0100
0000
0100
0010
1000
,  // measure 20
0010
0000
0110
0000
1000
0100
0010
0001
,  // measure 21
0100
0001
0010
1000
0000
1000
0010
0001
,  // measure 22
0100
0000
1001
0000
1000
0001
0010
0001
,  // measure 23
0100
0010
0100
1000
0000
1000
0100
0001
,  // measure 24
0010
0000
0011
0000
1000
0100
0001
0100
,  // measure 25
0010
0001
0100
0010
1000
0000
0001
0010
,  // measure 26
0100
0000
0110
0000
1100
0000
1000
0001
,  // measure 27
0100
0000
0010
0100
0000
1001
0000
1000
,  // measure 28
0002
0000
0013
0001
0000
0000
1100
0000
,  // measure 29
0101
0000
0001
0010
0000
0010
0100
0000
,  // measure 30
1100
0000
1000
0001
0000
0100
0010
0000
,  // measure 31
1000
0000
0001
0010
0000
0100
0000
1000
,  // measure 32
0001
0000
0101
0100
0010
0000
1010
0000
,  // measure 33
1000
0100
0010
0001
0100
0010
1000
0001
,  // measure 34
0010
0000
0000
0001
0000
0000
1001
0000
0000
0000
0100
0000
0100
0000
0000
0000
,  // measure 35
0010
0000
0000
1000
0000
0000
1001
0000
0000
0000
0100
0000
0010
0000
0100
0000
,  // measure 36
0001
0000
0000
1000
0000
0000
1100
0000
0000
0000
0010
0000
0001
0000
0100
0000
,  // measure 37
0010
0000
0000
1000
0000
0000
0110
0000
0000
0000
0001
0000
0010
0000
0100
0000
,  // measure 38
1000
0000
0000
0001
0000
0000
0011
0000
0000
0000
0010
0000
0100
0000
1000
0000
,  // measure 39
0001
0000
0000
0100
0000
0000
0110
0000
0000
0000
0010
0000
1000
0000
0100
0000
,  // measure 40
0010
0000
0000
0001
0000
0000
1001
0000
0000
0000
0100
0000
0010
0000
0100
0000
,  // measure 41
1001
0000
0000
1001
0000
0000
0011
0000
0000
0101
0000
0000
0100
0000
1000
0000
,  // measure 42
0000
0000
0000
0000
,  // measure 43
0000
0000
0000
0000
,  // measure 44
0000
0000
0000
0000
,  // measure 45
0000
0000
0000
0000
,  // measure 46
1010
0000
1000
0001
0000
0001
0100
0000
,  // measure 47
0011
0000
0001
1000
0000
1000
0100
0000
,  // measure 48
1010
0000
0000
0000
0101
0000
0000
0000
0001
0000
0000
0010
0000
0000
0100
0000
,  // measure 49
1000
0000
1100
0000
0010
0100
0001
0010
,  // measure 50
0001
0000
0100
0001
0000
1000
0100
0000
,  // measure 51
1010
0000
1000
0100
0000
0001
0100
0000
,  // measure 52
0010
0000
0010
0100
0000
1001
0000
0100
,  // measure 53
0010
1000
0100
1000
0010
0100
0001
0010
,  // measure 54
0002
0000
1003
0000
0100
0010
1000
0100
,  // measure 55
1000
0001
0010
0001
0000
1000
1010
0000
,  // measure 56
0101
0000
0000
0000
0011
0000
0000
0000
1000
0000
0000
0010
0000
0000
1010
0000
,  // measure 57
1000
0001
0010
0001
0100
0010
1000
0010
,  // measure 58
0100
0000
0101
0000
0001
0010
0100
0000
,  // measure 59
1000
0010
0100
0002
0000
0010
0013
0000
,  // measure 60
1100
0000
1000
0001
0000
0011
0000
0100
,  // measure 61
0010
0000
1001
0000
0100
0110
0000
0000
,  // measure 62
2010
0000
3100
0000
0001
0010
0100
0010
,  // measure 63
0002
0000
1003
0000
0210
0000
0301
1000
,  // measure 64
0020
0000
0130
0000
0001
0010
1000
0010
,  // measure 65
0002
0000
0103
0010
2000
0000
3001
0100
,  // measure 66
0010
0000
1010
0000
1000
0100
0001
0100
,  // measure 67
2000
3010
0002
0013
,  // measure 68
1200
0000
0310
0000
0001
1000
0100
1000
,  // measure 69
0010
0000
0100
0010
0000
1001
0000
0110
,  // measure 70
0020
0000
1030
0000
0100
0001
0010
0001
,  // measure 71
2000
0000
3100
0000
0002
0000
0013
0100
,  // measure 72
1000
0000
1001
0000
0100
0010
0100
0001
,  // measure 73
0020
0000
0031
0000
2000
0000
3100
0010
,  // measure 74
0001
0000
0101
0000
0100
0010
0100
1000
,  // measure 75
0100
0110
0001
1001
,  // measure 76
1000
0000
0010
0000
1000
0100
1000
0000
0001
0000
0010
0000
0001
0100
0001
0000
,  // measure 77
1000
0000
0100
0010
0000
0011
0000
0000
;

//---------------dance-single - LEGENDARY----------------
#NOTES:
     dance-single:
     LEGENDARY:
     Challenge:
     13:
     0.597147,0.619452,0.433203,0.091201,0.212802,550.000000,493.000000,57.000000,12.000000,0.000000,0.000000,0.597147,0.619452,0.433203,0.091201,0.212802,550.000000,493.000000,57.000000,12.000000,0.000000,0.000000:
0000
0000
0000
0000
,
0000
0000
0000
0000
,
0000
0000
0000
0000
,
0000
0000
0000
0000
,
0000
0000
0000
0000
,
0000
0000
0000
0000
,
0010
0000
1000
0010
0000
1000
0010
0000
0000
0000
0100
0000
0001
0010
0001
0000
,
1000
0000
0010
0100
0000
0010
0100
0000
0000
0001
0000
0000
0010
0000
0001
0000
,
0010
0000
0000
1100
0000
0000
0010
0000
0000
0100
0000
0000
0001
1000
0010
0000
,
0110
0000
0000
1001
0000
0000
1010
0000
0000
0101
0000
0000
0010
0000
0100
0000
,
0002
0000
0010
0000
1003
0100
1000
0010
,
0100
0000
0001
0100
0000
1010
0010
0100
,
0010
0000
0101
0000
1000
0010
0100
0001
,
0010
1000
0010
0002
0000
0100
0103
0000
,
1010
0000
1000
0001
0000
0010
0001
0100
,
0010
1000
0010
0100
0000
0100
0001
0100
,
1000
0000
0110
0000
1000
0100
0001
0100
,
0010
0001
0100
0020
0000
1000
1030
0000
,
0102
0000
0013
0001
0000
1000
0010
0100
,
0010
1000
0001
0010
0000
0011
0001
1000
,
0100
0000
1010
0000
0100
0001
0010
0001
,
1000
0100
0001
0200
0000
0010
0310
0010
,
0100
0000
1001
0000
0010
0100
0001
0010
,
0001
0100
1000
0010
0000
0010
1000
0100
,
0001
0000
1001
0000
0100
0010
1000
0010
,
0001
0010
0100
1000
0100
0001
0010
0100
,
1000
0100
1000
0000
0010
0000
0100
0000
0001
0000
0010
0000
0001
0000
0100
0000
,
0010
0100
0010
0000
1000
0000
0001
0000
0010
0000
1000
0000
0010
0000
0001
0000
,
0100
0001
0100
0000
0010
0000
1000
0000
0100
0000
1000
0000
0001
0000
0100
0000
,
0010
1000
0010
0000
0100
0000
0001
0000
0010
0000
0001
0000
1000
0000
0000
0000
,
0101
0000
0010
1000
0010
0100
1000
0100
,
0001
0100
0010
1000
0100
0001
0100
0010
,
0001
0000
1100
1000
0010
0000
0110
0000
,
0100
0001
0010
0001
0100
0010
0110
0000
,
1001
0000
0000
0011
0000
0000
0100
0000
0000
0010
0000
0000
1000
0100
1000
0000
,
0001
0000
0000
0101
0000
0000
0010
0000
0000
1000
0000
0000
0010
0000
0100
0000
,
0010
0000
0000
1100
0000
0000
0001
0000
0000
1000
0000
0000
0010
0000
0100
0000
,
0001
0000
0000
1010
0000
0000
0100
0000
0000
0001
0000
0000
0010
0000
0100
0000
,
1000
0000
0000
0101
0000
0000
0010
0000
0000
1000
0000
0000
0001
0100
0001
0000
,
0100
0000
0000
0010
0000
0000
1010
0000
0000
0001
0000
0000
1000
0000
0010
0000
,
0100
0000
0000
0110
0000
0000
1001
0000
0000
0100
0000
0000
0001
0010
0001
0000
,
0100
0000
0000
0110
0000
0000
1010
0000
0000
0011
0000
0000
0110
0000
0110
0000
,
0000
0000
0000
0000
,
0000
0000
0000
0000
0000
0000
0000
1001
,
0000
0000
0000
0000
,
0010
0000
1000
0000
0001
0010
0000
0010
0100
1000
0100
0000
0002
0000
0000
0000
,
0103
1000
0100
0000
0010
0000
0001
0000
0100
0000
0010
0000
1000
0000
0100
0000
,
1000
0001
1000
0000
0010
0000
0100
0000
0001
0000
0010
0000
1000
0000
0010
0000
,
0001
0100
0001
0000
1000
0000
0010
0000
0100
0000
0001
0000
0100
0000
1000
0000
,
0100
0010
0100
0000
0001
0000
0010
0000
0001
0000
1000
0000
0100
0000
0010
0000
,
0100
1000
0100
0000
0010
0000
0001
0000
0100
0000
0010
0000
1000
0000
0001
0000
,
0100
0001
0100
0000
0010
0000
1000
0000
0100
0000
0001
0000
0100
0000
1000
0000
,
0010
0100
0010
0000
1000
0000
0001
0000
0100
0000
0010
0000
1000
0000
0100
0000
,
1000
0010
1000
0000
0001
0000
0100
0000
0010
0000
0100
0000
0110
0000
0000
0000
,
0001
0010
0001
0000
1000
0000
0010
0000
0100
0000
0010
0000
1000
0000
0001
0000
,
0010
0001
0010
0000
0001
0000
1000
0000
0100
0000
0010
0000
0100
0000
1000
0000
,
0010
1000
0010
0000
0100
0000
0001
0000
0010
0000
0001
0000
1000
0000
0100
0000
,
0010
0100
0010
0000
0100
0000
1000
0000
0001
0000
0100
0000
0010
0000
1000
0000
,
0010
0100
0010
0000
1000
0000
0001
0000
0100
0000
0010
0000
1000
0000
0010
0000
,
0100
0001
0100
0000
0001
0000
0010
0000
0100
0000
1000
0000
0010
0000
0100
0000
,
0001
1000
0001
0000
1000
0000
0010
0000
0100
0000
0001
0000
0100
0000
1000
0000
,
1100
0000
0101
0000
0110
1001
0000
1001
,
0002
0000
0013
0000
1000
0010
0001
0010
,
1000
0000
1100
0000
0101
0000
0010
0001
,
2000
0000
3010
0000
0100
0001
0010
0001
,
1000
0000
0010
0000
0100
0000
0001
0010
0001
0000
1000
0000
0010
0000
0100
0000
,
0010
0000
1100
0000
1000
0100
0001
0100
,
1000
0010
1010
0000
0001
0100
0101
0000
,
0011
0000
1100
0000
0001
0010
1000
0010
,
0001
0100
0010
0100
0000
1001
0000
0010
,
0210
0000
0301
0000
0100
0001
0010
0001
,
0200
0000
1300
0000
0102
0000
0013
0001
,
1000
0000
1010
0000
0100
0001
0010
0001
,
2000
0000
0000
0000
3010
0000
0100
0001
0100
0000
0010
0000
1000
0000
0100
0000
,
0001
0000
1100
0000
0010
0100
0010
0001
,
0010
1010
0011
0110
,
0001
0000
1000
0000
0100
1000
0100
0000
1000
0000
0010
0000
0100
0001
0100
0000
,
0001
0000
0011
1001
0000
1010
0000
0000
;
