#TITLE:Flash Back 90's;
#SUBTITLE:;
#ARTIST:kors k as disconation;
#TITLETRANSLIT:;
#SUBTITLETRANSLIT:;
#ARTISTTRANSLIT:;
#GENRE:MEGA MIX;
#CREDIT:;
#BANNER:Flash_Back_90's_banner.png;
#BACKGROUND:Flash_Back_90's.png;
#LYRICSPATH:;
#CDTITLE:;
#MUSIC:Flash Back 90's.ogg;
#OFFSET:-0.390000;
#SAMPLESTART:65.419998;
#SAMPLELENGTH:12.400000;
#LASTBEATHINT:320.000000;
#SELECTABLE:YES;
#BPMS:0.000000=155.000000
;
#STOPS:
;
#BGCHANGES:;
#KEYSOUNDS:;
#ATTACKS:;

//---------------dance-single - ----------------
#NOTES:
     dance-single:
     :
     Easy:
     6:
     0.273863,0.312009,0.062597,0.117370,0.000000,245.000000,237.000000,8.000000,15.000000,0.000000,0.000000,0.273863,0.312009,0.062597,0.117370,0.000000,245.000000,237.000000,8.000000,15.000000,0.000000,0.000000:
0000
0000
0000
0000
,
0000
0000
0000
0000
,
0000
0000
0000
0000
,
0000
0000
0000
0000
,
1000
0000
0001
0100
,
0001
0000
0010
0100
,
1000
0000
0001
0000
,
1000
0010
0100
0001
,
1000
0100
0010
0100
,
1000
0100
0010
0000
,
0001
0100
0010
0100
,
0001
0100
0010
0000
,
1000
0001
0010
0100
,
1000
0100
0010
0000
,
0001
0100
0010
1000
,
0220
0000
0330
0000
,
1000
0100
0010
0001
,
1000
0010
1000
0000
,
0001
0010
0100
1000
,
0001
0010
0001
0000
,
0100
0010
1000
0001
,
1000
1000
1000
0000
,
0010
0100
0001
0010
,
0000
2000
3000
0002
,
0103
0000
0010
0010
,
0200
0000
0000
0300
0000
0000
1001
0000
,
0010
1000
0010
0000
,
0100
0001
0100
0000
,
0001
0010
0100
0000
,
1000
0000
0001
0000
0000
0100
0100
0000
,
0001
0100
0001
0000
,
1000
0010
1000
0000
,
0001
0100
0010
0000
,
1000
0000
0001
1001
,
0010
0100
0010
0001
,
1000
0010
0100
0000
,
0001
1000
0100
0010
,
0100
1000
0001
0000
,
1000
0010
1000
0010
,
0100
0001
0100
0000
,
0001
0010
0001
0100
,
0010
0000
0000
0010
0000
1000
2000
0000
,
3001
0010
0100
0000
,
1000
0010
0100
0000
,
0010
1000
0001
0000
,
1000
0100
0010
0000
,
0001
1000
0010
0200
,
0301
0010
0100
1000
,
2000
0000
3001
0001
,
0010
0001
1000
1100
,
0001
0000
0001
0000
,
1000
0000
1000
0000
,
0100
0000
0100
0000
,
0010
0000
0010
0000
,
0001
0000
0100
0000
,
1000
0000
0010
0000
,
0100
0000
1000
0000
,
0010
0000
0001
0000
,
0220
0000
0000
0000
0000
0330
0000
0000
,
2002
0000
0000
0000
0000
3003
0000
0000
,
0100
0010
1000
0010
,
0100
0001
0010
0000
,
0001
0010
0100
1000
,
0010
0100
0001
0000
,
1000
0010
0100
0010
,
1000
0001
0010
0000
,
0100
1000
0010
0100
,
0002
0000
0000
1003
,
1000
0010
0100
0001
,
0010
0100
1000
0000
,
0010
0100
0001
0100
,
0010
1000
0100
0000
,
0010
0100
1000
0001
,
1000
0010
0100
0000
,
0001
0100
0010
1000
,
2020
0000
3030
0000
,
0100
0001
0100
0001
,
1000
0100
1000
0000
,
0001
0010
0001
0100
,
0010
1000
0001
0110
;

//---------------dance-single - ----------------
#NOTES:
     dance-single:
     :
     Medium:
     11:
     0.501896,0.469480,0.117370,0.140844,0.117370,449.000000,434.000000,15.000000,18.000000,0.000000,0.000000,0.501896,0.469480,0.117370,0.140844,0.117370,449.000000,434.000000,15.000000,18.000000,0.000000,0.000000:
0000
0000
0000
0000
,
0000
0000
0000
0000
,
0000
0000
0000
0000
,
0000
0000
0000
0000
,
0001
0000
0010
0001
0000
1000
0010
0000
,
1000
0000
0001
0100
0000
1000
0100
0000
,
0010
0100
0001
0000
1000
0100
0010
0000
,
0100
1000
0010
0100
0001
0000
1001
0000
,
0200
0010
0001
0310
,
0020
1000
0100
1030
,
1000
0100
0010
0000
0100
0010
0001
0000
,
1000
0001
0010
0100
1000
0000
0010
0000
,
0100
0001
0100
0000
0010
1000
0010
0000
,
1000
0100
1000
0000
0001
0010
0001
0000
,
0100
0010
1000
0001
1000
0000
0011
0000
,
2200
0000
3300
0000
,
0001
0000
0000
0001
0000
0000
0001
0000
0010
0000
0100
0000
0010
0000
0000
0000
,
0001
0000
0000
1000
0000
0000
0001
0000
1000
0000
0010
0000
1000
0000
0000
0000
,
0100
0000
0000
0100
0000
0000
0100
0000
0010
0000
0100
0000
1000
0000
0000
0000
,
0001
0100
0010
1000
0001
0000
1001
0000
,
0100
0000
0000
0100
0000
0000
0100
0000
0001
0000
0010
0000
0002
0000
0000
0000
,
1003
0000
0000
1000
0000
0000
1000
0000
0010
0000
0100
0000
0020
0000
0000
0000
,
1030
0100
1000
0000
0001
0010
0001
0000
,
0100
1000
2000
0000
3100
0001
0002
0000
,
0013
0000
0000
0001
0000
0000
1000
0000
0001
0000
1000
0000
0100
0000
0000
0000
,
0020
0000
0030
1100
,
0001
0000
0100
0000
0010
0000
0100
0000
0001
0000
0000
0001
0000
0000
0000
0000
,
1000
0000
0100
0000
0010
0000
0100
0000
1000
0000
0000
1000
0000
0000
0000
0000
,
0010
0000
0100
0000
0001
0000
1000
0000
0100
0000
0000
0100
0000
0000
0000
0000
,
0010
0000
0000
0100
0000
0000
1000
0000
0001
0000
0100
0000
0100
0000
0000
0000
,
0010
0000
1000
0000
0001
0000
1000
0000
0010
0000
0000
0010
0000
0000
0000
0000
,
0100
0000
0001
0000
0010
0000
0001
0000
0100
0000
0000
0100
0000
0000
0000
0000
,
0010
0000
1000
0000
0100
0000
0010
0000
0100
0000
0000
1000
0000
0000
0000
0000
,
1000
1000
0001
0001
0200
0000
0310
0000
,
0010
1000
0100
0000
1000
0100
0010
0000
,
0001
0100
0010
0000
0010
1000
0100
0000
,
1000
0100
0010
0000
0100
0010
0001
0000
,
0010
0001
1000
0000
0010
1000
0100
0000
,
1000
0001
0000
0011
0000
0001
0000
0101
,
0000
1000
0000
1010
0000
1000
0000
1100
,
0000
0010
0000
0110
0000
1000
0000
0001
,
1000
0000
1000
2000
0000
3001
0002
0000
,
0103
0000
0010
0000
0000
0010
0000
0000
1000
0000
0000
0000
0100
0000
0010
0000
,
0001
0000
1000
0000
0000
0010
0000
0000
0100
0000
0000
0010
0000
0000
0100
0000
,
0001
0000
1000
0000
0000
0100
0000
0000
1000
0000
0000
0000
0010
0000
0100
0000
,
0001
0000
0000
0001
0000
0000
0001
0000
1000
0000
0100
0000
0010
0000
0000
0000
,
0001
0010
0001
0000
1000
0000
1020
0000
,
0130
0001
0100
0000
0010
1000
0010
0000
,
0100
0100
0100
0000
0001
0000
0011
0000
,
1000
0001
1000
0001
0010
0100
0010
0000
,
0000
0001
0010
0001
0000
0010
0100
0010
,
0000
0100
1000
0100
0000
1000
0010
1000
,
0000
0010
0100
0010
0000
0100
0001
0100
,
0000
0001
1000
0001
0000
0010
0100
1000
,
0000
0001
1000
0010
0000
0010
1000
0001
,
0000
0100
0001
1000
0000
0100
1000
0001
,
0000
0010
0100
1000
0000
0001
0100
0010
,
0000
1000
0001
0010
0000
0001
1000
0000
,
2002
0000
0000
3003
,
0220
0000
0000
0330
,
0001
0000
0010
0000
0001
0000
0000
0000
1000
0000
0000
0001
0000
0000
0100
0000
,
0010
0000
1000
0000
0100
0000
0000
0000
1000
0000
0000
0001
0000
0000
0010
0000
,
0001
0000
1000
0000
0100
0000
0000
0000
1000
0000
0000
0010
0000
0000
0100
0000
,
0001
0000
1000
0000
0001
0000
0000
0000
0010
0000
0000
0100
0000
0000
1000
0000
,
0010
0000
0100
0000
0001
0000
0000
0000
1000
0000
0000
0010
0000
0000
0100
0000
,
0010
0000
1000
0000
0100
0000
0000
0000
1000
0000
0000
0001
0000
0000
0010
0000
,
0001
0100
0001
0000
1000
0010
1000
0000
,
0001
0100
0010
1000
0100
0010
0002
0000
,
1003
0000
0010
0000
0100
0000
0001
0000
0010
0000
0000
0001
0000
0000
1000
0000
,
0010
0000
0100
0000
0001
0000
1000
0000
0100
0000
0000
1000
0000
0000
0001
0000
,
0100
0000
0010
0000
1000
0000
0010
0000
0100
0000
0000
0001
0000
0000
0010
0000
,
0001
0000
1000
0000
0100
0000
1000
0000
0001
0000
0000
0010
0000
0000
0100
0000
,
1000
0000
0010
0000
1000
0000
0100
0000
0010
0000
0000
0100
0000
0000
1000
0000
,
0001
0000
0100
0000
0010
0000
0100
0000
0001
0000
0000
0010
0000
0000
0100
0000
,
1000
0001
1000
0000
0010
0100
0010
0000
,
1000
0001
0010
0100
1000
0001
1001
0000
,
0010
0100
0001
0000
1000
0100
0010
0000
,
0001
0010
0100
0000
0010
0100
1000
0000
,
0001
1000
0010
0000
0100
0001
1000
0000
,
0010
1000
0100
0010
0001
1000
0001
0100
,
0010
0000
0000
0000
;

//---------------dance-single - ----------------
#NOTES:
     dance-single:
     :
     Hard:
     16:
     0.774642,0.845064,0.203441,0.125195,0.704220,693.000000,667.000000,26.000000,16.000000,0.000000,0.000000,0.774642,0.845064,0.203441,0.125195,0.704220,693.000000,667.000000,26.000000,16.000000,0.000000,0.000000:
// measure 0
0000
0000
0000
0000
,  // measure 1
0000
0000
0000
0000
,  // measure 2
0000
0000
0000
0000
,  // measure 3
0000
0000
0000
0000
,  // measure 4
0100
0010
0100
0001
0000
0001
1000
0100
,  // measure 5
0010
0100
1000
0001
0100
0010
1000
0001
,  // measure 6
1000
0000
0100
0000
0001
0000
0100
0000
1000
0000
0001
0000
0010
0001
1000
0000
,  // measure 7
0010
0100
0001
1000
0010
0100
0001
0010
,  // measure 8
0200
0000
1000
0000
0001
0000
1300
0001
,  // measure 9
0200
0000
0000
0000
1000
0000
0000
0000
0010
0000
0310
0000
0000
0100
0000
0000
,  // measure 10
0001
1000
0100
0010
0001
1000
0010
0100
,  // measure 11
0001
0010
0100
0010
0100
1000
0010
0100
0001
1000
0100
0010
,  // measure 12
0001
0010
0001
0000
1000
0010
1000
0000
0010
0100
0010
0000
2000
0000
0000
0000
,  // measure 13
3001
0010
0001
0000
0100
0000
0010
0000
1000
0100
1000
0000
0010
0000
0100
0000
,  // measure 14
0001
0100
0001
0000
1000
0000
0010
0000
1000
0100
1000
0000
0020
0000
0000
0000
,  // measure 15
0130
0001
1000
0001
0000
1000
0001
0000
0010
0100
1000
0001
2000
0000
0000
0000
,  // measure 16
3010
0000
0100
0000
0001
1000
0000
1000
0010
0000
0100
0010
0100
0010
1000
0000
,  // measure 17
0001
0010
0000
0010
0001
0100
0010
0000
1000
0000
0100
0000
0001
0000
0100
0000
,  // measure 18
1000
0000
0010
1000
0000
0001
0100
0000
0010
1000
0000
1000
0001
0010
0001
0000
,  // measure 19
0010
0100
0010
0100
1000
0000
1000
0000
0001
0010
0001
0010
0100
0000
0100
0000
,  // measure 20
1000
0000
0010
0100
0000
0010
0100
0000
0001
0000
1000
0000
0001
0010
0100
1000
,  // measure 21
0010
0100
0000
0100
0010
0000
1000
0000
0001
0000
0010
0001
0000
1000
0010
0000
,  // measure 22
0100
0000
0001
0000
1000
0100
0010
0000
0001
0000
1000
0000
0001
0010
0100
0000
,  // measure 23
1000
0000
1000
0000
1100
0000
0000
0000
0001
0010
0100
0010
0001
0000
0000
0000
,  // measure 24
0101
0000
0000
1100
0000
0000
1010
0000
0000
0110
0000
0000
1000
0000
1001
0000
,  // measure 25
0001
0010
1000
0100
0010
0000
1001
0000
,  // measure 26
0100
0000
0010
0000
0001
0000
0010
0000
0100
0000
0010
0100
0000
0010
0100
0000
,  // measure 27
0010
1000
0100
0000
1000
0000
0100
0000
0010
0000
0100
1000
0000
0001
1000
0000
,  // measure 28
0010
0000
0100
0000
0001
0000
0100
0000
0010
0000
1000
0100
0000
0010
0001
0000
,  // measure 29
1000
0001
0000
1000
0001
0000
0010
0100
0000
0000
1001
0000
1001
0000
0000
0000
,  // measure 30
0010
0000
0100
0000
1000
0000
0100
0000
0010
0000
0100
0010
0000
0100
0010
0000
,  // measure 31
0100
0001
0010
0000
0001
0000
0010
0000
0100
0000
0010
0001
0000
1000
0001
0000
,  // measure 32
0100
0000
0010
0000
1000
0000
0010
0000
0100
0000
0001
0010
0000
0100
1000
0000
,  // measure 33
0001
0000
0001
0000
0001
0000
0010
0100
1000
0001
0010
0001
2000
0000
0000
0000
,  // measure 34
3010
0000
0100
0001
0000
0100
0001
0000
1000
0000
0010
0000
0001
0000
2000
0000
,  // measure 35
0000
0000
3100
0000
0001
0000
0010
0000
0001
0000
1000
0100
0001
0000
0100
0000
,  // measure 36
1000
0010
0100
0001
0010
0001
0010
2000
,  // measure 37
0000
3010
0001
1000
0010
0100
0001
0010
,  // measure 38
0001
1100
1000
1100
1000
1100
1000
1100
,  // measure 39
0001
0011
0001
0011
0001
1001
0110
1001
,  // measure 40
0100
0110
0010
0110
0100
0110
0010
0110
,  // measure 41
2000
0000
3000
0000
1000
0100
2000
0000
3000
0000
1000
0000
2000
0000
0000
0000
,  // measure 42
3001
0000
0010
0000
0001
0100
0000
0010
1000
0000
0100
0000
1000
0010
0100
0000
,  // measure 43
0001
0000
1000
0000
0100
0010
0000
0100
1000
0000
0010
0100
0000
0001
0010
0000
,  // measure 44
0001
0000
0100
0000
0001
1000
0000
0010
1000
0000
0001
0010
0100
0000
1000
0000
,  // measure 45
0010
0000
0100
0000
0010
1000
0000
0001
0100
0000
0001
1000
0001
0000
1000
0000
,  // measure 46
0001
0000
0100
0000
0010
1000
0000
1000
0001
0000
1000
0000
0010
0100
0010
0100
,  // measure 47
0001
0000
1000
0000
0010
0100
0000
0100
0001
0000
1000
0000
1100
0000
0000
0000
,  // measure 48
1000
0010
1000
0000
0001
0000
0010
0000
0010
0000
0010
0000
0110
0000
0000
0000
,  // measure 49
1000
0000
0001
0000
0010
0001
0000
0001
1000
0010
0100
0010
2000
0000
0000
0000
,  // measure 50
3001
0100
1000
0001
0000
1000
0001
0010
,  // measure 51
0000
1000
0001
0100
0000
0001
1000
0010
,  // measure 52
0000
1000
0100
0001
0000
1000
0010
0001
,  // measure 53
0000
1000
0001
0010
0000
0001
0100
1000
,  // measure 54
0000
0010
0001
1000
0000
0100
1000
0001
,  // measure 55
0000
0010
0100
1000
0000
0010
0001
0100
,  // measure 56
0000
1000
0100
0010
0000
0100
0001
0010
,  // measure 57
0000
0010
0100
1000
0000
0001
1000
0001
,  // measure 58
2002
0000
0000
3003
,  // measure 59
0220
0000
0000
0000
0000
0330
0000
0000
,  // measure 60
1000
0000
0010
0000
1000
0010
0000
1000
0100
0000
0010
0001
0000
0010
0001
0000
,  // measure 61
1000
0001
0000
1000
0001
0000
0010
0001
0000
0000
1000
0010
0000
1000
0000
0100
,  // measure 62
1000
0000
0010
0000
1000
0001
0000
0100
0001
0000
0010
0001
0000
1000
0010
0000
,  // measure 63
1000
0001
0000
0010
0001
0000
1000
0100
0000
1000
0001
0000
0000
0010
0100
0010
,  // measure 64
0001
0000
1000
0000
0010
1000
0000
0010
0100
0000
0001
1000
0000
0010
1000
0000
,  // measure 65
0001
1000
0000
0010
1000
0000
0100
1000
0000
0001
0010
0000
0100
0000
0100
0000
,  // measure 66
1000
0000
0010
0000
0100
0001
0000
1000
0010
0000
0100
0010
0000
0100
0010
0000
,  // measure 67
1000
0001
0000
0010
0001
0000
1000
0000
0010
0000
0100
0010
0100
0000
0001
0000
,  // measure 68
1000
0000
0100
0010
0100
0000
1000
0000
0001
0000
0010
0100
0010
0000
0001
0000
,  // measure 69
1000
0001
0000
0100
0001
0000
0010
0001
0000
0100
0001
1000
0000
1000
0000
0010
,  // measure 70
0100
0000
0001
0010
0001
0000
0100
0000
0010
0000
1000
0100
1000
0000
0010
0000
,  // measure 71
0100
0001
0000
1000
0001
0000
1000
0010
0000
0000
0100
0001
0000
1000
0000
0100
,  // measure 72
1000
0000
0100
0010
0000
0100
1000
0000
0001
0000
0010
0001
0000
0100
0010
0000
,  // measure 73
0100
0001
0000
1000
0001
0000
1000
0010
0000
0000
0100
0001
0000
0010
0000
0100
,  // measure 74
1000
0000
0010
1000
0000
0001
0100
0000
0010
0000
0100
0001
0000
1000
0010
0000
,  // measure 75
1000
0000
0001
0010
0000
0001
1000
0000
0100
0000
0010
0100
0010
0000
0001
0000
,  // measure 76
0010
0000
0001
0000
1000
0000
0010
1000
0001
0000
0100
0000
0010
0000
1000
0001
,  // measure 77
1000
0000
0100
0000
0010
0000
0100
1000
0010
0000
0100
0000
0001
0000
0010
0001
,  // measure 78
1000
0000
0001
0000
0010
0000
0100
1000
0010
0000
0100
0000
0001
0000
1000
0100
,  // measure 79
1000
0000
0001
0000
0010
0000
0001
0100
0010
0100
0010
0100
0001
1000
0100
0010
,  // measure 80
0001
0000
0000
0000
;
