#TITLE:Fiat Lux;
#SUBTITLE:;
#ARTIST:xi;
#TITLETRANSLIT:;
#SUBTITLETRANSLIT:;
#ARTISTTRANSLIT:;
#GENRE:;
#CREDIT:;
#BANNER:Fiat Lux_banner.png;
#BACKGROUND:Fiat Lux_bg.png;
#LYRICSPATH:;
#CDTITLE:;
#MUSIC:FIat Lux.ogg;
#OFFSET:-0.540000;
#SAMPLESTART:12.080000;
#SAMPLELENGTH:12.000000;
#LASTBEATHINT:394.000000;
#SELECTABLE:YES;
#BPMS:0.000000=200.000000
;
#STOPS:
;
#BGCHANGES:;
#KEYSOUNDS:;
#ATTACKS:;

//---------------dance-single - ----------------
#NOTES:
     dance-single:
     :
     Easy:
     10:
     0.331231,0.409720,0.166807,0.350295,0.000000,278.000000,258.000000,20.000000,42.000000,0.000000,0.000000,0.331231,0.409720,0.166807,0.350295,0.000000,278.000000,258.000000,20.000000,42.000000,0.000000,0.000000:
// measure 0
0000
0000
0000
0000
,  // measure 1
0000
0000
0000
0000
,  // measure 2
0000
0000
0000
0000
,  // measure 3
0000
0000
0000
0000
,  // measure 4
0100
0010
1000
0001
,  // measure 5
0010
0100
0010
0000
,  // measure 6
0001
0100
0010
1000
,  // measure 7
0020
0000
0130
0000
,  // measure 8
2002
0000
0000
0000
,  // measure 9
3003
0000
0000
0000
,  // measure 10
0100
0000
0001
0000
0010
0000
0000
0001
,  // measure 11
0000
1000
0010
1000
,  // measure 12
0100
0000
0010
0000
0100
0000
0000
1000
,  // measure 13
0000
0010
0100
0001
,  // measure 14
0010
0000
0000
0001
0000
0000
1000
0000
,  // measure 15
0000
0010
0100
0010
,  // measure 16
1000
0100
0010
0001
,  // measure 17
0010
0100
2000
3000
,  // measure 18
0001
0000
0100
0000
0010
0000
0000
0100
,  // measure 19
0000
0001
0010
0100
,  // measure 20
1000
0000
0010
0000
0100
0000
0000
0010
,  // measure 21
0000
1000
0100
0010
,  // measure 22
0001
0000
0000
1000
0000
0000
0010
0000
,  // measure 23
0000
0010
1000
0000
,  // measure 24
2002
0000
0000
3003
,  // measure 25
0000
0000
0100
0010
,  // measure 26
0220
0000
0000
0000
0000
0330
0000
0000
,  // measure 27
2002
0000
3003
0000
,  // measure 28
0010
0000
1000
0000
0000
0100
0000
1000
,  // measure 29
0000
0001
0100
0010
,  // measure 30
0100
0000
0001
0000
0000
0001
0000
0010
,  // measure 31
0000
0001
0100
0020
,  // measure 32
0030
0000
0110
0000
0000
1000
0000
0000
,  // measure 33
0000
0001
0000
0010
0000
0000
0001
0000
,  // measure 34
0100
0010
0000
0000
0100
0010
0000
0010
,  // measure 35
0000
1000
0100
0010
,  // measure 36
0001
0000
0100
0000
0010
0100
0000
0010
,  // measure 37
0000
1000
0000
0100
0000
0010
0000
0000
,  // measure 38
0001
0000
1001
0000
0000
0100
0000
0010
,  // measure 39
0000
0010
1000
0002
,  // measure 40
0003
0000
1001
0000
0000
0100
0000
0010
,  // measure 41
0000
1000
0001
0010
,  // measure 42
0100
0010
0000
0010
0100
0000
1000
0001
,  // measure 43
0000
1000
0000
0001
0000
0200
0000
0000
,  // measure 44
0310
1000
0100
1000
,  // measure 45
0010
1000
0100
0000
,  // measure 46
0010
0001
0100
0001
,  // measure 47
0010
0000
0100
0000
0010
0000
0000
0001
,  // measure 48
0000
1000
0001
0100
,  // measure 49
0010
1000
0001
0010
,  // measure 50
0002
0000
2003
0000
,  // measure 51
3010
0100
0001
0010
,  // measure 52
0002
0100
0000
0103
,  // measure 53
0020
1000
0000
1030
,  // measure 54
2000
0100
0000
3100
,  // measure 55
0020
0001
0000
0031
,  // measure 56
0100
0001
0010
0100
,  // measure 57
1000
0100
0010
0000
,  // measure 58
1001
0000
0110
0000
,  // measure 59
1000
0001
0220
0330
,  // measure 60
1001
0000
0000
0000
,  // measure 61
0010
0000
0100
0000
,  // measure 62
0001
0000
0000
0000
,  // measure 63
0001
0000
1000
0000
,  // measure 64
0200
1000
0000
1300
,  // measure 65
0020
0100
0000
0130
,  // measure 66
2000
0001
0000
3001
,  // measure 67
0002
0010
0000
0013
,  // measure 68
2001
0000
0010
0000
,  // measure 69
0100
0000
3010
0000
,  // measure 70
0102
0000
0010
0000
,  // measure 71
0100
0000
1003
0000
,  // measure 72
0010
0000
0000
0100
0000
0000
0010
0000
,  // measure 73
1000
0000
0000
0001
0000
0000
1000
0000
,  // measure 74
0001
0010
0100
1000
,  // measure 75
0010
0100
0001
1000
,  // measure 76
0100
0010
0100
1000
,  // measure 77
0020
0000
0030
0000
,  // measure 78
0202
0003
0000
0000
,  // measure 79
0020
0000
0300
0000
,  // measure 80
2000
0000
0030
0000
,  // measure 81
0002
0000
3003
0000
,  // measure 82
0100
0000
0000
1000
0000
0000
0010
0000
,  // measure 83
0000
0100
0001
0010
,  // measure 84
0001
0000
1100
0000
,  // measure 85
0010
0000
0101
0000
,  // measure 86
0020
0000
0031
0000
0100
0000
0000
0010
,  // measure 87
0000
0100
0001
1000
,  // measure 88
0100
0000
1000
0000
0010
0000
0000
0100
,  // measure 89
0000
0001
0010
0001
,  // measure 90
1000
0000
0000
0010
0000
0000
1000
0000
,  // measure 91
0000
0001
0100
0000
,  // measure 92
0220
0000
0000
0000
,  // measure 93
0330
0000
0001
1000
,  // measure 94
2020
0000
0000
0000
0000
3030
0000
0000
,  // measure 95
0022
0000
0033
0000
,  // measure 96
0000
2002
0000
0000
,  // measure 97
0000
0000
0000
0000
,  // measure 98
0000
3003
0000
0000
;

//---------------dance-single - ----------------
#NOTES:
     dance-single:
     :
     Medium:
     13:
     0.636250,0.655552,0.291912,0.283572,0.041702,534.000000,499.000000,35.000000,34.000000,0.000000,0.000000,0.636250,0.655552,0.291912,0.283572,0.041702,534.000000,499.000000,35.000000,34.000000,0.000000,0.000000:
// measure 0
0000
0000
0000
0000
,  // measure 1
0000
0000
0000
0000
,  // measure 2
0000
0000
0000
0000
,  // measure 3
0000
0000
0000
0000
,  // measure 4
0010
0000
0100
0000
0001
1000
0100
0000
,  // measure 5
1000
0000
0010
0000
0100
0001
0010
0000
,  // measure 6
0001
0100
0010
1000
0100
0010
0001
0000
,  // measure 7
0100
0010
1000
0001
0010
0100
1000
0000
,  // measure 8
2002
0000
0000
3003
,  // measure 9
0220
0000
0000
0330
0000
0100
0100
0000
,  // measure 10
0001
0010
0001
0000
1000
0100
0000
1001
,  // measure 11
0000
0010
0100
0001
0010
0000
0001
0000
,  // measure 12
1000
0010
1000
0001
0000
1010
0000
0100
,  // measure 13
0000
0001
0010
0100
0000
0100
0010
0000
,  // measure 14
0001
0100
0001
1000
0010
1000
0002
0000
,  // measure 15
0103
0010
0100
0002
0000
1003
0100
0000
,  // measure 16
1000
0010
0100
0010
1000
0100
0010
0000
,  // measure 17
0010
0001
0100
0001
0010
0100
2000
0000
,  // measure 18
3001
0100
0010
0000
1000
0100
0000
1001
,  // measure 19
0000
0010
0100
0001
0010
0000
0100
0000
,  // measure 20
1000
0001
0010
0001
0000
1100
0000
0001
,  // measure 21
0000
0010
0001
0200
0000
0310
1000
0000
,  // measure 22
0010
0100
0010
2000
0000
3001
0020
0000
,  // measure 23
0031
0000
0000
0100
0000
0000
0010
0000
0000
0000
0000
0000
1000
0000
0000
0000
0100
0000
0000
0000
0010
0000
0000
0000
,  // measure 24
0002
0100
0010
0103
,  // measure 25
0020
0000
1000
0000
0100
0000
1030
0100
,  // measure 26
0020
0000
0001
0000
0100
0000
0031
1000
,  // measure 27
0010
0100
0010
0100
0020
0000
0000
0000
,  // measure 28
1030
0000
0100
1000
0000
0001
0100
0010
,  // measure 29
0000
1000
0100
0001
0000
0001
0100
1000
,  // measure 30
0010
0100
0001
0000
0010
0001
0100
0010
,  // measure 31
0000
0000
0010
1000
0001
0100
0001
0020
,  // measure 32
0030
0000
1001
0000
0100
1000
0010
0100
,  // measure 33
0000
0100
0001
1000
0000
0010
0100
0001
,  // measure 34
1000
0100
1000
0000
0001
0100
0001
0010
,  // measure 35
0000
0010
0001
1000
0010
0100
0002
0000
,  // measure 36
1003
0000
1010
0000
0100
0001
0010
0100
,  // measure 37
0000
0100
0010
0001
0000
1000
0010
0100
,  // measure 38
0000
0000
0101
0000
0010
0100
0001
0010
,  // measure 39
0000
0010
0001
1000
0000
0010
0100
0020
,  // measure 40
0030
0000
1100
0000
1000
0001
0010
0001
,  // measure 41
0000
0100
0010
0100
0000
0010
1000
0020
,  // measure 42
0000
1030
0100
0010
0001
0100
0010
0100
,  // measure 43
0001
0010
0100
1000
0010
0200
0000
0000
,  // measure 44
0301
0000
0010
0001
0100
0001
0010
0000
,  // measure 45
0001
1000
0100
1000
0001
0010
0100
0000
,  // measure 46
1000
0010
0100
0010
1000
0100
0010
0000
,  // measure 47
0100
1000
0010
1000
0100
0010
0000
0010
,  // measure 48
0000
0100
1000
0001
0100
0010
1000
0000
,  // measure 49
0001
0100
0010
0100
0001
0000
0010
0000
,  // measure 50
0001
0100
0010
1000
0100
0010
0001
0000
,  // measure 51
0100
0001
0010
0100
2000
0000
3001
0000
,  // measure 52
1001
0000
0010
0100
0010
1000
0100
0000
,  // measure 53
1010
0000
0100
0001
0010
0100
1000
0000
,  // measure 54
0101
0000
0010
0001
0100
0010
1000
0000
,  // measure 55
1100
0000
0010
0100
0001
0010
0100
0000
,  // measure 56
0010
0001
0100
0000
0010
1000
0100
0000
,  // measure 57
0010
0001
1000
0000
0001
1000
0010
0000
,  // measure 58
0100
0010
0100
0010
1000
0001
1000
0001
,  // measure 59
0010
0100
1000
0010
0100
0000
0000
0000
,  // measure 60
0022
0000
0030
0000
,  // measure 61
2000
0000
0003
0000
3000
0010
0100
0001
,  // measure 62
0020
0000
0000
0000
,  // measure 63
0200
0000
0330
1000
,  // measure 64
0001
0000
0000
0110
0000
0000
0001
1000
,  // measure 65
0010
0100
0000
0100
0000
0010
0100
0000
,  // measure 66
0002
0010
0000
0013
,  // measure 67
2000
0100
0000
3100
,  // measure 68
1001
0000
0010
0000
0100
0010
0100
0000
,  // measure 69
0001
0000
0010
0000
0001
0100
0010
1000
,  // measure 70
0100
1000
0010
0100
,  // measure 71
0001
0000
0010
0000
0001
0100
0001
0000
,  // measure 72
1010
0000
0000
0011
0000
0000
1100
0000
,  // measure 73
0000
1010
0000
0001
0100
0000
0011
0000
,  // measure 74
0001
0100
0010
0000
1000
0010
0100
0000
,  // measure 75
0001
0010
1000
0000
1000
0010
0001
0000
,  // measure 76
0100
0010
1000
0001
0010
0100
1000
0001
,  // measure 77
0100
0110
1001
0000
,  // measure 78
0010
0000
0100
0000
0010
0100
0000
2020
,  // measure 79
0000
0000
3030
0000
,  // measure 80
0001
0000
0010
0000
0001
0100
0000
0011
,  // measure 81
0000
0000
0000
1100
0000
0000
0010
0000
,  // measure 82
1000
0100
0010
0100
1000
0001
0100
0000
,  // measure 83
0000
0100
0010
1000
0000
0001
0100
0000
,  // measure 84
0001
0000
0110
0000
1000
0000
0010
0000
0110
0000
0001
0000
,  // measure 85
0000
0000
1000
0000
0010
0000
0100
0000
0000
0110
0000
0000
,  // measure 86
0002
0003
0000
0000
0011
0000
0000
0000
0001
0000
1000
0000
0100
0000
0010
0000
,  // measure 87
0000
0010
0100
1000
0000
0010
0100
0001
,  // measure 88
0010
0001
1000
0010
0000
0110
0000
1010
,  // measure 89
0000
1000
0001
0010
0000
0010
0001
0100
,  // measure 90
0001
1000
0100
1000
0001
0100
0010
0000
,  // measure 91
0010
0000
0000
0100
0000
0000
0001
0000
0000
0000
0000
0000
0001
0000
0000
0000
1100
0000
0000
0000
0010
0000
0000
0000
,  // measure 92
0200
0000
0301
0010
0001
0100
0010
1000
,  // measure 93
0010
0100
0001
1000
0200
0000
0000
1300
,  // measure 94
0000
1000
0010
0100
0001
0010
0100
0000
,  // measure 95
0001
0100
1000
0001
0010
1000
0010
0100
,  // measure 96
0000
0022
0000
0000
,  // measure 97
0000
0000
0000
0000
,  // measure 98
0000
0033
0000
0000
;

//---------------dance-single - ----------------
#NOTES:
     dance-single:
     :
     Hard:
     17:
     0.955566,1.106244,0.583825,0.408677,0.696419,802.000000,732.000000,70.000000,49.000000,0.000000,0.000000,0.955566,1.106244,0.583825,0.408677,0.696419,802.000000,732.000000,70.000000,49.000000,0.000000,0.000000:
// measure 0
0000
0000
0000
0000
,  // measure 1
0000
0000
0000
0000
,  // measure 2
0000
0000
0000
0000
,  // measure 3
0000
0000
0000
0000
,  // measure 4
0010
0000
0100
0000
0001
0000
1000
0000
0100
0000
0010
0000
0100
1000
0010
0100
,  // measure 5
0001
0000
1000
0000
0010
0000
0100
0000
0001
0000
1000
0000
0100
0010
0001
1000
,  // measure 6
0010
0000
0100
0000
0010
0000
0100
0000
0001
1000
0001
0000
0010
0000
0100
0000
,  // measure 7
1000
0010
0100
0000
0001
0100
0010
0000
1000
0010
0100
0001
1000
0100
0010
0001
,  // measure 8
0200
0000
0000
0000
,  // measure 9
0020
0000
0000
0330
0000
0010
0010
1000
,  // measure 10
0001
0000
0010
0100
0010
0000
0001
0000
1000
0000
1010
0000
0000
0000
0011
0000
,  // measure 11
0000
0000
0100
0010
1000
0000
0100
0000
1000
0000
0001
1000
0100
0000
0010
0000
,  // measure 12
0001
0000
1000
0100
1000
0000
0010
0000
0100
0000
1001
0000
0000
0000
0110
0000
,  // measure 13
0000
0000
0010
0100
0001
0000
0010
0000
0000
0000
0010
0100
1000
0000
0001
0000
,  // measure 14
1000
0000
0010
0100
0010
0000
1000
0000
0100
0010
0100
0000
2000
0000
0000
0000
,  // measure 15
3001
0000
0100
0000
0010
1000
0010
0000
0000
0000
0010
0000
1000
0100
0010
0001
,  // measure 16
0100
0000
0001
0010
0001
0000
0100
0000
0010
1000
0010
0000
0100
0000
0001
0000
,  // measure 17
0000
0000
0001
0010
0100
0000
1000
0000
0010
0000
0100
0010
1000
0001
0010
0100
,  // measure 18
1000
0000
0001
0100
0001
0000
1000
0000
0010
0000
0110
0000
0000
0000
0101
0000
,  // measure 19
0000
0000
0001
0010
0100
0000
1000
0000
0010
0000
1000
0010
0100
0000
0001
0000
,  // measure 20
1000
0000
0010
0100
0010
0000
1000
0000
0001
0000
0011
0000
0000
0000
1100
0000
,  // measure 21
0000
0000
1000
0001
0100
0000
0010
0000
0100
0000
0001
0010
0100
0000
1000
0000
,  // measure 22
0001
0000
0010
0100
0010
0000
0001
0000
0100
0010
0100
0000
0002
0000
0000
0000
,  // measure 23
1003
0000
0000
0000
0000
0000
0010
0000
0000
0100
0000
0000
0001
0000
0000
0000
0000
0000
1000
0000
0000
0000
0000
0000
1010
0000
0000
0000
0000
0000
0000
0000
0011
0000
0000
0000
0000
0000
0000
0000
1100
0000
0000
0000
0000
0000
0000
0000
,  // measure 24
0120
0000
0000
0000
1030
0000
0100
0000
1000
0000
0010
0000
0100
0010
0100
0010
,  // measure 25
0100
0000
0001
0000
0010
0000
0001
0000
1000
0000
0001
0000
0100
0010
0100
0010
,  // measure 26
0100
0000
0001
0010
0001
0000
1000
0100
1000
0000
0010
0100
0010
0000
1000
0001
,  // measure 27
1000
0000
0000
0000
0000
0000
0010
0000
0000
0100
0000
0000
0010
0000
0000
1000
0000
0000
0001
0000
0000
1000
0000
0000
0020
0000
0000
0000
0000
0000
0000
0000
0100
0000
0000
0000
0000
0000
0000
0000
0130
0000
0000
0000
0000
0000
0000
0000
,  // measure 28
1001
0000
0001
0100
1000
1100
0000
0101
,  // measure 29
0000
0001
0020
2000
0030
3010
0001
0100
,  // measure 30
0010
0000
1000
0100
0020
0000
0000
0000
0130
0000
1100
0000
0000
0000
0101
0000
,  // measure 31
0000
0000
0100
0000
1000
0000
0010
0000
0001
0000
0010
0000
1000
0001
1000
0001
,  // measure 32
1000
0000
0110
0000
0001
0010
1000
0020
,  // measure 33
0000
1030
0010
0001
0100
0010
1000
0001
,  // measure 34
0000
0201
0000
0310
1000
1001
0010
0011
,  // measure 35
0000
1000
0010
0100
0001
0010
0100
1000
,  // measure 36
1001
0000
0001
0100
1000
0001
0010
1000
,  // measure 37
0000
1001
0000
0001
1000
0020
0000
0031
,  // measure 38
0001
0000
1100
0000
0001
0101
0000
1010
,  // measure 39
0000
0000
1000
0000
0001
0000
0200
0000
0000
0000
0310
0000
1000
0000
0001
0010
,  // measure 40
0000
0000
1001
0000
0100
0010
0001
1001
,  // measure 41
0000
0000
0110
0000
0000
0000
1002
0000
0000
0000
1003
0000
0010
0000
0100
0010
,  // measure 42
1000
0000
1001
0000
0001
0000
0100
0000
0010
0000
1000
0000
0001
0000
1000
0100
,  // measure 43
0010
0000
0001
1000
0010
0000
0100
0001
0010
0001
0200
0000
0000
0000
0300
0000
,  // measure 44
1001
0000
0010
0100
0001
0000
0010
0000
0100
0000
1000
0010
0100
0001
1000
0100
,  // measure 45
1000
0000
0001
0010
0000
0001
0100
0000
0001
0000
1000
0010
0100
0010
1000
0000
,  // measure 46
0001
0000
0010
0000
0001
1000
0100
0010
0001
0000
0100
0000
0001
0010
0100
1000
,  // measure 47
0010
0000
1000
0001
0000
0010
0100
0000
1000
0000
1001
0000
0000
0000
0110
0000
,  // measure 48
0000
0000
0010
0100
0001
0000
0010
0000
0001
0100
0000
0010
1000
0000
0001
0000
,  // measure 49
1000
0000
0010
0100
0000
0010
0100
0000
0001
0000
0010
0100
1000
0100
0010
0000
,  // measure 50
0001
0000
1000
0000
0010
0100
0000
0001
0010
0000
0100
1000
0000
0010
0100
0010
,  // measure 51
1000
0100
1000
0000
0001
0100
0001
0000
1000
0000
0010
0100
0001
0100
0010
0000
,  // measure 52
2000
0000
0000
0000
3001
0100
0010
0000
0100
0000
0001
0000
0010
0000
0000
0000
,  // measure 53
0012
0000
0000
0000
1003
0010
0100
0000
0001
0000
1000
0000
0100
0000
0000
0000
,  // measure 54
2010
0000
0000
0000
3001
0100
0010
0000
1000
0000
0001
0010
0100
0000
0000
0000
,  // measure 55
0012
0000
0000
0000
1003
0010
0100
0000
0001
0000
0100
0010
0100
0010
0100
0000
,  // measure 56
0001
0000
0010
0000
0001
1000
0100
1000
0001
0000
1000
0000
0010
0100
0010
0000
,  // measure 57
1000
0000
0100
0000
1000
0001
0010
0001
1000
0000
0010
0100
0010
0000
0000
0000
,  // measure 58
1000
0000
0001
0100
0001
0000
1000
0010
1000
0000
0001
0010
0001
0000
1000
0100
,  // measure 59
1000
0010
1000
0010
0100
0001
0100
0001
0020
0000
0000
0000
0030
0000
0000
0000
,  // measure 60
0202
0000
0000
0300
,  // measure 61
0020
0000
0000
0000
0033
0200
2300
3020
,  // measure 62
0200
0000
0000
0300
,  // measure 63
2000
0000
3030
1001
,  // measure 64
0110
0000
0001
0100
0000
0100
1001
0010
,  // measure 65
0000
0000
0010
0000
0000
0000
0100
0000
1000
0000
0100
0010
0100
0000
0002
0000
,  // measure 66
0000
0010
0000
0100
0103
0000
0010
0010
,  // measure 67
1000
0100
0010
0001
1000
0000
1001
0000
,  // measure 68
0020
0100
0001
0100
,  // measure 69
0230
0000
1000
0000
0301
0011
0010
0100
,  // measure 70
1200
0001
0010
1000
,  // measure 71
0320
0000
0000
0000
0100
0000
0000
0000
0031
0000
0000
0000
0001
0100
0010
1000
,  // measure 72
0010
0000
0000
0101
0000
0000
0010
0011
,  // measure 73
0000
0000
1100
0000
0000
0000
0010
0000
0110
0000
0000
0000
1000
0000
0001
1000
,  // measure 74
0001
0010
0100
1000
0010
0100
0001
1000
,  // measure 75
0100
0000
0010
0000
0001
0000
1000
0000
0010
0000
0100
0000
0001
0000
1000
0010
,  // measure 76
1000
0000
0001
0000
0100
0010
1000
0001
0010
0100
1000
0010
0100
0001
0010
0100
,  // measure 77
2000
3000
0000
0000
2002
3003
0000
0000
0220
0330
0010
0000
0010
0000
0000
0000
,  // measure 78
1000
0000
0100
0010
0100
0000
0000
0000
1000
0000
1001
0000
0000
0000
0012
0000
,  // measure 79
0000
0000
0000
1000
0000
0103
0100
0000
,  // measure 80
0010
0000
0100
0001
0100
0000
0010
0000
1000
0000
0001
0000
0100
0000
0220
0000
,  // measure 81
0000
0000
0330
0000
0000
0000
1001
0000
0000
0000
0010
0100
0010
0000
0000
0000
,  // measure 82
1000
0000
0001
0010
0001
0000
0100
0000
0001
0010
0001
0000
2000
0000
0000
0000
,  // measure 83
3100
0000
0010
0000
0100
0000
1100
0000
0000
0000
0010
0000
1000
0100
0010
0001
,  // measure 84
0100
0000
0011
0000
1100
0000
1010
0000
0101
0000
0011
0000
,  // measure 85
1000
0000
0000
0000
0001
0000
0000
0000
1000
0000
0000
0000
0010
0000
0000
0000
0100
0000
0000
0000
0010
0000
0000
0000
1000
0000
0000
0000
0000
0000
0001
0000
0000
0100
0000
0000
0001
0000
0000
0000
0000
0000
0010
0000
0000
0000
0000
0000
,  // measure 86
0200
0300
0000
0000
0000
0000
0000
0000
0011
0000
0000
0000
0000
0000
0000
0000
0001
0000
0000
0000
1000
0000
0010
0000
1000
0000
0000
0000
0002
0000
0000
0000
,  // measure 87
0000
0000
0013
0100
1000
0000
0001
0000
1000
0000
0010
0100
0001
0000
0010
0000
,  // measure 88
0001
0000
0010
0100
1000
0000
1010
0000
0001
0000
0011
0000
1000
0000
1010
0000
,  // measure 89
0000
0000
0001
1000
0001
0010
0100
0000
0000
0000
0100
0010
0001
0000
1000
0000
,  // measure 90
0010
0000
1000
0100
1000
0000
0010
0000
0100
0001
0100
0000
0020
0000
0000
0000
,  // measure 91
0000
0000
0000
0000
0000
0000
0130
0000
0000
0000
0000
0000
0001
0000
0000
0000
0000
0000
0010
0000
0000
0100
0000
0000
1000
0000
0000
0000
0000
0000
0000
0000
0101
0000
0000
0000
0000
0000
0000
0000
1010
0000
0000
0000
0000
0000
0000
0000
,  // measure 92
0110
0000
0000
0000
0010
0000
1000
0100
1000
0000
0001
0010
0001
0000
0100
0010
,  // measure 93
0100
0000
0001
0010
0100
0000
1000
0010
0100
0000
0001
0000
0010
0000
0001
1000
,  // measure 94
0100
0000
0010
0100
1000
0000
0010
0100
0001
0000
0010
0100
1000
0000
0010
0100
,  // measure 95
0001
0000
0000
1000
0000
0000
0001
0000
0000
1000
0000
0000
0001
0000
0000
1000
0000
0000
0001
0000
0000
1000
0000
0000
0100
0000
0000
0000
0000
0000
0000
0000
0110
0000
0000
0000
0000
0000
0000
0000
2002
0000
0000
0000
0000
0000
0000
0000
,  // measure 96
3003
0220
0000
0000
,  // measure 97
0000
0000
0000
0000
,  // measure 98
0000
0330
0000
0000
;
