#TITLE:FEEL THE FORCE;
#SUBTITLE:;
#ARTIST:brz1128;
#TITLETRANSLIT:;
#SUBTITLETRANSLIT:;
#ARTISTTRANSLIT:;
#GENRE:;
#CREDIT:;
#BANNER:FEEL_THE_FORCE_banner.png;
#BACKGROUND:FEEL_THE_FORCE.png;
#LYRICSPATH:;
#CDTITLE:;
#MUSIC:FEEL THE FORCE.ogg;
#OFFSET:-0.740000;
#SAMPLESTART:28.170000;
#SAMPLELENGTH:12.000000;
#SELECTABLE:YES;
#BPMS:0.000000=210.000000
,160.000000=105.000000
,190.000000=210.000000
;
#STOPS:
;
#BGCHANGES:;
#KEYSOUNDS:;
#ATTACKS:;

//---------------dance-single - ----------------
#NOTES:
     dance-single:
     :
     Easy:
     9:
     0.415657,0.437576,0.099191,0.231445,0.000000,352.000000,340.000000,12.000000,28.000000,0.000000,0.000000,0.415657,0.437576,0.099191,0.231445,0.000000,352.000000,340.000000,12.000000,28.000000,0.000000,0.000000:
0000
0000
0000
0000
,
0000
0000
0000
0000
,
0000
0000
0000
0000
,
0000
0000
0000
0000
,
0100
0010
0000
0100
0010
0100
0000
0100
,
0020
0000
1030
0000
,
0001
0010
0000
0001
0010
0001
0000
0010
,
0002
0000
0103
0000
,
0001
0010
0001
1000
,
0100
0010
0001
0100
,
0010
1000
0010
0100
,
0001
1000
0100
0110
,
0001
1000
0000
0002
0000
0000
0003
0000
,
0100
0000
0010
0000
1000
0000
0000
0100
,
1000
0001
0100
0000
,
0110
0000
1010
0000
,
0100
0001
0010
0001
,
1000
0010
0100
0001
,
0010
0100
1000
0100
,
0010
0001
0100
0100
,
0010
1000
0001
1000
,
0100
0010
0100
1000
,
0001
1000
0010
0100
,
2002
0000
3003
0000
,
0010
0001
1000
0010
,
1000
0100
0010
0100
,
1000
0010
0100
0010
,
1000
0001
0010
0100
,
1000
0001
1000
0100
,
1000
0010
0100
0010
,
0100
0001
0010
0100
,
1000
0001
2002
3003
,
0100
0010
0100
0001
,
1000
0001
0010
0001
,
0100
0010
1000
0100
,
1000
0001
0020
0030
,
0001
0100
0010
0100
,
0001
1000
0100
0010
,
1100
0000
0101
0000
,
0010
0100
0001
1000
,
0001
0000
0000
0001
0010
0000
0000
0010
,
0100
0000
0000
0100
1000
0000
0000
1000
,
0020
0000
2030
0000
,
3002
0000
0103
0100
,
0010
0000
0010
0000
1000
1000
1000
0000
,
0001
0000
0001
0000
0010
0010
0010
0000
,
0001
1000
0100
0010
,
0001
1000
2002
0000
,
0000
3003
0000
0000
0001
0100
0000
0001
,
0100
0001
0000
0100
0002
0000
0000
0000
,
0000
0000
1003
0000
1000
0100
0000
1000
,
0100
1000
0000
0100
2000
0000
0000
0000
,
0000
0000
3010
0000
0100
0010
0000
0100
,
0010
0100
0000
0010
0100
0000
0000
0001
,
0010
0000
0000
0100
1000
0000
0001
0000
,
1000
0001
0220
0000
,
0330
0000
0001
0100
,
0001
0010
0001
1000
,
0100
0010
0100
1000
,
0001
1000
0010
0100
,
0010
1000
0001
0010
,
0100
1000
0001
0100
,
0010
1000
0100
0100
,
0010
0010
0001
1000
,
2002
3003
0100
0010
,
0100
0001
1000
0100
,
0001
0100
1000
0010
,
0100
1000
0100
0001
,
0100
1000
0100
0010
,
1000
0001
0010
0001
,
0100
0010
1000
1000
,
0001
0001
0010
0100
,
2002
3003
0010
0000
,
0010
0100
0010
0000
,
1000
0100
0010
0000
,
0001
0100
0010
0100
,
0001
0000
2000
0000
,
3010
0100
0002
0000
,
0013
0100
0010
0001
,
1000
0100
1000
0010
,
0110
0000
1000
0010
,
0100
0001
0010
0100
,
0010
0000
0001
0100
,
0010
1000
0100
0010
,
0100
0000
1000
0010
,
1000
0010
0100
0001
,
0100
0001
0010
0001
,
0100
0010
2000
0000
,
0000
0000
3000
0000
0001
0010
0000
0001
,
0010
0001
0000
1000
0200
0000
0000
0000
,
0000
0000
1300
0000
1000
0010
0000
1000
,
0010
1000
0000
0010
0200
0000
0000
0000
,
0000
0000
0301
0000
0001
1000
0000
0001
,
1000
0001
0000
1000
0200
0000
0000
0000
,
0000
0000
0310
0000
0001
1000
0000
0001
,
1000
0001
0000
1000
0020
0000
0000
0000
,
0000
0130
0000
0000
;

//---------------dance-single - ----------------
#NOTES:
     dance-single:
     :
     Medium:
     13:
     0.690793,0.875152,0.165318,0.198382,0.107457,585.000000,565.000000,20.000000,24.000000,0.000000,0.000000,0.690793,0.875152,0.165318,0.198382,0.107457,585.000000,565.000000,20.000000,24.000000,0.000000,0.000000:
0000
0000
0000
0000
,
0000
0000
0000
0000
,
0000
0000
0000
0000
,
0000
0000
0000
0000
,
1000
1000
0000
0001
0010
0010
0000
0100
,
0020
0001
0100
0031
,
1000
1000
0000
0001
0100
0100
0000
0010
,
1000
0100
1000
0001
0010
0100
1000
0000
,
0010
0100
0001
1000
0100
0010
0001
0000
,
1000
0010
0100
0010
1000
0001
0010
0000
,
0100
1000
0001
1000
0010
0100
0001
0000
,
1000
0001
0010
0100
1000
0100
0010
0000
,
0001
0000
0001
0000
0000
0000
1000
0000
0010
0000
0000
0100
0000
0000
0110
0000
,
0000
0000
1000
0000
0001
0000
0000
0000
1000
0000
0000
0011
0000
0000
0100
0000
,
0000
0000
0010
0000
0010
0000
1000
0000
0100
0000
0000
1000
0000
0000
0001
0000
,
0020
0000
0100
0130
,
1000
0001
1000
0001
0010
0100
1000
0000
,
0001
0100
1000
0100
0001
0100
1000
0000
,
0100
0010
0100
0010
1000
0100
0010
0000
,
0001
0010
1000
0010
0001
0010
1000
0000
,
0010
0001
0010
0001
1000
0100
1000
0000
,
0010
0100
0010
0100
0001
1000
0001
0000
,
1000
0010
1000
0010
0100
0001
0010
0000
,
0012
0000
1000
1003
,
0100
0010
1000
0010
0100
0000
0001
0010
,
0000
0001
1000
0100
0010
0100
1000
0000
,
0001
0010
0100
0010
0001
0000
1000
0010
,
0000
0100
0001
1000
0001
0010
0100
0000
,
1000
0001
1000
0000
0110
0000
0001
0010
,
0000
0001
1000
0001
0100
0010
0100
0000
,
0001
0010
0100
0000
0010
0100
1000
0001
,
0000
0001
1000
0010
0100
0001
0020
0000
,
0130
1000
0001
1000
0100
0000
1000
0010
,
0000
0100
0001
0010
0100
1000
0010
0000
,
0100
0001
1000
0001
0100
0000
0001
0010
,
0000
0001
1000
0001
0010
0100
0010
0000
,
0001
1000
0100
0000
1010
0000
0100
0001
,
0000
1000
0001
1000
0010
0100
0001
0000
,
1000
0010
0100
0000
0010
0100
0001
1000
,
0000
1000
0001
0010
0100
1000
0002
0000
,
1003
0000
0010
0100
0000
0010
0100
0000
0001
0000
0010
0100
0000
1000
0001
0000
,
0100
0000
0010
1000
0000
0010
1000
0000
0001
0000
0010
0100
0000
0010
0100
0000
,
1000
0000
0001
0200
0000
0000
0310
0000
0010
0000
1000
0200
0000
0000
1300
0000
,
0001
0000
0100
0020
0000
0000
1030
0000
1000
0001
0100
0000
0001
1000
0100
0000
,
1000
0000
0010
0100
0010
0000
0100
0010
0000
1000
0001
0000
0010
0000
0010
0000
,
0001
0000
0100
0010
0100
0000
0010
0100
0000
0001
1000
0000
0100
0000
0100
0000
,
1000
0000
0001
0010
0001
0000
1000
0010
0000
0100
0010
0000
1000
0000
1000
0000
,
0001
0000
1000
0100
1000
0000
0010
0000
0100
0000
0000
0000
0001
0000
1001
0000
,
0000
0110
2002
0000
,
0000
3003
0000
0110
,
1001
0000
0110
0000
0001
0001
0000
0010
,
0100
0010
0000
0001
2000
0000
0100
0000
,
0001
0000
3100
0000
1000
1000
0000
0010
,
0100
0010
0000
1000
0001
0010
0000
0001
,
0010
0100
0000
1000
0001
1000
0001
1000
,
0001
0010
0100
0010
0002
0000
0000
0000
,
0000
0000
0003
0000
0100
0010
0100
0010
,
0100
0000
0001
1000
0000
0010
1000
0000
,
0001
1000
0100
0000
0010
0001
2000
0000
,
3001
0000
0100
0001
0000
1000
0010
1000
,
0001
0010
0100
0000
1000
0010
1000
0001
,
1000
0000
0010
0100
0000
0001
0010
0000
,
0100
1000
0001
0000
1000
0010
1000
0010
,
0100
0001
0100
0000
0001
0010
0100
1000
,
0010
0100
0001
0000
0010
0100
0010
0001
,
0010
0000
0100
1000
0000
0010
0100
0000
,
0010
1000
0100
0000
1000
0010
0100
0010
,
1000
0000
0001
0010
0000
0001
1000
0000
,
0010
0100
0001
0000
1000
0100
0001
0100
,
1000
0000
0001
1000
0000
1000
0001
0000
,
0100
0010
1000
0000
0001
0010
1000
0010
,
0001
0000
1000
0001
0000
0001
1000
0000
,
0220
0000
0330
0000
1000
0100
1000
0100
,
0010
0000
0001
1000
0000
1000
0001
0000
,
0220
0000
0330
0000
0001
0100
0001
0100
,
0010
0000
1000
0100
0000
1000
0001
0000
,
2200
0000
3300
0000
0001
1000
0100
1000
,
0001
0000
0010
0100
0000
1000
0100
0000
,
1000
0010
0100
0000
0001
0010
0001
0000
,
1000
0010
0100
0001
0000
0001
0010
0100
,
1000
0000
1001
0000
0010
1000
0010
1000
,
0001
0000
0010
0100
0000
1000
0001
0000
,
1001
0000
1001
0000
0100
0001
1000
0000
,
0100
1000
0010
0100
0000
0100
0001
0000
,
0011
0000
0011
0000
1000
0100
1000
0001
,
0010
0100
1000
0000
0010
0100
0001
1000
,
0100
0010
0100
0000
1000
0001
1000
0001
,
0010
0000
0010
0001
0000
0001
1000
0010
,
0100
0010
1000
0000
0001
0001
0000
1000
,
0010
0100
0000
0001
2000
0000
0010
0000
,
0010
0000
3010
0000
0100
0100
0000
0001
,
0010
0010
0000
0001
1000
0001
0020
0000
,
0230
0000
1300
0000
0010
0010
0000
1000
,
0001
0100
0000
0001
0020
0000
0100
0000
,
0100
0000
0130
0000
1000
0001
0000
0010
,
0100
1000
0000
0010
0200
0000
0000
0000
,
0300
1001
0000
0000
;

//---------------dance-single - ----------------
#NOTES:
     dance-single:
     :
     Hard:
     16:
     0.889174,1.233169,0.454624,0.148786,0.351301,753.000000,698.000000,55.000000,18.000000,0.000000,0.000000,0.889174,1.233169,0.454624,0.148786,0.351301,753.000000,698.000000,55.000000,18.000000,0.000000,0.000000:
0000
0000
0000
0000
,
0000
0000
0000
0000
,
0000
0000
0000
0000
,
0000
0000
0000
0000
,
1000
1010
0000
0001
1000
1001
0000
0010
,
0110
0200
0001
0000
1000
0000
0301
0001
,
1000
1100
0000
0001
0001
0011
0000
0100
,
0001
0010
1000
0001
0100
1000
1001
0000
,
0100
0001
1000
0010
0100
0001
1000
0100
,
1000
0000
0001
0000
0010
0000
0001
0000
1000
0001
1000
0000
0010
0000
0001
0000
,
0100
0010
1000
0100
1000
0010
0001
0010
,
1000
0001
0010
0100
1000
0001
1001
0000
,
0010
0000
0110
0000
0000
0000
0001
0000
1001
0000
0000
1010
0000
0000
0101
0000
,
0000
0000
1000
0000
0011
0000
0001
0000
1001
0000
0000
1100
0000
0000
1010
0000
,
0000
0000
0001
0000
0011
0000
0010
0000
0110
0000
0000
1001
0000
0000
0100
0000
,
0120
1000
0001
1030
,
0001
0010
0001
0010
0100
1000
0100
1000
,
0010
1000
0010
1000
0001
0100
0001
0100
,
0001
0100
1000
0100
0001
0100
1000
0100
,
0001
1000
0100
0001
0100
1000
1001
0000
,
0010
1000
0010
1000
0001
0100
0001
0100
,
0001
1000
0100
1000
0010
0100
0001
0010
,
0100
0000
1000
0000
0001
0000
0100
0010
0100
0000
0001
0000
1000
0000
0100
0000
,
0020
0001
1000
0031
,
0001
0100
1000
0100
0001
0010
1000
0010
,
0000
0010
0001
1000
0100
1000
0010
0001
,
0010
1000
0010
0001
0100
1000
0100
0001
,
0000
0001
1000
0010
0100
0001
2000
0000
,
3100
0010
0100
1000
0001
0010
0100
0010
,
0000
0000
0001
1000
0001
0000
0100
0000
0010
0000
1000
0000
0001
1000
0001
1000
,
0001
0010
0100
1000
0010
0100
0001
0100
,
0020
1000
0001
1030
,
1000
0010
0001
0010
1000
0100
0001
0100
,
0000
0100
1000
0001
0010
0001
0100
1000
,
0100
0001
0100
1000
0010
0001
0010
1000
,
0000
1000
0001
0100
0010
1000
0002
0000
,
0013
0000
0100
0000
1000
0000
0001
0000
1000
0000
0010
0000
0100
0000
0001
1000
,
0001
0000
0100
0000
0001
0000
0010
0000
0100
0000
1000
0000
0010
0100
0010
0100
,
0010
0000
1000
0000
0100
0000
1000
0000
0001
0000
0010
0000
0100
0000
0010
0001
,
2000
0100
0001
3100
,
1000
0010
0100
0001
0000
0010
0001
0100
0010
1000
0100
1000
0000
0010
0100
0001
,
1000
0100
0001
0100
0000
1000
0001
1000
0001
0010
1000
0010
0000
0001
1000
0100
,
0010
0100
1000
0001
0000
0100
0010
1000
0001
0010
0100
1000
0000
0010
1000
0001
,
0010
0100
0010
0001
0000
1000
0010
0100
0001
1000
0100
0010
0100
1000
1001
0000
,
0010
0100
0010
0001
0010
0100
0010
1000
0000
1000
0100
0010
0100
1000
0001
0000
,
1000
0010
0100
0010
1000
0010
0100
0010
0000
0010
1000
0001
0010
0001
1000
0000
,
0001
0010
0100
0010
0001
0010
0100
0010
0000
0001
0010
0100
1000
0001
1000
0000
,
0010
1000
0010
0001
0010
1000
0010
0000
0110
0000
0000
0000
1000
0000
1010
0000
,
0000
0001
0011
0000
1000
1001
0000
0001
,
1001
1000
0000
0010
0110
0200
0001
0000
,
1000
0000
0301
0000
0001
1001
0000
1000
,
1010
0010
0000
0100
0101
0002
0010
0000
,
0100
0000
0013
0000
1000
1100
0000
0010
,
0110
0100
0000
0001
0011
0010
0000
0001
,
1001
1000
0000
0100
1000
0010
0100
0001
,
1000
0000
0001
0000
0010
0001
1000
0100
0020
0000
0000
0000
0000
0000
0000
0000
,
0000
0000
0031
0000
0001
0100
1000
0100
,
0001
0010
1000
0010
0000
0001
1000
0100
,
1000
0001
0100
0010
1000
0100
0001
0100
,
1000
0010
0001
0010
0000
1000
0001
1000
,
0010
0000
0100
0000
0001
0000
1000
0100
1000
0000
0010
0000
0100
0000
0010
0000
,
1000
0001
0010
1000
0000
1000
0010
0001
,
1000
0001
0100
0010
1000
0010
1000
0010
,
0100
0000
0001
0000
0100
0000
0001
0010
0001
0000
1000
0000
0100
0000
0001
0000
,
1000
0010
0011
0000
1000
0010
0001
0010
,
1000
0100
0001
0100
0000
0010
0100
1000
,
0001
0000
0100
0000
0010
0000
1000
0001
1000
0000
0100
0000
0001
0000
0100
0000
,
1000
0000
0010
0000
0001
0000
0010
0000
0000
0000
0100
0000
0001
0000
1000
0010
,
0100
0001
0010
0100
1000
0001
0010
0001
,
1000
0000
0010
0000
0100
0000
0010
0000
1000
0000
0001
0000
0010
0000
0100
1000
,
0001
0100
0010
1000
0001
0010
0100
0010
,
0100
1000
0001
0100
0010
1000
0001
0010
,
0001
0000
1000
0100
1000
0000
0010
0000
0100
0000
0000
1001
0000
0000
0010
0000
,
1000
0001
0100
1000
0000
1000
0100
0001
,
0010
0000
0100
0000
1000
0000
0001
0000
1000
0000
0000
0011
0000
0000
0100
0000
,
0010
1000
0010
0100
0000
0100
0001
0010
,
0001
0000
1000
0010
1000
0000
0100
0000
0001
0000
0000
1100
0000
0000
0010
0000
,
0100
0001
1000
0020
0000
0130
0001
1000
,
0100
0000
0001
0000
0100
0000
1000
0000
0001
0000
0010
0001
0100
0000
0010
0000
,
1000
0100
1000
0000
0010
0000
0100
0000
0000
0000
0010
0000
1000
0000
0001
0000
,
1000
0000
0001
0010
0200
0000
0000
0000
1300
0000
0010
0000
0100
0000
0010
0000
,
1000
0001
0100
1000
0000
1000
0100
0001
,
1000
0000
0100
0000
0001
0000
0100
0000
1000
0000
0000
0101
0000
0000
1000
0000
,
0010
0100
0001
0010
0000
0010
0001
1000
,
1010
0000
0011
0000
0100
0010
0100
0010
,
1000
0001
1000
0000
0001
0000
0010
0000
0000
0000
0010
0000
0001
0000
1000
0000
,
0100
1000
0010
0100
0001
0010
0001
1000
,
0001
0010
0001
0000
1000
0000
1002
0000
0000
0000
0000
0000
0010
0000
0000
0000
,
0100
0000
0013
0000
1000
1100
0000
0001
,
0101
0001
0000
0010
0110
0200
1000
0000
,
0001
0000
1300
0000
1000
1010
0000
0001
,
0011
0010
0000
0001
1001
2000
0100
0000
,
0001
0000
3010
0000
0010
1010
0000
1000
,
1100
0100
0000
0010
0021
0000
1000
0000
,
0001
0000
1030
0000
0001
0011
0000
1000
,
1010
0010
0000
0100
0220
0000
0000
0000
,
0330
1100
0000
0000
;

//---------------dance-single - ----------------
#NOTES:
     dance-single:
     :
     Challenge:
     18:
     1.027333,1.352507,0.429827,0.247977,0.702601,870.000000,818.000000,52.000000,30.000000,0.000000,0.000000,1.027333,1.352507,0.429827,0.247977,0.702601,870.000000,818.000000,52.000000,30.000000,0.000000,0.000000:
// measure 0
0000
0000
0000
0000
,  // measure 1
0000
0000
0000
0000
,  // measure 2
0000
0000
0000
0000
,  // measure 3
0000
0000
0000
0000
,  // measure 4
1000
0000
1010
0000
0000
0000
0001
0100
0010
0000
0100
0000
0000
0000
0001
0000
,  // measure 5
0010
0100
1200
0000
0001
0000
1300
0001
,  // measure 6
1000
0000
1100
0000
0000
0000
0001
0100
0010
0000
0100
0000
0000
0000
0010
0000
,  // measure 7
0100
0000
1000
0000
0010
0000
0001
0000
1000
0001
0010
0100
2000
0000
0000
0000
,  // measure 8
3001
0000
0100
0000
0010
0000
0100
0000
0001
1000
0100
0000
1000
0000
0010
0000
,  // measure 9
0100
0000
0001
0000
0100
0000
1000
0000
0100
0010
0100
0000
0001
0000
0010
0000
,  // measure 10
0001
0000
1000
0000
0100
0000
0010
0000
0100
1000
0001
0000
1000
0000
0010
0000
,  // measure 11
0100
0010
0210
0000
0001
0000
0310
1000
,  // measure 12
0100
0000
1100
0000
0000
0000
0001
0010
0001
0000
0000
0110
0000
0000
1001
0000
,  // measure 13
0000
0000
0100
0000
0001
0000
0010
0000
1001
0000
0000
1010
0000
0000
0101
0000
,  // measure 14
0000
0000
0010
0000
0100
0000
0001
0010
0001
0000
0000
1100
0000
0000
0101
0000
,  // measure 15
0010
0000
1000
0000
0100
0000
1000
0000
0001
0010
0100
1000
0002
0000
0000
0000
,  // measure 16
1003
0000
0100
0000
1000
0000
0001
0000
0010
0000
0001
0000
0010
0000
0100
1000
,  // measure 17
0100
0000
1000
0001
1000
0001
1000
0000
0100
0000
0010
0000
1000
0000
0001
0000
,  // measure 18
0010
0000
0100
0000
0001
0000
0100
1000
0010
0000
0100
0000
0001
0000
0010
0000
,  // measure 19
0001
0000
1000
0000
0010
0000
1000
0000
0001
0010
0100
1000
0002
0000
0000
0000
,  // measure 20
0103
0000
0010
0000
0100
0000
1000
0000
0100
0001
0010
0000
0001
0000
0010
0000
,  // measure 21
0100
0000
1000
0000
0001
0000
1000
0000
0010
0100
0001
0000
1000
0000
0100
0000
,  // measure 22
0010
0000
0100
0000
1000
0000
0001
1000
0001
0000
0100
0000
0010
0000
1000
0000
,  // measure 23
0001
0010
0001
1000
0010
0100
0110
0000
,  // measure 24
1000
0000
0010
0100
0010
0000
1000
0100
1000
0000
0001
0000
0010
0000
0100
0000
,  // measure 25
0000
0000
0100
0000
0010
0000
0001
1000
0001
0000
0100
0000
0010
0000
1000
0000
,  // measure 26
0001
0000
0100
0010
0100
0000
0001
0010
0001
0000
1000
0000
0100
0000
0010
0000
,  // measure 27
0000
0000
0010
0000
0100
0000
1000
0001
1000
0000
0010
0000
0100
0000
0001
0000
,  // measure 28
1000
0000
0100
0000
0020
0000
0000
0000
0031
0000
1000
0000
0010
0000
0100
0001
,  // measure 29
1000
0000
0010
1000
0001
0000
0010
0000
0100
0000
1000
0000
0001
1000
0001
1000
,  // measure 30
0001
0100
0010
0100
0001
1000
0010
0010
,  // measure 31
0200
1300
0100
0010
1000
0001
0011
0000
,  // measure 32
1000
0000
0001
0010
0001
0000
0100
0010
0100
0000
0001
0000
0010
0000
1000
0000
,  // measure 33
0000
0000
1000
0000
0010
0000
0001
1000
0001
0000
1000
0000
0010
0000
0100
0000
,  // measure 34
0001
0000
1000
0100
1000
0000
0010
0100
0010
0000
1000
0000
0100
0000
0001
0000
,  // measure 35
0000
0000
0001
0000
0100
0000
1000
0001
1000
0000
0001
0000
0100
0000
0010
0000
,  // measure 36
1000
0000
0100
0000
0100
0000
0001
0000
0100
0000
0100
0000
1000
0000
0001
1000
,  // measure 37
0001
0000
0100
0000
0100
0000
0010
0000
0100
0000
0001
0000
1000
0001
1000
0001
,  // measure 38
0010
0100
0100
1000
0100
0010
0100
0100
,  // measure 39
1000
0010
0001
0010
1000
0010
0110
0000
,  // measure 40
0001
0100
0010
2000
0000
3010
0100
0001
0010
0100
1000
0002
0000
1003
0010
0100
,  // measure 41
0010
1000
0100
0020
0000
0130
1000
0001
0100
0010
0100
0002
0000
0013
0100
0010
,  // measure 42
0001
1000
0010
1020
0000
0130
0001
0100
0001
0010
0100
2100
0000
3010
0100
0001
,  // measure 43
1000
0100
0001
0201
0000
1300
0010
1000
0001
0100
1000
0102
0000
0003
1001
0000
,  // measure 44
0100
0010
0100
0001
0100
0010
0100
0101
0000
1000
0100
1000
0010
1000
0001
1000
,  // measure 45
0001
0010
0001
1000
0001
0100
0001
1001
0000
0010
0100
1000
0001
0100
0010
1000
,  // measure 46
0100
0010
0100
1000
0001
0010
0100
0110
0000
0001
1000
0001
1000
0010
0100
0010
,  // measure 47
1000
0001
1000
0100
0010
0100
1000
0001
0011
0000
1000
0000
0010
0000
0110
0000
,  // measure 48
0000
0000
0001
0000
1000
0000
0001
0000
1000
0000
1010
0000
0000
0000
0001
0100
,  // measure 49
0001
0101
0000
0010
0100
1000
0020
0130
,  // measure 50
0002
0000
0103
0000
1000
0000
1100
0000
0001
0000
1001
0000
0000
0000
0010
1000
,  // measure 51
0100
1100
0000
0001
0100
0020
1030
0002
,  // measure 52
0013
0000
0200
0000
1300
0000
0010
0000
0100
0000
0101
0000
0000
0000
1000
0010
,  // measure 53
1000
0000
0001
0000
0000
0000
0100
0001
0100
0000
0010
0000
0000
0000
1000
0100
,  // measure 54
1000
0010
0000
0100
0001
1000
0001
0010
,  // measure 55
0001
1000
0100
0010
0001
1000
0100
0010
0002
0000
0000
0000
0000
0000
0000
0000
,  // measure 56
0003
0000
0000
0000
1001
0000
0000
0000
0010
0000
1000
0100
1000
0000
0010
0100
,  // measure 57
0010
0000
1000
0000
0100
0000
0010
0000
0000
0000
0010
0000
0100
0000
1000
0001
,  // measure 58
1000
0000
0010
0000
0100
0000
0001
0000
0010
0000
0001
0010
0001
0000
1000
0010
,  // measure 59
1000
0000
0001
0100
0010
0000
1000
0000
0000
0000
1000
0010
0100
0000
0001
0000
,  // measure 60
0010
0000
0001
1000
0100
0000
1000
0000
0100
0000
1000
0010
1000
0000
0100
0010
,  // measure 61
0100
0000
0001
0000
0010
0000
0100
0000
0000
0000
0100
0000
0010
0000
0001
1000
,  // measure 62
0001
0000
0100
0000
0010
0000
1000
0000
0100
0000
1000
0100
1000
0000
0001
0100
,  // measure 63
0001
0000
1000
0010
0100
0000
0001
0000
0000
0000
0001
0100
0010
0000
1000
0000
,  // measure 64
0100
1000
0001
1000
0010
0000
0100
0000
0001
0000
1000
0010
1000
0000
0010
0100
,  // measure 65
0010
0000
1000
0000
0100
0000
0001
0000
0000
0000
0001
0000
0100
0000
1000
0001
,  // measure 66
1000
0000
0010
0000
0100
0000
0001
0000
1000
0000
0001
0100
0001
0000
0100
0010
,  // measure 67
0100
0000
0001
0000
0010
0000
1000
0000
0000
0000
1000
0000
0010
0000
0001
1000
,  // measure 68
0001
0000
0100
0000
0010
0000
1000
0001
1000
0000
0001
0010
0001
0000
0100
0010
,  // measure 69
0100
0000
0010
0000
1000
0000
0100
0000
0000
0000
0100
0000
1000
0000
0010
0100
,  // measure 70
0001
0010
0100
1000
0010
0100
0010
0001
,  // measure 71
0010
1000
0100
0001
0100
1000
0001
1000
,  // measure 72
0010
0100
0001
0010
0200
0000
1000
0000
1300
0000
0000
0011
0000
0000
1000
0000
,  // measure 73
0010
0100
0001
0010
0000
0010
0001
1000
,  // measure 74
0010
0100
0001
1000
0010
0000
0100
0000
0001
0000
0000
1100
0000
0000
0001
0000
,  // measure 75
0100
0010
0100
0001
0000
0001
1000
0100
,  // measure 76
1000
0001
0010
0001
1000
0000
0010
0000
0100
0000
0000
1010
0000
0000
0100
0000
,  // measure 77
0001
0010
0001
1000
0000
1000
0001
0010
,  // measure 78
0001
1000
0100
0001
0100
1000
1100
0000
,  // measure 79
0001
0000
0100
0000
0010
0000
0100
0001
1000
0000
0010
0100
0010
0000
1000
0100
,  // measure 80
1000
0000
0001
0000
1000
0100
0010
0001
1000
0000
0010
0100
0010
0000
1000
0000
,  // measure 81
0001
0000
0010
0100
0010
0000
0001
0000
0000
0000
0001
0000
1000
0000
0001
0000
,  // measure 82
0011
0000
0010
0000
1100
0000
1000
0000
0010
0000
1000
0100
1000
0000
0001
0000
,  // measure 83
0100
0000
0010
1000
0010
0000
0100
0000
0000
0000
0100
0000
0001
0000
0010
0000
,  // measure 84
0001
1000
0100
0010
0001
0000
1000
0000
0001
0000
0010
0001
0000
1000
0001
0000
,  // measure 85
1000
0000
0010
1000
0000
0001
1000
0000
0010
0000
0100
0000
0010
0000
1000
0000
,  // measure 86
0001
0000
0011
0000
1000
0000
1100
0000
0010
0000
0100
0000
0001
0000
1000
0010
,  // measure 87
1000
0000
0001
0010
0001
0000
0100
0000
0020
0000
0000
0000
1000
0000
0000
0000
,  // measure 88
0001
0000
0000
0000
1030
0000
0000
0000
0100
0000
0101
0000
0000
0000
0001
0010
,  // measure 89
0100
0000
0110
0000
0000
0000
1000
0001
1000
0000
0010
0000
0200
0000
1300
0000
,  // measure 90
0002
0000
0013
0000
0110
0000
0100
0000
1000
0000
1001
0000
0000
0000
0010
1000
,  // measure 91
0001
0000
0011
0000
0000
0000
1000
0001
0100
0000
0010
0000
2000
0000
3010
0000
,  // measure 92
0200
0000
0301
0000
0011
0000
0000
0000
1000
0000
1100
0000
0000
0000
0001
0100
,  // measure 93
0010
0000
0110
0000
0000
0000
1000
0001
1000
0000
0010
0000
0200
0000
1300
0000
,  // measure 94
0002
0000
0013
0000
1001
0000
1000
0000
0001
0000
0101
0000
0000
0000
0010
1000
,  // measure 95
0100
0000
1100
0000
0000
0000
0001
0100
0020
0000
0000
0000
1000
0000
0000
0000
,  // measure 96
0031
1100
0000
0000
;
